osu file format v9

[General]
AudioFilename: Renard - Rainbow Dash Likes Girls (Stay Gay Pony Girl).mp3
AudioLeadIn: 0
PreviewTime: 80199
Countdown: 1
SampleSet: Normal
StackLeniency: 0.7
Mode: 0
LetterboxInBreaks: 1

[Editor]
DistanceSpacing: 0.6
BeatDivisor: 4
GridSize: 8

[Metadata]
Title:Rainbow Dash Likes Girls (Stay Gay Pony Girl)
Artist:Renard
Creator:DoKoLP
Version:DoKo
Source:
Tags:

[Difficulty]
HPDrainRate:6
CircleSize:4
OverallDifficulty:9
ApproachRate:9
SliderMultiplier:2
SliderTickRate:1

[Events]
//Background and Video events
0,0,"cover.jpg"
//Break Periods
2,40990,57781
//Storyboard Layer 0 (Background)
//Storyboard Layer 1 (Fail)
//Storyboard Layer 2 (Pass)
//Storyboard Layer 3 (Foreground)
//Storyboard Sound Samples
//Background Colour Transformations
3,100,163,162,255

[TimingPoints]
6018,272.727272727273,4,1,0,75,1,0
6025,-100,4,1,0,75,0,1
40927,-100,4,1,0,75,0,0
58381,-200,4,2,0,90,0,0
71472,-200,4,1,0,75,0,0
80336,-100,4,2,0,90,0,0
88927,-100,4,1,0,75,0,0
97654,-100,4,1,0,90,0,0
106927,-100,4,1,0,75,0,0
112927,-100,4,1,0,90,0,0
115108,-200,4,1,0,60,0,0
132563,-200,4,1,0,70,0,0
140199,-133.333333333333,4,1,0,70,0,0
140608,-200,4,1,0,70,0,0
150018,-100,4,1,0,85,0,1
191745,-200,4,1,0,60,0,0

[Colours]
Combo1 : 136,57,103
Combo2 : 139,210,218
Combo3 : 216,216,216

[HitObjects]
208,48,6017,2,0,B|168:88|200:144,1,100,0|2
248,200,6290,1,0
304,256,6427,1,0
304,256,6495,1,0
304,256,6563,1,2
248,312,6699,1,0
304,256,6836,6,0,B|408:256,2,100,0|0|0
208,256,7245,2,0,B|104:256|80:120,1,200,2|0
304,256,7654,2,0,B|408:256|432:120,1,200,2|0
392,56,8063,5,0
336,112,8199,1,0
320,32,8336,1,2
240,32,8472,1,0
256,112,8608,1,0
256,112,8677,1,0
256,112,8745,1,2
240,32,8881,1,0
176,72,9017,5,0
120,128,9154,2,0,B|96:176|128:224,1,100
184,272,9427,2,0,B|272:352|368:264,1,200,2|0
328,112,9836,2,0,B|240:32|144:120,1,200,2|0
200,176,10245,5,0
200,176,10381,1,0
152,240,10517,2,0,B|208:264|264:232,1,100,2|0
296,176,10790,1,0
248,112,10927,2,0,B|192:88|136:120,1,100,2|0
88,168,11199,5,0
88,168,11267,1,0
88,168,11336,1,0
40,232,11472,2,0,B|40:336,2,100,0|2|0
40,152,11881,2,0,B|40:48,2,100,0|2|0
120,152,12290,6,0,B|176:152|176:152|208:120,1,100
264,56,12563,1,0
264,56,12699,2,0,B|296:104|296:104|296:200|296:200|328:232,1,200,2|0
248,328,13108,2,0,B|216:280|216:280|216:184|216:184|184:152,1,200,2|0
120,104,13517,5,0
120,104,13654,1,0
120,104,13790,2,0,B|208:56|312:56,1,200,2|0
392,280,14199,2,0,B|304:328|200:328,1,200,2|8
176,328,14540,1,8
152,328,14608,1,8
128,328,14677,1,8
104,328,14745,1,8
32,264,14881,6,0,B|56:160,1,100,0|2
256,40,15154,2,0,B|232:144,1,100,0|2
480,264,15427,2,0,B|456:160,1,100
376,160,15699,1,0
296,160,15836,1,0
216,160,15972,5,2
160,96,16108,1,0
216,160,16245,1,0
160,224,16381,1,2
216,288,16517,1,0
216,288,16586,1,0
216,288,16654,1,0
160,352,16790,1,0
88,336,16927,6,0,B|88:232,1,100
88,160,17199,1,2
256,40,17336,1,0
88,160,17472,1,2
256,40,17608,1,0
424,336,17745,6,0,B|424:232,1,100
424,160,18018,1,0
256,40,18154,1,0
424,160,18290,1,2
256,40,18427,1,2
256,120,18563,1,0
256,136,18631,1,0
256,152,18699,1,0
256,168,18768,1,0
256,184,18836,1,0
256,272,18972,5,0
176,240,19108,2,0,B|120:224|88:192|88:192|136:176|136:176|136:120,1,200,2|0
336,240,19518,2,0,B|392:224|424:192|424:192|376:176|376:176|376:120,1,200,2|0
336,56,19927,5,0
336,56,19995,1,0
336,56,20063,1,0
256,48,20199,1,0
256,48,20336,2,2,B|184:120,2,100,2|0|0
256,336,20745,2,2,B|328:264,2,100,2|0|0
256,192,21154,5,0
256,192,21290,1,0
208,128,21427,1,2
208,128,21495,1,0
208,128,21563,1,0
160,192,21699,1,0
256,192,21836,1,2
336,192,21972,5,0
352,192,22040,1,0
368,192,22108,1,0
384,192,22177,1,0
400,192,22245,1,0
480,192,22381,5,8
432,120,22518,1,8
352,72,22654,1,8
256,40,22790,1,8
160,72,22927,1,8
80,120,23063,1,8
32,192,23199,1,8
32,192,23268,1,8
32,192,23336,1,8
32,192,23404,1,8
32,192,23472,6,8,B|32:296|32:296|72:272|128:296,1,200
256,296,23881,1,0
256,192,24018,1,8
256,88,24154,1,0
256,192,24290,1,8
480,192,24427,2,8,B|480:88|480:88|440:112|384:88,1,200
296,88,24836,6,8,B|208:136,1,100
88,280,25108,2,8,B|176:232,1,100
368,208,25381,2,8,B|280:256,1,100,8|0
192,312,25654,6,0,B|152:344|80:344|32:240,1,200,8|0
96,88,26063,2,0,B|136:56|208:56|256:160,1,200,8|0
256,240,26472,1,0
256,240,26608,1,0
320,312,26745,2,0,B|360:344|432:344|480:240,1,200,8|0
416,88,27154,2,0,B|376:56|304:56|256:160,1,200,8|0
256,240,27563,5,0
256,240,27699,1,0
224,312,27836,2,8,B|176:336|128:312,1,100
24,192,28108,2,8,B|72:168|120:192,1,100
224,72,28381,2,0,B|176:48|128:72,1,100,8|0
24,192,28654,5,8
112,192,28790,2,0,B|216:192,1,100,8|0
384,88,29063,2,8,B|336:88|336:88|296:120,1,100
128,296,29336,2,8,B|176:296|176:296|216:264,1,100
288,192,29608,1,8
288,192,29745,1,8
288,192,29881,1,8
376,192,30018,1,8
464,192,30154,2,0,B|464:88|464:32|352:16|416:128|256:104,1,300,0|8
48,192,30836,5,8
48,192,30972,2,0,B|112:96|168:312|240:160,1,200,8|0
464,192,31518,1,8
368,104,31654,1,8
272,192,31790,1,8
368,280,31927,1,8
272,192,32063,1,8
224,72,32199,6,0,B|176:88|152:144|152:192|176:248,1,200,8|0
472,344,32745,1,8
48,344,33018,1,8
48,344,33154,2,0,B|48:144,1,200,8|0
256,40,33699,5,8
256,120,33836,1,8
256,200,33972,1,8
256,280,34108,1,8
256,280,34245,1,8
256,280,34381,1,8
472,40,34654,1,8
256,360,34927,1,8
40,40,35199,1,8
40,40,35336,2,0,B|40:144|88:176|152:176,1,200,8|0
312,176,35881,5,8
256,120,36018,1,8
200,176,36154,1,8
256,288,36290,1,8
256,120,36427,1,8
296,56,36563,6,0,B|400:56,2,100,8|0|0
216,56,36972,2,0,B|112:56,2,100,8|0|0
256,152,37381,1,0
256,152,37518,1,0
256,232,37654,1,8
184,192,37790,1,0
328,192,37927,1,0
336,272,38063,6,0,B|392:272|424:232|424:168|376:120,1,200,8|0
312,80,38472,1,0
312,80,38540,1,0
312,80,38608,1,0
256,24,38745,6,8,B|152:24|152:24|88:96,1,200,8|0
256,360,39154,2,0,B|360:360|360:360|424:288,1,200,8|0
424,288,39563,1,0
256,120,39836,5,8
256,264,39972,1,8
306,141,40108,1,8
205,242,40245,1,8
328,192,40381,1,8
184,192,40518,1,8
306,242,40654,1,8
205,141,40790,1,12
352,48,58381,6,0,B|392:144|360:256,1,200,4|0
304,304,59199,1,0
256,240,59472,1,0
208,304,59745,1,0
152,240,60017,2,0,B|112:144|144:32,1,200,0|4
64,48,60836,5,0
64,128,61108,1,0
128,88,61381,2,0,B|176:64|176:112|224:80,1,100
296,48,61927,1,0
296,128,62199,2,0,B|296:232,2,100
456,48,63017,5,0
360,192,63290,1,0
256,48,63563,1,0
152,192,63836,1,0
56,48,64108,1,0
256,344,64381,2,0,B|256:144,1,200,4|0
472,344,65472,6,0,B|368:344,1,100
40,40,66017,2,0,B|144:40,1,100
256,192,66563,1,6
256,192,68199,12,0,71199
160,80,71472,5,0
72,280,72563,5,0
256,192,73654,5,0
352,80,75563,5,0
440,280,75836,1,0
256,192,76654,6,0,B|256:208,7,12.5
256,168,76927,1,0
256,56,77745,6,0,B|256:40,7,12.5
256,80,78018,5,0
176,192,78154,1,0
176,192,78222,1,0
176,192,78290,1,0
176,192,78358,1,0
176,192,78427,1,0
344,192,78563,5,0
256,312,78699,1,0
256,312,78768,1,0
256,312,78836,1,0
256,312,78904,1,0
256,312,78972,1,0
344,312,79108,5,0
344,312,79177,1,0
344,312,79245,1,0
256,192,79381,5,0
256,192,79449,1,0
256,192,79518,1,0
176,312,79654,5,0
176,312,79790,1,0
104,312,79927,1,0
96,312,79995,1,0
88,312,80063,1,0
80,312,80131,1,0
72,312,80199,1,0
32,240,80336,5,0
16,160,80472,1,0
96,184,80608,1,0
72,104,80745,1,0
144,80,80881,1,0
224,96,81018,1,0
168,152,81154,5,0
248,168,81290,1,0
304,112,81427,1,0
376,72,81563,2,0,B|424:40|472:104,1,100
488,160,81836,2,0,B|440:192|392:128,1,100
336,184,82108,1,0
336,184,82245,1,0
400,232,82381,5,0
400,232,82518,1,0
328,264,82654,2,0,B|328:368,1,100
256,264,82927,2,0,B|256:368,1,100
184,264,83199,2,0,B|184:368,1,100
112,216,83472,5,0
152,128,83608,1,0
200,40,83745,1,0
256,120,83881,1,0
312,40,84018,1,0
360,128,84154,1,0
400,216,84290,1,0
448,128,84427,1,0
448,128,84563,6,0,B|448:24,2,100
256,256,84972,2,0,B|256:360,2,100
64,128,85381,2,0,B|64:24,2,100
64,232,85790,5,0
144,168,85927,1,0
224,232,86063,1,0
448,232,86199,1,0
368,168,86336,1,0
288,232,86472,1,0
256,136,86608,5,0
256,40,86745,1,0
256,136,86881,1,0
256,240,87018,2,0,B|256:288|200:328,1,100
256,240,87290,2,0,B|256:288|312:328,1,100
408,336,87563,5,0
464,256,87699,1,0
408,176,87836,1,0
344,256,87972,1,0
248,256,88108,1,0
264,344,88245,1,0
168,336,88381,2,0,B|120:320|64:336,2,100
32,160,88927,6,0,B|64:112|120:88|168:88|224:88,1,200,2|0
480,160,89336,2,0,B|448:112|392:88|344:88|288:88,1,200,2|0
256,152,89745,1,0
256,272,89881,1,0
256,80,90018,6,0,B|256:32|256:32|208:56|152:56|152:56|112:32,1,200,2|0
256,304,90427,2,0,B|256:352|256:352|304:328|360:328|360:328|400:352,1,200,2|0
480,352,90836,2,0,B|480:248,1,100
480,168,91108,6,0,B|480:64|392:64|336:112,1,200,2|0
32,216,91518,2,0,B|32:320|120:320|176:272,1,200,2|0
256,192,91927,1,0
256,192,92063,1,0
368,264,92199,6,0,B|328:192|376:112|376:112|416:112,1,200,2|0
144,120,92608,2,0,B|184:192|136:272|136:272|96:272,1,200,2|0
40,336,93018,1,0
40,216,93154,1,0
40,96,93290,6,0,B|144:96|144:96|208:24,1,200,2|0
472,96,93699,2,0,B|368:96|368:96|304:24,1,200,2|0
256,88,94108,1,0
256,168,94245,1,0
256,248,94381,6,0,B|304:248|304:248|304:304|256:336|208:304|208:264,1,200,2|0
256,136,94790,2,0,B|208:136|208:136|208:80|256:48|304:80|304:120,1,200,2|0
344,184,95199,1,0
384,256,95336,1,0
448,312,95472,6,0,B|488:272|488:224|488:224|456:240|456:240|456:176,1,200,2|0
64,312,95881,2,0,B|24:272|24:224|24:224|56:240|56:240|56:176,1,200,2|0
256,192,96290,1,0
256,192,96427,1,0
256,112,96563,6,2,B|224:72|168:72|120:112|64:48,1,200,2|0
256,272,96972,2,0,B|288:312|344:312|392:272|448:336,1,200,2|0
488,264,97381,1,0
488,184,97518,1,0
488,104,97654,6,0,B|448:72|392:72,1,100
256,160,97927,2,0,B|296:192|352:192,1,100
232,296,98199,2,0,B|192:264|136:264,1,100
8,352,98472,2,0,B|48:384|104:384,1,100
408,320,98745,6,0,B|336:240,1,100
272,288,99018,2,0,B|200:208,1,100
408,64,99290,2,0,B|336:144,1,100
272,96,99563,2,0,B|200:176,1,100
48,192,99836,6,0,B|48:136|104:120,1,100
256,232,100108,2,0,B|256:288|200:304,1,100
464,192,100381,2,0,B|464:136|408:120,1,100
256,304,100654,2,0,B|256:360|312:376,1,100
48,192,100927,6,0,B|48:248|104:264,1,100
256,152,101199,2,0,B|256:96|200:80,1,100
464,192,101472,2,0,B|464:248|408:264,1,100
256,80,101745,2,0,B|256:24|312:8,1,100
464,64,102018,6,0,B|464:168,1,100
48,64,102290,2,0,B|48:168,1,100
392,64,102563,2,0,B|392:168,1,100
120,64,102836,2,0,B|120:168,1,100
320,64,103108,2,0,B|320:168,1,100
192,64,103381,2,0,B|192:168,1,100
256,280,103654,6,0,B|200:280|200:280|160:320,1,100
168,192,103927,2,0,B|168:136|168:136|128:96,1,100
256,104,104199,2,0,B|312:104|312:104|352:64,1,100
384,192,104472,2,0,B|384:248|384:248|424:288,1,100
256,320,104745,6,0,B|200:320|200:320|160:360,1,100
128,192,105018,2,0,B|128:136|128:136|88:96,1,100
256,64,105290,2,0,B|312:64|312:64|352:24,1,100
376,192,105563,2,0,B|376:248|376:248|416:288,1,100
256,352,105836,6,0,B|200:352|200:352|160:392,1,100
96,192,106108,2,0,B|96:136|96:136|56:96,1,100
256,32,106381,2,0,B|312:32|312:32|352:-8,1,100
456,336,106927,5,0
456,336,107063,1,0
56,48,107472,5,0
56,48,107608,1,0
56,336,108018,5,0
56,336,108154,1,0
456,48,108563,5,0
456,48,108699,1,0
256,192,109108,5,0
256,192,109245,1,0
256,12,109654,6,0,B|256:112,1,100
480,192,110199,2,0,B|380:192,1,100
32,192,110745,2,0,B|132:192,1,100
256,372,111290,2,0,B|256:272,1,100
216,144,111836,5,0
296,240,111972,1,0
352,96,112381,5,0
160,288,112518,1,0
64,144,112927,5,0
24,80,113063,1,0
168,144,113199,5,0
200,208,113336,1,0
256,120,113472,5,0
256,48,113608,1,0
344,144,113745,5,0
312,208,113881,1,0
448,144,114018,5,0
488,80,114154,1,0
416,40,114290,1,0
336,16,114427,1,0
256,8,114563,1,0
176,24,114699,1,0
104,56,114836,1,0
64,128,114972,1,0
56,168,115040,1,0
64,208,115108,2,0,B|96:256|136:280|200:288|256:288,1,200
464,56,116745,5,0
305,56,117290,2,0,B|368:104|312:184|256:240|256:336|256:336|256:240|200:184|144:104|204:59,1,600
384,192,119472,6,0,B|336:216|144:96|408:-16|464:112|384:256|264:240|248:240|128:256|48:112|104:-16|368:96|176:216|128:192,1,600
24,32,121654,6,0,B|128:48|80:112|128:192|128:192|200:120|256:152|256:152|312:120|384:192|384:192|432:112|384:48|488:32,1,700
256,48,123836,6,0,B|256:264,3,200
464,192,126018,6,0,B|392:304|256:288|120:304|48:192,1,475
256,192,127654,1,0
192,40,128199,6,0,B|192:96|256:136|256:136|336:192|256:248|256:248|208:320|256:304|304:320|256:248|256:248|176:192|256:136|256:136|320:96|320:32,1,675
256,192,130381,12,0,132018
256,48,132563,5,0
184,88,132836,1,0
160,120,132972,1,0
184,152,133108,1,0
256,192,133381,1,0
336,192,133654,2,0,B|440:192,1,100
480,192,134063,5,0
464,224,134199,1,0
480,264,134336,2,0,B|472:352|368:208|376:288|360:320,1,150
304,352,135018,5,0
256,288,135290,1,2
208,352,135563,1,0
128,192,135836,1,2
256,48,136108,1,0
384,192,136381,1,2
256,288,136654,1,0
88,328,136927,5,0
48,256,137199,2,0,B|8:288,4,50
24,184,138018,2,0,B|0:136|16:88|104:56|160:96,1,200
208,128,138836,1,0
280,104,139108,2,0,B|328:80|368:128|336:168|312:192|376:240,1,200
256,48,140199,6,2,B|248:56|248:56|264:56|264:56|248:72|248:72|264:72|264:72|248:88|248:88|264:88|264:88|248:104|248:104|264:104|264:104|232:128,1,149.999995529652
256,208,140745,1,4
256,344,141018,1,4
416,200,141290,6,0,B|440:176|440:104,1,100
408,80,141699,1,0
376,64,141836,1,0
344,80,141972,1,0
312,64,142108,1,0
216,136,142381,6,0,B|192:152|192:152|192:112|144:112,1,100
112,128,142790,1,0
88,160,142927,1,0
80,192,143063,1,0
88,224,143199,1,0
152,288,143472,5,0
184,304,143608,1,0
216,312,143745,1,0
248,312,143881,1,0
272,304,144018,1,0
296,288,144154,1,0
312,264,144290,2,0,B|312:208,1,50
312,184,144563,2,0,B|312:152|336:136,1,50
352,120,144836,2,0,B|376:104|376:80,1,50
376,48,145108,5,0
136,48,145381,1,0
256,192,145654,5,0
208,248,145927,1,0
208,248,146063,1,0
304,248,146199,1,0
304,136,146336,1,0
208,136,146472,1,0
256,192,146745,5,0
256,80,147018,1,0
256,80,147154,1,0
360,192,147290,1,0
256,304,147427,1,0
152,192,147563,1,0
256,192,147836,12,0,149745
376,40,150018,6,2,B|424:72|432:120,1,100,8|0
424,304,150290,6,2,B|392:352|344:360,1,100,8|0
136,344,150563,6,2,B|88:312|80:264,1,100,8|0
256,192,150836,1,8
256,192,150972,1,8
312,72,151108,1,0
312,72,151245,2,0,B|384:144,1,100,8|0
200,312,151518,2,0,B|128:240,4,100,8|0|8|0|8
136,40,152199,6,0,B|88:72|80:120,1,100,8|0
88,304,152472,6,0,B|120:352|168:360,1,100,8|0
376,344,152745,6,0,B|424:312|432:264,1,100,8|0
256,192,153018,1,8
256,192,153154,1,8
200,72,153290,1,0
200,72,153427,2,0,B|128:144,1,100,8|0
312,312,153699,2,0,B|384:240,4,100,8|0|8|0|8
440,184,154381,5,8
400,112,154518,1,0
400,112,154586,1,0
400,112,154654,1,0
336,64,154790,1,0
336,64,154927,1,8
256,88,155063,2,0,B|280:136|336:144,1,100
256,296,155336,2,0,B|232:248|176:240,1,100,8|0
104,232,155608,5,0
104,232,155677,1,0
104,232,155745,2,0,B|136:136,1,100,8|0
224,40,156018,2,8,B|256:136,1,100
360,232,156290,2,0,B|392:136,1,100,8|0
416,48,156563,6,0,B|312:48|312:48|344:88|304:136,1,200,8|0
256,192,156972,1,0
96,336,157108,2,0,B|200:336|200:336|168:296|208:248,1,200,8|0
256,192,157518,1,8
40,176,157790,5,0
104,96,157927,1,8
200,48,158063,1,0
216,40,158131,1,0
232,40,158199,1,8
248,40,158268,1,0
264,40,158336,1,0
280,40,158404,1,0
296,48,158472,1,8
384,112,158608,1,8
448,192,158745,6,0,B|472:240|448:288,2,100,8|0|8
256,184,159154,2,0,B|232:136|256:88,2,100,0|8|0
344,232,159563,1,8
344,232,159699,1,8
344,128,159836,1,0
344,128,159904,1,0
344,128,159972,1,8
256,80,160108,1,0
168,128,160245,1,8
344,176,160381,1,0
168,232,160518,1,8
344,280,160654,1,0
256,320,160790,1,8
160,344,160927,6,0,B|88:272|120:248|120:248|88:224|88:224|120:192,1,200,8|0
352,40,161336,2,0,B|424:112|392:136|392:136|424:160|424:160|392:192,1,200,8|0
256,200,161745,1,8
256,200,161881,1,8
176,48,162018,2,0,B|72:48|112:96|112:96|64:176,1,200,8|0
336,336,162427,2,0,B|440:336|400:288|400:288|448:208,1,200,8|0
488,144,162836,1,0
488,144,162904,1,0
488,144,162972,1,0
440,80,163108,5,8
256,352,163381,1,8
72,80,163654,1,8
256,40,163927,1,8
256,40,164063,1,8
256,352,164336,1,0
256,272,164472,1,8
256,256,164540,1,0
256,240,164608,1,0
256,224,164677,1,0
256,208,164745,1,8
256,192,164813,1,0
256,176,164881,2,0,B|256:72,2,100,8|0|8
352,296,165290,6,0,B|400:264|360:208|368:152|432:128,1,200,8|0
424,56,165699,2,0,B|376:64|344:96|336:112,2,100,8|0|0
464,128,166108,1,8
408,184,166245,1,0
408,184,166313,1,0
408,184,166381,1,8
464,240,166518,1,0
256,336,166654,5,8
160,192,166790,1,0
256,336,166927,1,8
352,192,167063,1,0
320,176,167131,1,6
296,144,167199,1,6
256,112,167268,1,6
216,144,167336,1,6
192,176,167404,1,6
160,192,167472,6,0,B|112:192|112:192|72:144,1,100
160,192,167745,2,0,B|126:158|126:158|131:95,1,100
160,192,168018,2,0,B|160:144|160:144|208:104,1,100
160,192,168290,2,0,B|193:158|193:158|256:163,1,100
160,192,168563,2,0,B|208:192|208:192|247:240,1,100
160,192,168836,2,0,B|193:225|193:225|188:288,1,100
160,192,169108,2,0,B|160:240|160:240|112:279,1,100
160,192,169381,2,0,B|126:225|126:225|63:220,1,100
352,192,169654,6,0,B|400:192|400:192|440:144,1,100
352,192,169927,2,0,B|385:158|385:158|380:95,1,100
352,192,170199,2,0,B|352:144|352:144|304:104,1,100
352,192,170472,2,0,B|318:158|318:158|255:163,1,100
352,192,170745,2,0,B|304:192|304:192|264:240,1,100
352,192,171018,2,0,B|318:225|318:225|323:288,1,100
352,192,171290,2,0,B|352:240|352:240|400:279,1,100
352,192,171563,2,0,B|385:225|385:225|448:220,1,100
480,152,171836,5,0
448,80,171972,1,0
400,144,172108,1,0
368,72,172245,1,0
320,136,172381,1,0
240,136,172518,1,0
280,64,172654,1,0
280,64,172790,2,0,B|232:48|160:64|144:136|184:192,1,200
232,232,173199,5,0
232,232,173268,1,0
232,232,173336,1,0
288,288,173472,1,0
288,288,173540,1,0
288,288,173608,1,0
344,232,173745,1,0
344,232,173813,1,0
344,232,173881,1,0
464,192,174018,6,0,B|440:144|384:120,1,100
256,48,174290,2,0,B|256:152,1,100
48,192,174563,2,0,B|72:144|128:120,1,100
256,48,174836,1,0
256,128,174972,1,0
256,208,175108,1,0
256,288,175245,1,0
256,368,175381,1,0
240,368,175449,1,0
224,368,175518,1,0
216,360,175586,1,0
208,352,175654,1,0
200,344,175722,1,0
192,336,175790,1,0
184,328,175858,1,0
176,320,175927,1,0
168,312,175995,1,0
160,304,176063,1,0
152,296,176131,1,0
144,288,176199,6,0,B|72:208,2,100
48,48,176608,2,0,B|120:128,2,100
280,184,177018,2,0,B|208:104,2,100
360,184,177427,5,0
360,184,177495,1,0
360,184,177563,1,0
432,104,177699,1,0
360,280,177836,1,0
288,104,177972,1,0
288,240,178108,1,0
432,240,178245,1,0
360,72,178381,5,0
296,24,178518,1,0
216,24,178654,1,0
152,72,178790,1,0
96,136,178927,2,0,B|24:224,1,100
86,194,179199,2,0,B|48:301,1,100
97,251,179472,2,0,B|98:365,1,100
127,302,179745,5,0
152,320,179813,1,0
184,328,179881,1,0
216,320,179949,1,0
240,296,180018,1,0
248,264,180086,1,0
248,232,180154,1,0
232,208,180222,1,0
208,192,180290,1,0
192,168,180358,1,0
184,136,180427,1,0
200,112,180495,1,0
224,96,180563,6,0,B|272:72|328:80,1,100
480,192,180836,2,0,B|432:168|376:176,1,100
32,192,181108,2,0,B|80:168|136:176,1,100
256,184,181381,1,0
256,184,181449,1,0
256,184,181518,1,0
312,136,181654,5,0
200,240,181790,1,0
312,240,181927,1,0
200,136,182063,1,0
256,80,182199,1,0
256,296,182336,1,0
256,80,182472,1,0
256,296,182608,1,0
256,184,182745,1,0
256,184,183836,5,0
416,184,184927,6,0,B|448:144|504:144,2,100,8|0|8
368,248,185336,1,0
304,296,185472,2,0,B|272:240|320:184,1,100,8|0
352,136,185745,1,0
352,136,185813,1,0
352,136,185881,1,8
352,136,185949,1,0
352,136,186018,2,0,B|424:64,2,100,8|0|8
288,192,186427,5,0
224,136,186563,1,8
288,192,186699,1,0
208,224,186836,1,8
304,104,186972,1,0
256,304,187108,6,0,B|208:352|208:352|112:240,1,200,8|0
256,80,187518,2,0,B|304:32|304:32|400:144,1,200,8|0
440,192,187927,1,0
456,224,187995,1,0
456,256,188063,1,0
440,288,188131,1,0
408,304,188199,1,0
328,296,188336,6,0,B|280:288|256:232,2,100,8|0|8
244,317,188745,2,0,B|212:280|230:222,2,100,0|8|0
256,40,189290,5,0
256,40,189563,1,0
256,344,189836,1,0
256,344,190108,1,0
40,192,190381,1,0
40,192,190654,1,0
472,192,190927,1,0
472,192,191199,1,0
256,192,191472,5,4
256,192,191745,12,0,196927
