osu file format v9

[General]
AudioFilename: renard.mp3
AudioLeadIn: 0
PreviewTime: 32456
Countdown: 1
SampleSet: Normal
StackLeniency: 0.7
Mode: 2
LetterboxInBreaks: 1

[Editor]
DistanceSpacing: 0.8
BeatDivisor: 4
GridSize: 8

[Metadata]
Title:Painful Epic
Artist:Renard
Creator:nekitkas
Version:Painful CTB
Source:renard
Tags:renard

[Difficulty]
HPDrainRate:8
CircleSize:4
OverallDifficulty:8
ApproachRate:9
SliderMultiplier:2.5
SliderTickRate:1

[Events]
//Background and Video events
0,0,"renard.jpg"
//Break Periods
//Storyboard Layer 0 (Background)
//Storyboard Layer 1 (Fail)
//Storyboard Layer 2 (Pass)
//Storyboard Layer 3 (Foreground)
//Storyboard Sound Samples
//Background Colour Transformations
3,100,163,162,255

[TimingPoints]
1150,300,4,1,0,100,1,0
1565,-100,4,1,0,100,0,0
3215,-100,4,1,0,50,0,0
3515,-100,4,1,0,100,0,0
3965,-100,4,1,0,50,0,0
4265,-100,4,1,0,100,0,0
6065,-100,4,1,0,50,0,0
6365,-100,4,1,0,100,0,0
7865,-100,4,1,0,50,0,0
8315,-100,4,1,0,100,0,0
9065,-100,4,1,0,50,0,0
9365,-100,4,1,0,100,0,0
10265,-100,4,1,0,50,0,0
10565,-100,4,1,0,100,0,0
10865,-100,4,1,0,50,0,0
11165,-100,4,1,0,100,0,0
12365,-100,4,1,0,50,0,0
13115,-100,4,1,0,100,0,0
13565,-100,4,1,0,50,0,0
13865,-100,4,1,0,100,0,0
15065,-100,4,1,0,50,0,0
15515,-100,4,1,0,100,0,0
16115,-100,4,1,0,50,0,0
16415,-100,4,1,0,100,0,0
17465,-100,4,1,0,50,0,0
17915,-100,4,1,0,100,0,0
18815,-100,4,1,0,50,0,0
19265,-100,4,1,0,100,0,0
20315,-100,4,1,0,60,0,0
22715,-100,4,1,0,100,0,0
22750,-100,4,1,0,50,0,1
23315,-100,4,1,0,50,0,1
23765,-100,4,1,0,100,0,1
25265,-100,4,1,0,50,0,1
25565,-100,4,1,0,100,0,1
26765,-100,4,1,0,50,0,1
27215,-100,4,1,0,100,0,1
27665,-100,4,1,0,50,0,1
28565,-100,4,1,0,100,0,1
29465,-100,4,1,0,50,0,1
29915,-100,4,1,0,100,0,1
30365,-100,4,1,0,50,0,1
32350,-100,4,1,0,100,0,0
32465,-100,4,1,0,50,0,0
32765,-100,4,1,0,100,0,0
32915,-100,4,1,0,50,0,0
33215,-100,4,1,0,100,0,0
34865,-100,4,1,0,50,0,0
35615,-100,4,1,0,100,0,0
36815,-100,4,1,0,50,0,0
39215,-100,4,1,0,100,0,0
39815,-100,4,1,0,50,0,0
40115,-100,4,1,0,100,0,0
41615,-100,4,1,0,50,0,0
42065,-100,4,1,0,100,0,0
44465,-100,4,1,0,50,0,0
44765,-100,4,1,0,100,0,0
45965,-100,4,1,0,50,0,0
46565,-100,4,1,0,100,0,0
48815,-100,4,1,0,50,0,0
49265,-100,4,1,0,100,0,0
49865,-100,4,1,0,50,0,0
51365,-100,4,1,0,50,0,0
51665,-100,4,1,0,100,0,0
52265,-100,4,1,0,50,0,0
52565,-100,4,1,0,100,0,0
53615,-100,4,1,0,50,0,0
54065,-100,4,1,0,100,0,0
54515,-100,4,1,0,50,0,0
54815,-100,4,1,0,100,0,0

[Colours]
Combo1 : 255,40,40
Combo2 : 255,32,32
Combo3 : 255,72,72
Combo4 : 255,55,55
Combo5 : 255,64,64

[HitObjects]
136,192,1150,1,0
488,192,1300,1,8
440,176,1375,1,8
392,160,1450,1,8
24,192,1600,2,0,B|64:152|104:136|136:176,1,125
136,168,1900,1,0
376,224,2050,5,0
136,224,2200,1,0
480,112,2350,2,0,B|432:56|432:56|384:104|264:104,1,250
128,192,2800,1,0
384,192,2950,1,0
256,192,3100,1,0
208,168,3250,5,8
304,168,3325,1,8
256,160,3400,1,8
120,192,3550,1,0
392,192,3700,1,0
256,192,3850,1,0
312,144,4000,5,8
256,136,4075,1,8
200,144,4150,1,8
384,216,4300,1,0
128,216,4450,1,0
256,64,4600,1,0
384,216,4750,2,0,B|328:272|328:272|264:224|160:280,1,250
128,216,5200,1,0
384,216,5350,1,0
168,120,5500,2,0,B|208:168|208:168|280:104|392:136,1,250
168,120,5950,1,0
184,216,6100,5,8
256,216,6175,1,8
328,216,6250,1,8
120,216,6400,2,0,B|120:88,1,124.999995231629
384,216,6700,2,0,B|384:360,1,124.999995231629
256,288,7000,1,0
256,208,7150,2,0,B|168:144|168:144|248:96|91:85,1,250
128,192,7600,1,0
368,192,7750,1,0
232,112,7900,1,8
280,160,7975,1,8
232,208,8050,1,8
280,256,8125,1,8
232,296,8200,1,8
104,192,8350,5,0
384,192,8500,1,0
128,192,8650,1,0
360,192,8800,1,0
256,192,8950,1,0
256,344,9100,5,8
208,296,9175,1,8
304,296,9250,1,8
256,32,9400,1,0
160,144,9550,2,0,B|256:168|256:168|320:88|400:160,1,250
424,192,10000,1,0
80,192,10150,5,0
312,192,10300,1,8
256,192,10375,1,8
200,192,10450,1,8
368,192,10600,1,0
152,192,10750,1,0
256,80,10900,5,8
256,136,10975,1,8
256,192,11050,1,8
200,312,11200,2,0,B|328:312,2,125
120,192,11650,1,0
408,192,11800,1,0
328,136,11950,2,0,B|312:152|312:152|304:136|304:136|288:152|288:152|288:136|288:136|272:152|272:152|264:136|264:136|256:152|256:152|248:136|248:136|232:152|232:152|224:136|224:136|216:152|216:152|208:136|208:136|192:144,1,250
240,264,12400,1,8
248,264,12475,1,8
256,264,12550,1,8
264,264,12625,1,8
272,264,12700,1,8
208,184,12850,5,8
304,184,12925,1,8
256,184,13000,1,8
96,184,13150,1,0
416,184,13300,1,0
96,184,13450,1,0
256,40,13600,5,8
256,80,13675,1,8
256,112,13750,1,8
416,184,13900,1,0
96,184,14050,1,0
256,184,14200,1,0
208,104,14350,2,0,B|216:96|216:96|232:112|232:112|240:88|240:88|248:112|248:112|256:96|256:96|264:112|264:112|272:88|272:88|280:112|280:112|288:96|288:96|296:112|296:112|304:96|304:96|312:112|312:112|320:104,1,250
160,184,14800,1,0
352,184,14950,1,0
128,192,15100,1,8
192,192,15175,1,8
256,192,15250,1,8
320,192,15325,1,8
384,192,15400,1,8
128,192,15550,5,0
384,192,15700,1,0
256,192,15850,1,0
256,128,16000,1,0
320,96,16150,1,8
256,64,16225,1,8
192,96,16300,1,8
128,192,16450,5,0
384,192,16600,1,0
160,272,16750,2,8,B|256:200|256:200|368:272,1,250
160,336,17200,1,0
368,336,17350,1,0
96,320,17500,5,8
48,272,17575,1,8
24,208,17650,1,8
24,144,17725,1,8
48,80,17800,1,8
256,56,17950,2,0,B|384:56,1,125
256,128,18250,6,0,B|128:128,1,125
256,200,18550,2,0,B|400:200,1,125
368,264,18850,1,8
312,264,18925,1,8
256,264,19000,1,8
200,264,19075,1,8
144,264,19150,1,8
368,120,19300,6,0,B|496:120,2,125
120,192,19750,1,0
392,192,19900,1,0
160,192,20050,1,0
352,192,20200,1,0
192,192,20350,1,4
312,192,20500,1,4
232,192,20650,1,4
280,192,20800,5,4
224,128,20950,1,4
288,128,21100,1,4
224,192,21250,1,4
312,192,21400,1,4
224,256,21550,1,4
288,256,21700,5,4
168,192,21850,1,4
344,192,22000,1,4
168,256,22150,1,4
344,256,22300,1,4
168,128,22450,1,4
344,128,22600,5,4
256,32,22750,2,0,B|328:136|328:136|256:240,1,250,8|0
328,184,23200,1,0
32,184,23350,1,8
80,184,23425,1,8
128,184,23500,1,8
176,184,23575,1,8
224,184,23650,1,8
256,32,23800,5,0
184,112,23950,2,8,B|248:128|248:128|312:171|272:240|312:304,1,250
360,192,24400,1,0
128,192,24550,1,0
384,248,24700,2,8,B|328:320|328:320|256:248|176:296,1,250
256,192,25150,1,0
200,152,25300,5,8
256,120,25375,1,8
312,152,25450,1,8
120,184,25600,1,0
384,184,25750,1,0
168,184,25900,1,0
216,184,26050,5,0
336,184,26200,1,0
280,200,26350,2,0,B|280:216|280:216|264:208|264:208|264:224|264:224|248:216|248:216|248:232|248:232|232:224|232:224|232:240|232:240|216:232|216:232|216:248|216:248|200:240|200:240|200:256|200:256|184:248|184:248|184:264|184:264|168:256|168:256|168:272|168:272|152:288,1,250
144,184,26800,1,8
200,152,26875,1,8
256,136,26950,1,8
320,152,27025,1,8
376,184,27100,1,8
144,184,27250,5,0
384,184,27400,1,0
144,184,27550,1,0
400,248,27700,1,8
400,272,27775,1,8
400,312,27850,1,8
136,248,28000,5,8
136,272,28075,1,8
136,304,28150,1,8
256,200,28300,1,8
256,208,28375,1,8
256,216,28450,1,8
248,32,28600,5,0
248,88,28750,2,0,B|304:152|304:152|368:144|368:208|368:208|400:264,1,250
96,184,29200,1,0
416,184,29350,1,0
144,184,29500,1,8
192,184,29575,1,8
256,184,29650,1,8
320,184,29725,1,8
368,184,29800,1,8
320,112,29950,6,0,B|192:112,1,125
192,240,30250,1,0
320,240,30400,1,8
288,240,30475,1,8
256,240,30550,1,8
152,240,30700,1,0
384,240,30850,5,0
456,240,31000,1,0
384,168,31150,2,0,B|352:168|352:168|368:120|368:120|312:120|312:120|312:64|312:64|256:72,1,250
448,168,31600,1,0
200,160,31750,1,0
88,160,31900,1,0
312,160,32050,5,0
144,160,32200,1,0
256,160,32350,1,0
496,192,32500,1,8
368,192,32575,1,8
432,192,32650,1,8
104,192,32800,5,0
296,192,32950,1,8
232,192,33025,1,8
168,192,33100,1,8
368,192,33250,1,0
296,192,33400,1,0
104,192,33550,6,0,B|64:184|64:184|120:152|120:152|72:120|72:120|120:104|120:104|99:66,1,250,0|0
368,112,34000,1,0
160,112,34150,1,0
368,168,34300,1,0
160,168,34450,1,0
368,224,34600,1,0
160,224,34750,5,0
216,280,34900,1,8
256,312,34975,1,8
296,280,35050,1,8
352,200,35200,1,8
304,200,35275,1,8
256,200,35350,1,8
208,200,35425,1,8
160,200,35500,1,8
384,192,35650,5,0
128,192,35800,1,0
152,64,35950,2,0,B|233:50|233:50|242:110|310:114|310:114|386:120,1,250
400,192,36400,1,0
112,192,36550,1,0
152,192,36700,1,0
320,160,36850,5,8
288,120,36925,1,8
256,80,37000,1,8
224,120,37075,1,8
192,160,37150,1,8
408,192,37300,5,4
104,192,37450,1,4
416,192,37600,1,4
96,192,37750,1,4
368,192,37900,1,4
144,192,38050,1,4
312,192,38200,1,4
200,192,38350,1,4
256,192,38500,1,4
208,280,38650,5,8
224,280,38725,1,8
240,280,38800,1,8
256,280,38875,1,8
272,280,38950,1,8
288,280,39025,1,8
304,280,39100,1,8
128,192,39250,5,0
384,192,39400,1,0
200,128,39550,1,8
312,128,39700,1,0
256,40,39850,1,8
256,80,39925,1,8
256,112,40000,1,8
256,184,40150,5,0
328,184,40300,1,0
192,184,40450,1,0
256,256,40600,1,0
128,88,40750,2,8,B|40:184|40:184|136:272,1,250
456,192,41200,1,0
192,184,41350,5,0
328,184,41500,1,0
256,40,41650,1,8
256,64,41725,1,8
256,88,41800,1,8
256,112,41875,1,8
256,136,41950,1,8
120,192,42100,5,0
400,192,42250,1,0
256,200,42400,1,0
320,112,42550,2,0,B|192:112,2,125
96,192,43000,1,0
440,192,43150,2,8,B|440:288|440:288|368:272|304:368,1,250
440,192,43600,5,0
88,192,43750,1,0
256,192,43900,2,8,B|160:152|160:152|224:96|120:40,1,250
320,192,44350,1,0
48,192,44500,1,8
64,192,44575,1,8
80,192,44650,1,8
360,192,44800,5,0
424,192,44950,1,0
288,264,45100,2,0,B|216:264,2,62.5
256,32,45400,1,0
256,112,45550,2,8,B|184:160|184:160|272:200|176:312,1,250
440,192,46000,1,8
440,224,46075,1,8
440,256,46150,1,8
80,192,46300,5,8
80,224,46375,1,8
80,256,46450,1,8
224,168,46600,2,0,B|288:168,2,62.5
344,168,46900,1,0
168,168,47050,1,0
344,232,47200,5,0
168,232,47350,1,0
344,296,47500,1,0
168,296,47650,1,0
256,32,47800,1,0
496,192,47950,2,0,B|497:176|497:176|479:182|479:182|491:162|491:162|466:171|466:171|476:155|476:155|455:162|455:162|464:144|464:144|442:152|442:152|458:134|458:134|434:141|434:141|440:126|440:126|415:122,1,250
16,200,48400,2,0,B|34:209|34:209|19:219|19:219|45:216|45:216|31:233|31:233|49:230|49:230|39:246|39:246|60:242|60:242|49:254|49:254|70:248|70:248|60:267|60:267|76:263|76:263|70:278|70:278|90:275|90:275|90:291,1,250
432,192,48850,5,8
392,192,48925,1,8
352,192,49000,1,8
312,192,49075,1,8
272,192,49150,1,8
496,192,49300,2,0,B|496:328,1,125
16,200,49600,6,0,B|16:72,1,125
208,56,49900,1,8
256,56,49975,1,8
304,56,50050,1,8
256,184,50200,1,0
496,192,50350,2,0,B|452:265|452:265|375:262|317:345,1,250
32,192,50800,6,0,B|112:96,1,125
424,192,51100,2,0,B|344:288,1,125
96,192,51400,1,8
104,192,51475,1,8
112,192,51550,1,8
256,192,51700,1,0
328,152,51850,5,0
256,72,52000,1,0
184,152,52150,1,0
488,192,52300,1,8
480,192,52375,1,8
472,192,52450,1,8
256,192,52600,5,0
400,192,52750,2,8,B|336:112|336:112|480:112|480:24,1,250
104,192,53200,2,8,B|160:264|160:264|72:344|-16:312,1,250
256,256,53650,1,8
256,232,53725,1,8
256,208,53800,1,8
256,184,53875,1,8
256,168,53950,1,8
176,184,54100,5,0
336,184,54250,1,0
144,184,54400,1,0
368,184,54550,1,8
384,184,54625,1,8
400,184,54700,1,8
32,184,54850,5,0
104,184,55000,1,0
256,32,55150,2,0,B|285:81|285:81|358:58|480:118,1,250
32,184,55600,2,0,B|32:40,1,125
488,192,55900,2,0,B|488:352,1,125
256,184,56200,1,0
256,256,56350,5,4
256,128,56500,1,4
200,312,56650,1,4
312,72,56800,1,4
312,312,56950,1,4
200,72,57100,5,4
104,192,57250,1,4
408,192,57400,1,4
256,64,57550,1,4
256,320,57700,1,4
152,112,57850,5,4
352,112,58000,1,4
152,280,58150,1,4
352,280,58300,1,4
256,112,58450,1,4
256,280,58600,1,4
224,192,58750,5,4
288,192,59050,1,4
16,192,59350,1,4
496,184,59500,5,2
184,128,59950,1,4
328,128,60250,1,4
16,192,60550,5,4
496,184,60700,1,2
176,280,61150,1,4
328,280,61450,5,4
16,192,61750,1,4
496,184,61900,1,2
176,280,62350,5,4
336,280,62500,1,4
176,280,62650,1,4
