osu file format v9

[General]
AudioFilename: renard.mp3
AudioLeadIn: 0
PreviewTime: 32456
Countdown: 1
SampleSet: Normal
StackLeniency: 0.7
Mode: 0
LetterboxInBreaks: 1

[Editor]
DistanceSpacing: 0.6
BeatDivisor: 4
GridSize: 8

[Metadata]
Title:Painful Epic
Artist:Renard
Creator:nekitkas
Version:Insane
Source:Lapfox Trax
Tags:renard

[Difficulty]
HPDrainRate:8
CircleSize:4
OverallDifficulty:6
ApproachRate:9
SliderMultiplier:2.5
SliderTickRate:1

[Events]
//Background and Video events
0,0,"renard.jpg"
//Break Periods
//Storyboard Layer 0 (Background)
//Storyboard Layer 1 (Fail)
//Storyboard Layer 2 (Pass)
//Storyboard Layer 3 (Foreground)
//Storyboard Sound Samples
//Background Colour Transformations
3,100,163,162,255

[TimingPoints]
1150,300,4,1,0,100,1,0
22750,-100,4,1,0,100,0,1
38650,-100,4,1,0,40,0,1
39100,-100,4,1,0,100,0,0
39215,-100,4,1,0,80,0,0

[Colours]
Combo1 : 128,128,255
Combo2 : 255,89,89
Combo3 : 98,98,255

[HitObjects]
112,88,1150,1,0
184,152,1300,1,0
224,120,1375,1,0
264,88,1450,1,8
328,160,1600,2,0,B|384:120|448:160,1,125
440,256,1900,1,8
344,256,2050,5,0
328,160,2200,1,0
240,136,2350,2,0,B|192:80|192:80|144:128|24:128,1,250,4|8
56,224,2800,1,0
152,256,2950,1,0
240,216,3100,1,0
328,160,3250,5,0
328,160,3325,1,0
328,160,3400,1,8
416,216,3550,1,0
328,264,3700,1,0
240,216,3850,1,8
232,120,4000,5,0
184,136,4075,1,0
136,152,4150,1,8
56,216,4300,1,0
48,120,4450,1,0
136,72,4600,1,8
56,216,4750,6,0,B|112:272|112:272|176:224|280:280,1,250,4|0
360,224,5200,1,8
344,128,5350,1,0
248,120,5500,2,0,B|208:168|208:168|136:104|24:136,1,250,4|0
64,216,5950,1,8
160,216,6100,5,0
184,216,6175,2,0,B|256:216,1,62.5
344,168,6400,2,0,B|344:40,1,124.999995231629,0|8
424,104,6700,2,0,B|424:248,1,124.999995231629
336,280,7000,1,0
288,192,7150,2,8,B|232:264|232:264|160:192|80:240,1,250,4|8
48,152,7600,5,0
121,86,7750,1,0
184,144,7900,1,0
184,192,7975,1,0
184,240,8050,1,8
184,288,8125,1,0
184,336,8200,1,0
96,280,8350,5,0
176,216,8500,1,0
248,280,8650,1,8
176,216,8800,1,0
248,280,8950,1,0
336,232,9100,5,0
296,200,9175,1,0
256,168,9250,1,8
160,144,9400,1,0
160,144,9550,2,0,B|256:168|256:168|320:88|400:160,1,250,4|8
312,232,10000,1,0
216,240,10150,5,0
120,248,10300,1,0
120,248,10375,1,0
120,248,10450,1,8
56,168,10600,1,0
120,88,10750,1,0
216,88,10900,5,0
256,120,10975,1,0
280,168,11050,1,8
184,192,11200,2,0,B|184:320,2,125,0|8|0
272,216,11650,1,0
352,160,11800,1,8
256,136,11950,2,0,B|240:152|240:152|232:136|232:136|216:152|216:152|216:136|216:136|200:152|200:152|192:136|192:136|184:152|184:152|176:136|176:136|160:152|160:152|152:136|152:136|144:152|144:152|136:136|136:136|120:144,1,250,4|8
320,136,12400,1,0
352,136,12475,1,0
384,136,12550,1,8
416,136,12625,1,0
448,136,12700,1,0
448,232,12850,5,0
448,232,12925,1,0
448,232,13000,1,8
448,136,13150,1,0
448,232,13300,1,0
368,288,13450,1,8
328,200,13600,5,0
328,200,13675,1,0
328,200,13750,1,8
256,264,13900,1,0
184,200,14050,1,0
88,200,14200,1,8
56,104,14350,6,0,B|64:96|64:96|80:112|80:112|88:88|88:88|96:112|96:112|104:96|104:96|112:112|112:112|120:88|120:88|128:112|128:112|136:96|136:96|144:112|144:112|152:96|152:96|160:112|160:112|168:104,1,250,4|0
216,192,14800,1,8
112,224,14950,1,0
208,264,15100,1,0
256,240,15175,1,0
296,208,15250,1,8
328,168,15325,1,0
336,112,15400,1,0
432,88,15550,5,0
472,184,15700,1,0
376,176,15850,1,8
328,88,16000,1,0
232,88,16150,1,0
184,72,16225,2,0,B|152:56|112:64,1,62.5,0|8
64,152,16450,5,0
80,248,16600,1,0
176,272,16750,2,8,B|272:200|272:200|384:272,1,250,4|8
288,304,17200,1,0
192,336,17350,1,0
112,288,17500,5,0
96,240,17575,1,0
88,192,17650,1,8
88,144,17725,1,0
104,96,17800,1,0
216,56,17950,2,0,B|344:56,1,125
280,136,18250,6,0,B|152:136,1,125
216,216,18550,2,0,B|344:216,1,125
256,304,18850,1,0
216,272,18925,1,0
184,232,19000,1,0
160,192,19075,1,0
144,144,19150,1,4
240,152,19300,6,0,B|240:24,2,125,0|0|8
312,88,19750,1,0
312,184,19900,1,0
392,248,20050,1,0
304,288,20200,1,8
160,176,20350,1,0
160,176,20500,1,4
232,104,20650,1,0
232,104,20800,5,4
304,176,20950,1,0
304,176,21100,1,4
376,104,21250,1,0
376,104,21400,1,4
448,176,21550,1,0
448,176,21700,5,4
376,248,21850,1,0
376,248,22000,1,4
280,272,22150,1,0
160,232,22300,1,4
160,104,22450,1,0
280,56,22600,5,4
376,80,22750,2,0,B|448:184|448:184|376:288,1,250,4|0
304,296,23200,1,0
208,296,23350,1,0
208,248,23425,1,0
208,200,23500,1,0
208,152,23575,1,0
208,104,23650,1,0
304,128,23800,5,0
488,240,23950,2,0,B|480:152|480:152|396:136|364:48,1,250,4|8
384,192,24400,1,0
384,288,24550,1,8
288,256,24700,2,8,B|232:328|232:328|160:256|80:304,1,250,4|8
136,216,25150,1,8
232,176,25300,5,0
208,168,25375,2,0,B|144:144,1,62.5
56,112,25600,1,0
136,56,25750,1,8
232,56,25900,1,0
320,96,26050,5,0
376,176,26200,1,8
280,200,26350,2,0,B|280:216|280:216|264:208|264:208|264:224|264:224|248:216|248:216|248:232|248:232|232:224|232:224|232:240|232:240|216:232|216:232|216:248|216:248|200:240|200:240|200:256|200:256|184:248|184:248|184:264|184:264|168:256|168:256|168:272|168:272|152:288,1,250,4|0
72,200,26800,1,0
104,160,26875,1,0
144,128,26950,1,8
192,104,27025,1,0
240,96,27100,1,0
336,96,27250,5,0
336,192,27400,1,8
336,288,27550,1,0
248,240,27700,1,0
248,240,27775,1,0
248,240,27850,1,8
168,184,28000,5,0
168,184,28075,1,0
168,184,28150,1,8
96,112,28300,1,0
96,112,28375,1,0
96,112,28450,1,8
168,48,28600,5,0
264,88,28750,2,0,B|320:152|320:152|384:144|384:208|384:208|416:264,1,250,4|8
304,256,29200,1,0
416,264,29350,1,0
392,112,29500,1,0
352,80,29575,1,0
304,56,29650,1,8
256,48,29725,1,0
208,48,29800,1,0
208,144,29950,6,0,B|80:144,1,125
128,232,30250,1,0
200,304,30400,1,0
224,296,30475,2,0,B|256:280|304:296,1,62.5,0|8
400,304,30700,1,0
360,216,30850,5,8
464,232,31000,1,0
472,136,31150,2,0,B|392:144|392:144|408:48|296:32,1,250,4|0
206,45,31600,1,8
120,104,31750,1,0
208,152,31900,1,0
160,128,31975,1,0
120,104,32050,1,8
120,200,32200,5,0
208,248,32350,1,0
304,256,32500,1,0
352,256,32575,1,0
400,240,32650,1,8
400,144,32800,5,0
352,56,32950,1,0
304,72,33025,1,0
272,112,33100,1,8
224,200,33250,1,0
168,288,33400,1,0
128,192,33550,6,0,B|120:184|120:184|136:176|136:176|120:168|120:168|136:160|136:160|120:152|120:152|136:144|136:144|120:136|120:136|136:128|136:128|120:120|120:120|136:112|136:112|120:104|120:104|136:96|136:96|120:88|120:88|136:80|136:80|128:80,1,250,4|0
128,80,34000,1,8
224,48,34150,1,0
128,80,34300,1,0
72,168,34450,1,0
136,248,34600,1,8
208,312,34750,5,0
304,328,34900,1,0
328,328,34975,2,0,B|368:328|408:312,1,62.5,0|8
440,200,35200,1,0
400,176,35275,1,0
352,160,35350,1,8
304,152,35425,1,0
256,152,35500,1,0
160,152,35650,5,0
88,88,35800,1,8
184,54,35950,2,0,B|265:40|265:40|274:100|342:104|342:104|418:110,1,250,4|0
424,192,36400,1,8
312,256,36550,1,0
200,192,36700,1,0
104,192,36850,5,0
104,192,36925,1,0
104,192,37000,1,8
104,192,37075,1,0
104,192,37150,1,0
128,96,37300,5,4
216,144,37450,1,0
216,48,37600,1,0
216,144,37750,1,0
304,96,37900,1,4
216,144,38050,1,0
296,200,38200,1,0
216,144,38350,1,0
216,240,38500,1,4
296,304,38650,5,0
336,296,38725,1,0
368,280,38800,1,0
392,256,38875,1,0
408,224,38950,1,0
416,184,39025,1,0
416,144,39100,1,8
416,48,39250,5,4
336,104,39400,1,0
200,104,39550,1,0
264,184,39700,1,8
336,104,39850,1,0
352,128,39925,2,0,B|384:184,1,62.5,0|8
264,184,40150,5,0
263,283,40300,1,0
264,184,40450,1,0
228,90,40600,1,0
128,88,40750,2,8,B|40:184|40:184|136:272,1,250,4|8
228,263,41200,1,0
266,170,41350,5,0
236,74,41500,1,8
336,56,41650,1,0
376,88,41725,1,0
408,128,41800,1,0
424,176,41875,1,0
424,224,41950,1,0
336,280,42100,5,4
280,200,42250,1,0
376,192,42400,1,0
320,112,42550,2,0,B|192:112,2,125,8|0|0
408,72,43000,1,0
456,160,43150,2,8,B|456:256|456:256|384:240|320:336,1,250,4|8
304,224,43600,5,0
232,152,43750,1,0
208,248,43900,2,8,B|112:208|112:208|176:152|72:96,1,250,4|0
176,72,44350,1,8
272,72,44500,1,0
272,72,44575,1,0
272,72,44650,1,8
360,120,44800,5,0
360,216,44950,1,0
272,264,45100,2,0,B|200:264,2,62.5,0|0|8
256,168,45400,1,0
168,120,45550,2,8,B|96:168|96:168|184:208|88:320,1,250,4|0
200,280,46000,1,0
248,288,46075,2,0,B|280:312|304:288,1,62.5,0|8
296,184,46300,5,0
248,168,46375,2,0,B|224:160|184:176,1,62.5,0|8
128,112,46600,2,0,B|192:112,2,62.5,0|0|8
280,72,46900,1,0
376,104,47050,1,8
448,176,47200,5,0
432,272,47350,1,0
360,200,47500,1,0
376,104,47650,1,8
360,200,47800,1,0
264,200,47950,2,0,B|265:184|265:184|247:190|247:190|259:170|259:170|234:179|234:179|244:163|244:163|223:170|223:170|232:152|232:152|210:160|210:160|226:142|226:142|202:149|202:149|208:134|208:134|183:130,1,250,4|0
112,208,48400,2,0,B|130:217|130:217|115:227|115:227|141:224|141:224|127:241|127:241|145:238|145:238|135:254|135:254|156:250|156:250|145:262|145:262|166:256|166:256|156:275|156:275|172:271|172:271|166:286|166:286|186:283|186:283|186:299,1,250,4|0
376,296,48850,5,0
376,248,48925,1,0
360,200,49000,1,0
328,160,49075,1,0
288,128,49150,1,0
192,120,49300,2,0,B|192:256,1,125
112,184,49600,6,0,B|112:56,1,125
208,40,49900,1,0
256,40,49975,1,0
304,40,50050,1,8
400,80,50200,1,0
464,160,50350,2,0,B|420:233|420:233|343:230|285:313,1,250,4|0
208,184,50800,6,0,B|288:88,1,125,8|0
184,96,51100,2,0,B|104:192,1,125
160,272,51400,1,0
160,272,51475,1,0
160,272,51550,1,8
256,192,51700,1,0
168,144,51850,5,0
256,96,52000,1,0
344,144,52150,1,0
408,232,52300,1,0
400,256,52375,2,0,B|392:296|360:312,1,62.5,0|8
240,272,52600,5,0
152,224,52750,2,8,B|88:144|88:144|232:144|232:56,1,250,4|0
320,120,53200,2,8,B|376:192|376:192|288:272|200:240,1,250,4|0
152,192,53650,1,8
160,144,53725,1,8
184,104,53800,1,8
216,72,53875,1,8
264,56,53950,1,8
360,72,54100,5,0
424,144,54250,1,0
328,168,54400,1,8
264,96,54550,1,0
264,96,54625,1,0
264,96,54700,1,0
168,80,54850,5,0
88,144,55000,1,0
88,240,55150,2,0,B|117:289|117:289|190:266|312:326,1,250,4|0
408,240,55600,2,0,B|408:96,1,125
328,56,55900,2,0,B|328:216,1,125
328,181,56200,1,0
256,256,56350,5,0
256,128,56500,1,0
200,312,56650,1,0
312,72,56800,1,0
312,312,56950,1,0
200,72,57100,5,0
104,192,57250,1,0
408,192,57400,1,0
256,64,57550,1,0
256,320,57700,1,0
152,112,57850,5,0
352,112,58000,1,0
152,280,58150,1,0
352,280,58300,1,0
256,112,58450,1,0
256,280,58600,1,0
256,192,58750,5,4
344,232,59050,1,4
248,56,59350,1,0
248,152,59500,5,2
432,184,59950,1,4
336,96,60250,1,4
136,96,60550,5,0
136,192,60700,1,2
336,288,61150,1,4
336,192,61450,5,4
136,192,61750,1,0
136,96,61900,1,2
176,280,62350,5,0
256,184,62500,1,0
336,280,62650,1,0
