osu file format v14

[General]
AudioFilename: Renard - PIZZZZZZZZ.mp3
AudioLeadIn: 0
PreviewTime: -1
Countdown: 1
SampleSet: None
StackLeniency: 0.7
Mode: 2
LetterboxInBreaks: 1
WidescreenStoryboard: 1

[Editor]
Bookmarks: 38883
DistanceSpacing: 0.8
BeatDivisor: 4
GridSize: 8
TimelineZoom: 4.299998

[Metadata]
Title:PIZZZZZZZZ
TitleUnicode:PIZZZZZZZZ
Artist:Renard
ArtistUnicode:Renard
Creator:monstratorfull
Version:HIBASTRA-Collab
Source:
Tags:lapfox, TQBF
BeatmapID:696888
BeatmapSetID:96065

[Difficulty]
HPDrainRate:3
CircleSize:4
OverallDifficulty:9
ApproachRate:9
SliderMultiplier:1.4
SliderTickRate:1

[Events]
//Background and Video events
0,0,"NOIR.jpg",0,0
//Break Periods
//Storyboard Layer 0 (Background)
//Storyboard Layer 1 (Fail)
//Storyboard Layer 2 (Pass)
//Storyboard Layer 3 (Foreground)
//Storyboard Sound Samples

[TimingPoints]
9783,300,4,3,0,100,1,0
19383,-100,4,3,0,100,0,1
27933,-100,4,3,0,100,0,0
67383,-100,4,3,0,100,0,1
76083,-100,4,3,0,100,0,0

[HitObjects]
96,240,183,6,0,L|233:147,1,140
352,192,783,1,0,0:0:0:0:
96,168,1083,1,0,0:0:0:0:
424,240,1383,2,0,L|280:144,1,140
120,184,1983,1,0,0:0:0:0:
352,192,2283,1,0,0:0:0:0:
88,256,2583,6,0,L|176:128,1,140
408,184,3183,1,0,0:0:0:0:
104,184,3483,1,0,0:0:0:0:
408,160,3783,1,0,0:0:0:0:
136,160,4083,1,0,0:0:0:0:
408,160,4383,2,0,L|256:160,1,140
96,232,4983,2,0,L|236:232,1,140
416,240,5583,6,0,L|304:152,1,140
68,192,6183,2,0,L|208:192,1,140
376,200,6783,5,0,0:0:0:0:
120,200,7083,1,0,0:0:0:0:
344,240,7383,2,0,L|456:136,1,140
184,224,7983,2,0,L|64:144,1,140
448,200,8583,2,0,L|352:80,1,140
176,200,9183,6,0,L|144:160,1,35
304,200,9333,2,0,L|336:160,1,35
40,200,9483,2,0,L|0:160,1,35
416,200,9633,2,0,L|464:176,1,35
32,128,9783,2,0,L|168:64,1,140
352,136,10233,6,0,L|448:96,1,70
168,144,10533,2,0,L|96:104,1,70
424,136,10833,1,0,0:0:0:0:
96,152,10983,6,0,L|32:112,1,70
384,240,11283,2,0,L|440:184,1,70
96,232,11583,2,0,L|160:184,1,70
368,200,11883,5,0,0:0:0:0:
120,200,12033,1,0,0:0:0:0:
368,200,12183,2,0,L|288:152,1,70
160,208,12483,2,0,L|224:152,1,70
464,216,12783,6,0,L|384:160,1,70
72,200,13083,2,0,L|136:152,1,70
416,176,13383,1,0,0:0:0:0:
168,176,13533,1,0,0:0:0:0:
416,176,13683,2,0,L|352:120,1,70
56,128,13983,2,0,L|128:200,1,70
352,144,14283,5,0,0:0:0:0:
96,144,14433,1,0,0:0:0:0:
384,240,14583,2,0,L|384:200|384:152,1,70
136,240,14883,2,0,L|136:152,1,70
344,240,15183,2,0,L|416:208,1,70
152,248,15483,2,0,L|88:208,1,70
448,240,15783,5,0,0:0:0:0:
72,248,15933,2,0,L|120:192,1,70
448,240,16233,2,0,L|368:184,1,70
128,240,16533,2,0,L|208:208,1,70
400,240,16833,2,0,L|400:168,1,70
88,240,17058,5,0,0:0:0:0:
40,192,17133,2,0,L|112:152,1,70
224,126,17358,2,0,L|256:112,1,35
456,168,17583,6,0,L|400:120,1,70
53,167,17883,2,0,L|96:112,1,70
408,136,18108,2,0,L|440:160,1,35
88,176,18333,1,0,0:0:0:0:
376,192,18483,2,0,L|296:136,1,70
120,200,18783,2,0,L|192:144,1,70
408,216,19083,2,0,L|408:72,1,140
112,184,19533,5,0,0:0:0:0:
352,208,19683,2,0,L|432:168,1,70
184,224,19983,2,0,L|112:184,1,70
456,192,20283,1,0,0:0:0:0:
136,184,20433,1,0,0:0:0:0:
400,232,20583,6,0,L|456:168,1,70
72,192,20883,2,0,L|144:144,1,70
400,264,21183,2,0,L|328:200,1,70
424,176,21483,1,0,0:0:0:0:
112,176,21633,1,0,0:0:0:0:
389,221,21783,2,0,L|456:160,1,70
168,176,22083,1,0,0:0:0:0:
384,176,22233,5,0,0:0:0:0:
112,176,22383,2,0,L|176:136,1,70
88,96,22683,1,0,0:0:0:0:
434,174,22833,2,0,L|376:136,1,70
456,88,23133,1,0,0:0:0:0:
160,208,23283,2,0,L|72:160,1,70
328,200,23583,2,0,L|392:160,1,70
104,168,23883,6,0,L|8:168,1,70
256,168,24183,1,0,0:0:0:0:
464,176,24333,2,0,L|384:176,1,70
64,168,24633,2,0,L|144:128,1,70
378,166,24933,6,0,L|320:128,1,70
96,192,25233,2,0,L|160:128,1,70
80,88,25533,1,0,0:0:0:0:
440,96,25683,1,0,0:0:0:0:
208,88,25833,1,0,0:0:0:0:
456,208,25983,6,0,L|384:264,1,70
208,192,26283,1,0,0:0:0:0:
432,192,26433,1,0,0:0:0:0:
80,248,26583,2,0,L|144:192,1,70
412,246,26883,2,0,L|360:200,1,70
112,176,27183,1,0,0:0:0:0:
400,168,27333,1,0,0:0:0:0:
168,240,27483,6,0,L|104:192,1,70
328,248,27783,2,0,L|392:208,1,70
136,176,28083,1,0,0:0:0:0:
408,184,28233,1,0,0:0:0:0:
104,256,28383,2,0,L|40:200,1,70
307,166,28683,2,0,L|360:120,1,70
208,176,28983,2,0,L|144:112,1,70
400,176,29283,5,0,0:0:0:0:
72,176,29433,2,0,L|136:128,1,70
384,144,29733,1,0,0:0:0:0:
144,176,29883,2,0,L|88:128,1,70
320,176,30183,2,0,L|384:136,1,70
144,88,30483,2,0,L|96:32,1,70
456,120,30783,2,0,L|456:48,1,70
96,120,31083,5,0,0:0:0:0:
360,128,31233,2,0,L|304:72,1,70
64,200,31533,2,0,L|8:128,1,70
256,192,31833,2,0,L|256:104,1,70
472,192,32133,2,0,L|512:120,1,70
144,160,32433,5,0,0:0:0:0:
368,184,32583,2,0,L|320:120,1,70
48,160,32883,2,0,L|104:104,1,70
432,112,33183,2,0,L|432:200,1,70
96,168,33483,6,0,L|168:128,1,70
400,136,33783,1,0,0:0:0:0:
464,216,33933,2,0,L|320:216,1,140
80,240,34383,2,0,L|144:192,1,70
360,192,34683,1,0,0:0:0:0:
144,224,34833,2,0,L|80:176,1,70
416,192,35133,1,0,0:0:0:0:
128,176,35283,1,0,0:0:0:0:
384,160,35433,5,0,0:0:0:0:
176,192,35583,2,0,L|112:152,1,70
312,200,35883,2,0,L|376:144,1,70
72,200,36183,2,0,L|8:160,1,70
432,208,36483,2,0,L|504:176,1,70
120,192,36783,1,0,0:0:0:0:
344,192,36933,1,0,0:0:0:0:
64,184,37083,6,0,L|128:128,1,70
379,181,37383,2,0,L|320:144,1,70
88,176,37683,1,0,0:0:0:0:
256,184,37758,1,0,0:0:0:0:
416,192,37833,1,0,0:0:0:0:
488,144,37908,1,0,0:0:0:0:
416,88,37983,1,0,0:0:0:0:
256,80,38058,1,0,0:0:0:0:
88,176,38133,1,0,0:0:0:0:
16,128,38208,5,0,0:0:0:0:
88,80,38283,1,0,0:0:0:0:
256,184,38358,1,0,0:0:0:0:
416,192,38433,1,0,0:0:0:0:
488,144,38508,1,0,0:0:0:0:
416,88,38583,1,0,0:0:0:0:
24,128,38658,1,0,0:0:0:0:
72,96,38733,1,0,0:0:0:0:
128,256,38883,5,0,0:0:0:0:
448,128,39033,1,0,0:0:0:0:
448,256,39333,1,0,0:0:0:0:
64,128,39483,1,0,0:0:0:0:
256,192,39783,1,0,0:0:0:0:
448,256,40083,1,0,0:0:0:0:
64,128,40233,1,0,0:0:0:0:
56,256,40533,1,0,0:0:0:0:
448,128,40683,1,0,0:0:0:0:
256,192,40983,5,0,0:0:0:0:
64,128,41283,1,0,0:0:0:0:
448,256,41433,1,0,0:0:0:0:
448,128,41733,1,0,0:0:0:0:
56,256,41883,1,0,0:0:0:0:
256,192,42183,1,0,0:0:0:0:
64,128,42483,1,0,0:0:0:0:
448,256,42633,1,0,0:0:0:0:
448,128,42933,1,0,0:0:0:0:
56,256,43083,1,0,0:0:0:0:
256,192,43383,5,0,0:0:0:0:
320,32,44583,1,0,0:0:0:0:
176,240,45782,1,0,0:0:0:0:
352,128,46383,1,0,0:0:0:0:
120,88,46979,1,0,0:0:0:0:
432,296,47278,1,0,0:0:0:0:
80,48,47583,1,0,0:0:0:0:
472,336,47883,1,0,0:0:0:0:
104,360,48183,5,0,0:0:0:0:
176,336,48258,1,0,0:0:0:0:
104,296,48333,1,0,0:0:0:0:
32,272,48408,1,0,0:0:0:0:
104,232,48483,1,0,0:0:0:0:
176,208,48558,1,0,0:0:0:0:
104,168,48633,1,0,0:0:0:0:
32,144,48708,1,0,0:0:0:0:
104,104,48783,1,0,0:0:0:0:
176,80,48858,1,0,0:0:0:0:
248,80,48933,1,0,0:0:0:0:
408,40,49008,5,0,0:0:0:0:
480,64,49083,1,0,0:0:0:0:
408,104,49158,1,0,0:0:0:0:
336,128,49233,1,0,0:0:0:0:
408,168,49308,1,0,0:0:0:0:
480,192,49383,1,0,0:0:0:0:
408,232,49458,1,0,0:0:0:0:
336,256,49533,1,0,0:0:0:0:
408,296,49608,1,0,0:0:0:0:
480,320,49683,1,0,0:0:0:0:
408,360,49758,1,0,0:0:0:0:
216,352,49833,5,0,0:0:0:0:
152,336,49908,1,0,0:0:0:0:
88,320,49983,1,0,0:0:0:0:
296,288,50058,5,0,0:0:0:0:
360,272,50133,1,0,0:0:0:0:
424,256,50208,1,0,0:0:0:0:
216,224,50283,5,0,0:0:0:0:
152,208,50358,1,0,0:0:0:0:
88,192,50433,1,0,0:0:0:0:
296,160,50508,5,0,0:0:0:0:
360,144,50583,1,0,0:0:0:0:
424,128,50658,1,0,0:0:0:0:
216,64,50733,5,0,0:0:0:0:
152,48,50808,1,0,0:0:0:0:
88,32,50883,1,0,0:0:0:0:
296,224,50958,5,0,0:0:0:0:
360,208,51033,1,0,0:0:0:0:
424,192,51108,1,0,0:0:0:0:
216,320,51183,5,0,0:0:0:0:
152,304,51258,1,0,0:0:0:0:
88,288,51333,1,0,0:0:0:0:
296,224,51408,5,0,0:0:0:0:
360,208,51483,1,0,0:0:0:0:
424,192,51558,1,0,0:0:0:0:
72,32,51633,5,0,0:0:0:0:
48,48,51708,1,0,0:0:0:0:
72,64,51783,1,0,0:0:0:0:
448,176,51858,5,0,0:0:0:0:
472,192,51933,1,0,0:0:0:0:
448,208,52008,1,0,0:0:0:0:
64,320,52083,5,0,0:0:0:0:
40,336,52158,1,0,0:0:0:0:
64,352,52233,1,0,0:0:0:0:
448,32,52308,5,0,0:0:0:0:
472,48,52383,1,0,0:0:0:0:
448,64,52458,1,0,0:0:0:0:
64,176,52533,5,0,0:0:0:0:
40,192,52608,1,0,0:0:0:0:
64,208,52683,1,0,0:0:0:0:
448,288,52758,5,0,0:0:0:0:
472,304,52833,1,0,0:0:0:0:
448,320,52908,1,0,0:0:0:0:
72,32,52983,5,0,0:0:0:0:
48,48,53058,1,0,0:0:0:0:
72,64,53133,1,0,0:0:0:0:
448,176,53208,5,0,0:0:0:0:
472,192,53283,1,0,0:0:0:0:
448,208,53358,1,0,0:0:0:0:
64,352,53433,5,0,0:0:0:0:
40,288,53508,1,0,0:0:0:0:
48,224,53583,1,0,0:0:0:0:
448,160,53658,5,0,0:0:0:0:
472,96,53733,1,0,0:0:0:0:
464,32,53808,1,0,0:0:0:0:
64,352,53883,5,0,0:0:0:0:
40,288,53958,1,0,0:0:0:0:
48,224,54033,1,0,0:0:0:0:
448,160,54108,5,0,0:0:0:0:
472,96,54183,1,0,0:0:0:0:
464,32,54258,1,0,0:0:0:0:
40,160,54333,5,0,0:0:0:0:
104,160,54408,1,0,0:0:0:0:
168,160,54483,1,0,0:0:0:0:
256,192,54633,5,0,0:0:0:0:
264,256,54783,1,0,0:0:0:0:
248,128,54933,1,0,0:0:0:0:
184,192,55083,1,0,0:0:0:0:
328,192,55233,1,0,0:0:0:0:
184,128,55383,1,0,0:0:0:0:
328,256,55533,1,0,0:0:0:0:
328,128,55683,5,0,0:0:0:0:
184,256,55833,1,0,0:0:0:0:
384,192,55983,1,0,0:0:0:0:
128,192,56133,1,0,0:0:0:0:
256,64,56283,1,0,0:0:0:0:
256,328,56433,1,0,0:0:0:0:
328,328,56583,1,0,0:0:0:0:
184,328,56733,1,0,0:0:0:0:
328,64,56883,1,0,0:0:0:0:
184,64,57033,1,0,0:0:0:0:
256,160,57183,1,0,0:0:0:0:
256,224,57333,1,0,0:0:0:0:
320,192,57483,1,0,0:0:0:0:
192,192,57558,1,0,0:0:0:0:
40,192,57633,1,0,0:0:0:0:
472,192,57783,1,0,0:0:0:0:
256,192,62583,5,0,0:0:0:0:
40,40,63783,1,0,0:0:0:0:
472,40,64983,1,0,0:0:0:0:
256,192,65582,1,0,0:0:0:0:
40,160,66183,1,0,0:0:0:0:
472,224,66483,1,0,0:0:0:0:
136,344,66783,1,0,0:0:0:0:
472,152,67083,1,0,0:0:0:0:
136,32,67383,5,0,0:0:0:0:
384,216,67683,1,0,0:0:0:0:
272,152,67983,1,0,0:0:0:0:
160,88,68133,1,0,0:0:0:0:
256,216,68283,1,0,0:0:0:0:
144,152,68433,1,0,0:0:0:0:
336,152,68583,1,0,0:0:0:0:
80,152,68883,5,0,0:0:0:0:
288,224,69183,1,0,0:0:0:0:
384,160,69333,1,0,0:0:0:0:
288,224,69483,1,0,0:0:0:0:
456,160,69633,1,0,0:0:0:0:
360,224,69783,1,0,0:0:0:0:
80,232,70083,5,0,0:0:0:0:
224,96,70383,1,0,0:0:0:0:
376,160,70533,1,0,0:0:0:0:
288,96,70683,1,0,0:0:0:0:
440,160,70833,1,0,0:0:0:0:
352,96,70983,1,0,0:0:0:0:
216,352,71283,5,0,0:0:0:0:
296,192,71583,1,0,0:0:0:0:
152,144,71733,1,0,0:0:0:0:
368,192,71883,1,0,0:0:0:0:
112,40,72033,1,0,0:0:0:0:
296,104,72183,1,0,0:0:0:0:
480,232,72483,5,0,0:0:0:0:
224,224,72783,1,0,0:0:0:0:
168,264,72933,1,0,0:0:0:0:
352,184,73083,1,0,0:0:0:0:
296,224,73233,1,0,0:0:0:0:
472,344,73383,1,0,0:0:0:0:
144,160,73683,5,0,0:0:0:0:
312,192,73983,1,0,0:0:0:0:
256,152,74133,1,0,0:0:0:0:
80,152,74283,1,0,0:0:0:0:
136,192,74433,1,0,0:0:0:0:
40,96,74583,1,0,0:0:0:0:
344,64,74883,5,0,0:0:0:0:
288,160,75183,1,0,0:0:0:0:
336,208,75333,1,0,0:0:0:0:
168,48,75483,1,0,0:0:0:0:
216,96,75633,1,0,0:0:0:0:
384,256,75783,1,0,0:0:0:0:
120,160,76083,5,0,0:0:0:0:
296,192,76383,1,0,0:0:0:0:
208,208,76533,1,0,0:0:0:0:
376,168,76833,1,0,0:0:0:0:
256,192,76983,12,0,78033,0:0:0:0:
