osu file format v14

[General]
AudioFilename: PIZZZZZZZZ.mp3
AudioLeadIn: 0
PreviewTime: 19078
Countdown: 0
SampleSet: Normal
StackLeniency: 0.7
Mode: 2
LetterboxInBreaks: 0
WidescreenStoryboard: 1

[Editor]
Bookmarks: 9178,9778,12178,13678,14578,16978,28978,33778,35278,38578,43378,44578,45778,46378,46978,48178,58978,60178,66178,67378,76978
DistanceSpacing: 0.9
BeatDivisor: 4
GridSize: 4
TimelineZoom: 1

[Metadata]
Title:PIZZZZZZZZ
TitleUnicode:PIZZZZZZZZ
Artist:Renard
ArtistUnicode:Renard
Creator:loka
Version:Rain
Source:
Tags:LAPFOX TRAX full techno jackass gabba breakcore nicki minaj stupid hoe Hardcore Del Spectator
BeatmapID:702792
BeatmapSetID:315162

[Difficulty]
HPDrainRate:7
CircleSize:4
OverallDifficulty:9.2
ApproachRate:9.2
SliderMultiplier:1.8
SliderTickRate:2

[Events]
//Background and Video events
0,0,"Alice_Madness_Returns_Pink_Castle_Drawing_1440x900.jpg",0,0
//Break Periods
2,38778,42808
//Storyboard Layer 0 (Background)
//Storyboard Layer 1 (Fail)
//Storyboard Layer 2 (Pass)
//Storyboard Layer 3 (Foreground)
//Storyboard Sound Samples

[TimingPoints]
178,300,4,1,0,80,1,0
18328,-100,4,3,0,70,0,0
19378,-100,4,1,0,80,0,1
28978,-100,4,1,0,80,0,0
33778,-100,4,1,0,80,0,1
38578,-100,4,1,0,80,0,0
48178,-100,4,1,0,80,0,1
56578,-100,4,1,0,80,0,0
57778,-100,4,1,0,80,0,1
57853,-100,4,1,0,80,0,0
67378,-100,4,1,0,80,0,1
77953,-100,4,1,0,5,0,0

[Colours]
Combo1 : 247,234,147
Combo2 : 182,85,223
Combo3 : 240,142,176
Combo4 : 230,91,230

[HitObjects]
100,168,9178,6,0,L|56:160,3,45,0|0|0|0,0:0|0:0|0:0|0:0,0:0:0:0:
256,368,9478,1,0,0:0:0:0:
288,336,9553,1,0,0:0:0:0:
288,292,9628,1,0,0:0:0:0:
256,260,9703,1,0,0:0:0:0:
116,216,9778,6,0,L|112:120,1,90,4|0,0:2|1:0,0:0:0:0:
400,348,10078,2,0,L|404:252,1,90,8|0,0:0|0:0,0:0:0:0:
88,128,10378,2,0,L|44:132,2,45,8|0|8,0:0|0:0|0:0,0:0:0:0:
360,228,10678,2,0,L|460:216,1,90,8|8,0:0|0:0,0:0:0:0:
144,52,10978,6,0,L|44:40,1,90,0|0,0:0|2:0,0:0:0:0:
392,100,11278,2,0,L|436:96,2,45,8|0|0,0:0|0:0|0:0,0:0:0:0:
112,292,11578,2,0,L|96:192,1,90,8|8,0:0|0:0,0:0:0:0:
304,344,11878,2,0,L|288:244,1,90,8|8,0:0|0:0,0:0:0:0:
24,64,12178,5,4,0:2:0:0:
100,112,12328,1,0,1:3:0:0:
128,200,12478,1,8,1:1:0:0:
112,288,12628,1,8,0:0:0:0:
40,340,12778,2,0,L|136:324,1,90,8|0,0:0|0:0,0:0:0:0:
464,216,13078,2,0,L|368:200,1,90,8|8,0:0|0:0,0:0:0:0:
100,112,13378,6,0,L|196:96,1,90,4|0,0:3|0:0,0:0:0:0:
476,324,13678,2,0,L|380:308,2,90,4|0|8,0:3|0:0|0:0,0:0:0:0:
304,296,14128,1,8,0:0:0:0:
276,212,14278,1,2,2:3:0:0:
316,132,14428,1,2,2:3:0:0:
476,324,14578,6,0,L|380:308,1,90,4|4,0:2|0:3,0:0:0:0:
56,176,14878,2,0,L|152:160,1,90,8|8,0:1|0:1,0:0:0:0:
484,112,15178,2,0,L|388:96,2,90,8|0|8,0:0|0:0|0:0,0:0:0:0:
144,344,15628,5,8,0:0:0:0:
72,288,15778,1,8,0:3:0:0:
48,200,15928,1,8,0:3:0:0:
76,116,16078,1,8,0:3:0:0:
160,80,16228,1,8,0:3:0:0:
472,112,16378,5,8,0:1:0:0:
364,160,16528,1,8,0:1:0:0:
464,224,16678,1,8,0:0:0:0:
368,292,16828,1,8,0:0:0:0:
108,292,16978,6,0,L|100:240,2,45,8|8|8,0:0|0:0|0:0,0:0:0:0:
384,168,17278,2,0,L|392:116,2,45,8|0|8,0:0|0:0|0:0,0:0:0:0:
72,112,17578,2,0,L|64:60,2,45,8|8|8,0:0|0:0|0:0,0:0:0:0:
352,292,17878,2,0,L|360:240,2,45,8|8|8,0:0|0:0|0:0,0:0:0:0:
88,280,18178,6,0,P|132:188|88:132,1,180,0|0,1:0|1:0,0:0:0:0:
304,188,18628,2,0,L|308:88,1,90,2|2,2:2|0:0,0:0:0:0:
32,68,18928,1,0,0:0:0:0:
76,148,19078,1,2,0:0:0:0:
44,232,19228,1,0,0:0:0:0:
372,344,19378,6,0,L|380:252,1,90,4|2,0:0|2:0,0:0:0:0:
252,252,19678,1,8,0:0:0:0:
464,240,19828,2,0,L|472:148,1,90,2|8,0:0|0:0,0:0:0:0:
304,184,20128,1,8,0:0:0:0:
476,248,20278,2,0,L|376:240,1,90,8|2,0:0|0:0,0:0:0:0:
32,120,20578,6,0,L|132:112,2,90,8|2|8,0:0|0:0|0:0,0:0:0:0:
408,328,21028,2,0,L|308:320,2,90,2|8|8,0:0|0:0|0:0,0:0:0:0:
76,336,21478,5,8,0:0:0:0:
156,292,21628,1,2,0:0:0:0:
176,204,21778,1,8,0:0:0:0:
152,116,21928,1,0,0:0:0:0:
68,80,22078,1,8,0:0:0:0:
388,300,22228,6,0,L|492:312,2,90,2|8|8,0:0|0:0|0:0,0:0:0:0:
72,252,22678,2,0,L|68:152,1,90,8|2,0:0|0:0,0:0:0:0:
404,72,22978,1,2,1:0:0:0:
332,128,23128,1,0,0:0:0:0:
328,216,23278,1,10,1:0:0:0:
380,292,23428,6,0,L|284:280,1,90,0|8,0:0|0:0,0:0:0:0:
16,180,23728,2,0,L|112:168,2,90,8|2|2,0:0|0:3|0:3,0:0:0:0:
428,144,24178,6,0,L|436:52,1,90,4|0,0:0|0:0,0:0:0:0:
188,328,24478,2,0,L|180:236,1,90,8|2,0:0|0:0,0:0:0:0:
420,360,24778,2,0,L|412:268,1,90,8|8,0:0|0:0,0:0:0:0:
48,76,25078,5,8,0:0:0:0:
136,132,25228,1,2,0:0:0:0:
36,188,25378,1,8,0:0:0:0:
128,236,25528,1,0,0:0:0:0:
32,304,25678,1,8,0:0:0:0:
328,340,25828,6,0,L|428:348,2,90,2|8|8,0:0|0:0|0:0,0:0:0:0:
32,160,26278,2,0,L|136:148,1,90,8|8,0:0|0:0,0:0:0:0:
424,168,26578,6,0,L|436:68,1,90,8|0,0:0|0:0,0:0:0:0:
236,264,26878,2,0,L|248:164,1,90,8|2,0:0|0:0,0:0:0:0:
52,352,27178,2,0,L|64:252,1,90,8|8,0:0|0:0,0:0:0:0:
324,140,27478,2,0,L|312:40,1,90,8|0,0:0|0:0,0:0:0:0:
40,60,27778,6,0,P|80:104|44:212,1,180,8|2,0:0|0:0,0:0:0:0:
440,360,28228,2,0,P|400:316|436:208,1,180,8|2,0:0|0:3,0:0:0:0:
164,240,28678,2,0,L|156:144,1,90,8|8,0:3|0:3,0:0:0:0:
368,376,28978,6,0,P|406:298|360:226,1,180,4|8,0:2|2:2,0:0:0:0:
112,204,29428,1,2,2:3:0:0:
224,312,29728,2,0,L|320:304,1,90,8|8,2:2|2:2,0:0:0:0:
464,72,30028,1,0,0:0:0:0:
84,124,30178,6,0,P|37:196|76:273,1,180,2|0,1:0|0:0,0:0:0:0:
296,252,30628,2,0,L|392:240,1,90,0|0,0:0|0:0,0:0:0:0:
128,56,30928,2,0,L|32:44,2,90,4|0|4,0:0|0:0|0:0,0:0:0:0:
456,181,31378,6,0,P|409:254|448:332,1,180,2|0,1:0|0:0,0:0:0:0:
192,316,31828,1,0,0:0:0:0:
128,256,31978,1,0,0:0:0:0:
120,168,32128,1,4,0:0:0:0:
172,96,32278,1,0,0:0:0:0:
260,88,32428,1,4,0:0:0:0:
44,348,32578,6,0,L|36:256,1,90,2|0,1:1|3:0,0:0:0:0:
320,160,32878,2,0,L|328:68,1,90,0|0,0:0|0:0,0:0:0:0:
36,40,33178,2,0,P|80:116|32:200,1,180,0|0,0:0|0:0,0:0:0:0:
435,340,33778,6,0,P|471:262|428:188,1,180,4|8,2:0|0:0,0:0:0:0:
320,156,34228,1,0,0:0:0:0:
416,260,34378,2,0,L|424:164,1,90,8|8,0:0|0:0,0:0:0:0:
180,360,34678,2,0,L|172:264,1,90,8|0,0:0|0:0,0:0:0:0:
456,88,34978,6,0,P|412:112|280:84,1,180,8|8,0:0|0:0,0:0:0:0:
52,200,35428,2,0,L|144:192,1,90,0|8,0:0|0:0,0:0:0:0:
444,336,35728,2,0,L|352:328,2,90,0|8|0,0:0|0:0|0:0,0:0:0:0:
116,324,36178,5,8,0:0:0:0:
56,272,36328,1,0,0:0:0:0:
36,192,36478,1,8,0:0:0:0:
60,116,36628,1,0,0:0:0:0:
132,80,36778,2,0,L|120:176,1,90,8|8,0:0|0:0,0:0:0:0:
380,188,37078,2,0,L|392:284,1,90,8|8,0:0|0:0,0:0:0:0:
124,296,37378,6,0,L|24:304,2,90,8|8|8,0:3|0:3|0:3,0:0:0:0:
432,328,37828,1,8,0:3:0:0:
364,284,37978,1,8,0:3:0:0:
436,244,38128,1,8,0:3:0:0:
336,200,38278,1,8,0:3:0:0:
232,224,38428,1,8,0:3:0:0:
440,164,38578,5,4,0:0:0:0:
256,192,43378,5,12,0:0:0:0:
104,192,44578,5,12,0:0:0:0:
448,40,45778,6,0,L|352:32,1,90,4|0,0:0|0:0,0:0:0:0:
56,148,46078,2,0,L|152:140,1,90,0|0,1:0|1:0,0:0:0:0:
460,264,46378,2,0,L|364:256,1,90,4|0,0:0|0:0,0:0:0:0:
32,364,46678,2,0,L|128:356,1,90,2|0,1:0|1:0,0:0:0:0:
340,304,46978,6,0,L|352:260,2,45,4|0|0,0:0|0:0|0:0,0:0:0:0:
80,188,47278,2,0,L|68:144,2,45,4|0|0,0:0|0:0|0:0,0:0:0:0:
432,108,47578,2,0,L|332:100,1,90,4|0,0:0|0:0,0:0:0:0:
28,336,47878,2,0,L|128:328,1,90,2|2,1:3|1:3,0:0:0:0:
436,320,48178,5,4,0:0:0:0:
388,256,48328,1,0,0:0:0:0:
384,176,48478,1,8,0:0:0:0:
436,112,48628,1,0,0:0:0:0:
328,36,48778,2,0,L|224:32,1,90,2|8,0:0|0:0,0:0:0:0:
28,324,49078,6,0,L|132:320,2,90,0|8|0,0:0|0:0|0:0,0:0:0:0:
312,348,49528,2,0,L|328:252,1,90,0|8,0:0|0:0,0:0:0:0:
36,88,49828,1,0,0:0:0:0:
96,140,49978,1,0,0:0:0:0:
112,220,50128,1,8,0:0:0:0:
92,300,50278,1,0,0:0:0:0:
28,348,50428,1,8,0:0:0:0:
348,268,50578,6,0,L|440:264,2,90,0|0|8,0:0|0:0|0:0,0:0:0:0:
112,104,51028,2,0,L|20:100,2,90,0|0|8,0:0|0:0|0:0,0:0:0:0:
332,180,51478,2,0,L|388:180,2,45,0|0|8,0:0|0:0|0:0,0:0:0:0:
32,352,51778,5,0,0:0:0:0:
96,304,51928,1,0,0:0:0:0:
112,224,52078,1,8,0:0:0:0:
84,148,52228,1,0,0:0:0:0:
8,116,52378,1,0,0:0:0:0:
220,204,52528,1,8,0:0:0:0:
40,256,52678,2,0,L|8:208,2,45,8|8|8,0:0|0:0|0:0,0:0:0:0:
380,336,52978,5,0,0:0:0:0:
452,296,53128,1,0,0:0:0:0:
472,216,53278,1,8,0:0:0:0:
448,140,53428,1,0,0:0:0:0:
372,108,53578,2,0,L|260:100,1,90,0|8,0:0|0:0,0:0:0:0:
104,176,53878,2,0,L|52:176,2,45,8|8|8,0:0|0:0|0:0,0:0:0:0:
452,296,54178,5,0,0:0:0:0:
352,244,54328,1,0,0:0:0:0:
444,192,54478,1,8,0:0:0:0:
344,144,54628,1,0,0:0:0:0:
440,84,54778,1,0,0:0:0:0:
104,176,54928,1,8,0:0:0:0:
336,144,55078,2,0,L|352:84,2,45,8|8|8,0:0|0:0|0:0,0:0:0:0:
80,308,55378,5,0,0:0:0:0:
108,228,55528,1,0,0:0:0:0:
48,168,55678,1,0,0:0:0:0:
88,92,55828,1,0,0:0:0:0:
436,96,55978,1,0,0:0:0:0:
364,136,56128,1,8,0:0:0:0:
340,212,56278,1,8,0:0:0:0:
364,288,56428,1,8,0:0:0:0:
432,328,56578,6,0,L|408:212,1,90,0|0,1:0|0:0,0:0:0:0:
152,236,56878,1,2,0:3:0:0:
28,248,57028,2,0,L|96:160,1,90,0|0,1:0|0:0,0:0:0:0:
360,148,57328,1,2,0:3:0:0:
484,136,57478,2,0,L|416:224,1,90,0|0,1:0|0:0,0:0:0:0:
152,344,57778,5,4,0:0:0:0:
228,316,58078,1,0,0:0:0:0:
260,240,58378,1,0,0:0:0:0:
228,164,58678,1,0,0:0:0:0:
152,136,58978,2,0,L|264:132,1,90,0|0,0:0|0:0,0:0:0:0:
472,320,59278,2,0,L|360:316,1,90,0|0,0:0|0:0,0:0:0:0:
148,316,59578,1,0,0:0:0:0:
84,264,59728,1,0,0:0:0:0:
88,184,59878,1,0,0:0:0:0:
152,136,60028,1,0,0:0:0:0:
440,68,60178,5,0,0:0:0:0:
424,148,60478,1,0,0:0:0:0:
408,228,60778,1,0,0:0:0:0:
392,308,61078,1,0,0:0:0:0:
116,292,61378,2,0,L|100:184,1,90,0|0,0:0|0:0,0:0:0:0:
352,384,61678,2,0,L|336:276,1,90,0|0,0:0|0:0,0:0:0:0:
44,84,61978,1,0,0:0:0:0:
112,128,62128,1,0,0:0:0:0:
112,208,62278,1,0,0:0:0:0:
40,248,62428,1,0,0:0:0:0:
388,256,62578,5,4,0:0:0:0:
128,168,63328,2,0,L|180:168,5,45,0|0|0|0|0|0,0:0|0:0|0:0|0:0|0:0|0:0,0:0:0:0:
376,248,63778,1,4,0:0:0:0:
384,260,64528,2,0,L|332:260,5,45,0|0|0|0|0|0,0:0|0:0|0:0|0:0|0:0|0:0,0:0:0:0:
136,340,64978,1,4,0:0:0:0:
40,72,65278,2,0,L|92:72,3,45,0|0|0|0,1:0|1:0|1:0|1:0,0:0:0:0:
288,152,65578,1,4,0:0:0:0:
380,256,65878,2,0,L|328:256,3,45,0|0|0|0,1:0|1:0|1:0|1:0,0:0:0:0:
132,336,66178,6,0,L|40:324,1,90,4|0,0:0|0:0,0:0:0:0:
264,192,66478,2,0,L|356:180,1,90,4|0,0:0|0:0,0:0:0:0:
129,83,66778,2,0,L|37:71,2,90,4|0|0,0:0|0:0|1:0,0:0:0:0:
264,192,67228,1,0,1:0:0:0:
56,332,67378,6,0,L|44:232,1,90,4|0,0:0|0:0,0:0:0:0:
264,376,67678,2,0,L|252:276,1,90,8|0,0:0|0:0,0:0:0:0:
129,83,67978,2,0,L|37:71,2,90,8|0|8,0:0|0:0|0:0,0:0:0:0:
39,71,68428,1,0,0:0:0:0:
368,268,68578,2,0,L|384:172,1,90,8|0,0:0|0:0,0:0:0:0:
120,364,68878,2,0,L|104:268,1,90,8|0,0:0|0:0,0:0:0:0:
440,68,69178,5,8,0:0:0:0:
376,120,69328,1,0,0:0:0:0:
352,196,69478,1,8,0:0:0:0:
376,272,69628,1,2,0:0:0:0:
440,320,69778,1,8,0:0:0:0:
80,284,69928,5,2,0:0:0:0:
144,232,70078,1,8,0:0:0:0:
432,180,70228,1,0,0:0:0:0:
368,128,70378,1,8,0:0:0:0:
48,72,70528,1,8,0:0:0:0:
116,116,70678,1,8,0:0:0:0:
144,192,70828,1,0,0:0:0:0:
112,268,70978,1,8,0:0:0:0:
40,304,71128,1,0,0:0:0:0:
392,304,71278,2,0,L|296:280,1,90,8|0,0:0|0:0,0:0:0:0:
44,160,71578,2,0,L|140:136,3,90,8|8|8|2,0:0|0:0|0:0|0:0,0:0:0:0:
464,84,72178,6,0,L|456:192,1,90,8|2,0:0|0:0,0:0:0:0:
212,244,72478,2,0,L|220:352,1,90,8|0,0:0|0:0,0:0:0:0:
36,88,72778,1,8,0:0:0:0:
96,140,72928,1,8,0:0:0:0:
112,220,73078,1,8,0:0:0:0:
92,300,73228,1,0,0:0:0:0:
28,348,73378,1,8,0:0:0:0:
348,268,73528,6,0,L|440:264,2,90,0|8|0,0:0|0:0|0:0,0:0:0:0:
112,104,73978,2,0,L|20:100,2,90,8|8|8,0:0|0:0|0:0,0:0:0:0:
336,260,74428,1,2,0:0:0:0:
156,344,74578,6,0,L|140:252,1,90,8|2,0:0|0:0,0:0:0:0:
384,76,74878,1,8,0:0:0:0:
320,124,75028,1,8,0:3:0:0:
288,196,75178,1,8,0:0:0:0:
316,272,75328,1,0,0:0:0:0:
384,316,75478,1,8,0:0:0:0:
164,336,75628,1,2,0:0:0:0:
404,344,75778,2,0,L|412:252,1,90,8|2,0:0|0:0,0:0:0:0:
148,224,76078,2,0,L|140:132,1,90,0|0,0:0|0:0,0:0:0:0:
356,80,76378,1,0,0:0:0:0:
412,136,76528,1,0,0:0:0:0:
352,272,76828,5,0,0:0:0:0:
256,192,76978,12,0,77953,0:0:0:0:
