osu file format v14

[General]
AudioFilename: Renard - PIZZZZZZZZ.mp3
AudioLeadIn: 0
PreviewTime: 19078
Countdown: 0
SampleSet: Normal
StackLeniency: 0.7
Mode: 0
LetterboxInBreaks: 0
WidescreenStoryboard: 0

[Editor]
Bookmarks: 9778,13678,28978,33778,35278,38578,48178,48478,57028,57328,57478,67378,69478
DistanceSpacing: 1.2
BeatDivisor: 4
GridSize: 4
TimelineZoom: 1

[Metadata]
Title:PIZZZZZZZZ
TitleUnicode:PIZZZZZZZZ
Artist:Renard
ArtistUnicode:Renard
Creator:Snaggletooth
Version:Hard
Source:
Tags:LAPFOX TRAX full techno jackass gabba breakcore nicki minaj stupid kite hoe LGV894 Hardcore
BeatmapID:675241
BeatmapSetID:301072

[Difficulty]
HPDrainRate:6
CircleSize:4
OverallDifficulty:6.5
ApproachRate:8
SliderMultiplier:1.4
SliderTickRate:1

[Events]
//Background and Video events
0,0,"Alice_Madness_Returns_Pink_Castle_Drawing_1440x900.jpg",0,0
//Break Periods
2,38778,42628
2,57978,61828
//Storyboard Layer 0 (Background)
//Storyboard Layer 1 (Fail)
//Storyboard Layer 2 (Pass)
//Storyboard Layer 3 (Foreground)
//Storyboard Sound Samples

[TimingPoints]
178,300,4,1,0,80,1,0
18328,-100,4,3,0,70,0,0
19378,-100,4,1,0,80,0,1
28978,-100,4,1,0,80,0,0
33778,-100,4,1,0,80,0,1
38578,-100,4,1,0,80,0,0
48178,-100,4,1,0,80,0,1
56578,-100,4,1,0,80,0,0
57778,-100,4,1,0,80,0,1
57853,-100,4,1,0,80,0,0
67378,-100,4,1,0,80,0,1
77953,-100,4,1,0,5,0,0

[Colours]
Combo1 : 247,234,147
Combo2 : 182,85,223
Combo3 : 240,142,176
Combo4 : 230,91,230

[HitObjects]
48,44,9178,6,0,L|64:84,3,35
128,96,9478,2,0,L|144:136,3,35
212,152,9778,6,0,P|256:148|304:144,1,70,4|0,0:0|0:0,0:0:0:0:
352,108,10078,1,8,0:0:0:0:
408,168,10228,1,0,0:0:0:0:
376,244,10378,2,0,L|296:240,1,70
232,284,10678,2,0,L|152:280,1,70,8|0,0:0|0:0,0:0:0:0:
112,348,10978,6,0,P|80:300|112:212,1,140,0|8,0:0|0:0,0:0:0:0:
148,156,11428,1,0,0:0:0:0:
124,76,11578,2,0,L|40:72,1,70
204,96,11878,2,0,L|260:100,2,35,8|0|0,0:0|0:0|0:0,0:0:0:0:
296,44,12178,6,0,P|340:36|384:56,1,70
428,100,12478,2,0,P|436:144|416:196,1,70,8|0,0:0|0:0,0:0:0:0:
368,228,12778,2,0,L|220:220,1,140,0|8,0:0|0:0,0:0:0:0:
144,232,13228,1,0,0:0:0:0:
80,284,13378,6,0,P|68:324|80:360,1,70
64,204,13678,2,0,P|76:164|64:128,1,70,8|0,0:0|0:0,0:0:0:0:
12,76,13978,2,0,P|60:56|140:88,1,140,0|8,0:0|0:0,0:0:0:0:
204,140,14428,1,0,0:0:0:0:
272,88,14578,6,0,L|352:84,1,70
388,156,14878,2,0,L|308:160,1,70,8|0,0:0|0:0,0:0:0:0:
280,236,15178,2,0,L|360:232,1,70
396,304,15478,2,0,L|316:308,1,70,8|0,0:0|0:0,0:0:0:0:
240,312,15778,6,0,P|204:284|192:232,1,70
112,248,16078,2,0,P|128:208|172:184,1,70,8|0,0:0|0:0,0:0:0:0:
160,108,16378,2,0,P|200:124|220:152,1,70
300,160,16678,2,0,P|288:192|248:224,1,70,8|0,0:0|0:0,0:0:0:0:
376,112,16978,6,0,L|432:104,2,35
304,64,17278,2,0,L|248:72,2,35,8|0|0,0:0|0:0|0:0,0:0:0:0:
176,136,17578,2,0,L|232:128,2,35
104,92,17878,2,0,L|69:96,2,35,8|0|0,0:0|0:0|0:0,0:0:0:0:
28,164,18178,6,0,P|12:224|52:304,1,140,4|0,0:0|0:0,0:0:0:0:
124,316,18628,2,0,L|204:312,1,70
268,348,18928,1,0,0:0:0:0:
348,316,19078,1,0,0:0:0:0:
440,188,19378,6,2,P|448:140|376:64,1,140,6|10,0:0|0:0,0:0:0:0:
296,156,19828,2,0,P|336:160|368:148,1,70,2|0,0:0|0:0,0:0:0:0:
240,96,20128,2,0,P|200:92|168:104,1,70,0|8,0:0|0:0,0:0:0:0:
104,152,20428,1,0,0:0:0:0:
152,220,20578,6,2,P|204:264|184:352,1,140,2|10,0:0|0:0,0:0:0:0:
68,320,21028,2,0,L|140:292,1,70,2|0,0:0|0:0,0:0:0:0:
280,296,21328,2,0,L|352:268,1,70,0|8,0:0|0:0,0:0:0:0:
372,196,21628,1,0,0:0:0:0:
380,120,21778,6,2,P|352:88|248:80,1,140,2|10,0:0|0:0,0:0:0:0:
200,196,22228,2,0,L|208:280,1,70,2|0,0:0|0:0,0:0:0:0:
286,365,22528,2,0,L|278:277,1,70,0|8,0:0|0:0,0:0:0:0:
276,216,22828,1,0,0:0:0:0:
124,248,22978,6,2,P|88:256|-4:184,1,140,2|10,0:0|0:0,0:0:0:0:
32,64,23428,2,0,P|80:40|108:44,1,70,2|0,0:0|0:0,0:0:0:0:
132,168,23728,2,0,P|96:140|88:104,1,70,0|8,0:0|0:0,0:0:0:0:
94,40,24028,1,0,0:0:0:0:
180,20,24178,6,2,P|240:8|316:68,1,140,2|10,0:0|0:0,0:0:0:0:
336,176,24628,2,0,L|312:260,1,70,2|0,0:0|0:0,0:0:0:0:
212,160,24928,2,0,L|236:76,1,70,0|8,0:0|0:0,0:0:0:0:
304,60,25228,1,0,0:0:0:0:
376,104,25378,6,2,P|412:152|388:240,1,140,2|10,0:0|0:0,0:0:0:0:
280,288,25828,2,0,P|216:280|192:256,1,70,2|0,0:0|0:0,0:0:0:0:
200,164,26128,2,0,L|218:96,1,70,0|8,0:0|0:0,0:0:0:0:
260,208,26428,1,0,0:0:0:0:
124,220,26578,6,2,P|80:224|24:320,1,140,2|10,0:0|0:0,0:0:0:0:
144,352,27028,2,0,L|232:348,1,70,2|0,0:0|0:0,0:0:0:0:
344,316,27328,2,0,L|432:312,1,70,0|8,0:0|0:0,0:0:0:0:
476,256,27628,1,0,0:0:0:0:
424,188,27778,6,2,L|428:104,1,70,2|0,0:0|0:0,0:0:0:0:
444,36,28078,1,0,0:0:0:0:
360,48,28228,2,0,P|316:40|264:56,1,70
224,92,28528,2,0,P|180:100|128:84,1,70
64,216,28978,6,2,P|68:268|156:304,1,140,6|2,0:0|0:0,0:0:0:0:
208,256,29428,2,0,P|204:204|116:164,1,140,2|0,0:0|0:0,0:0:0:0:
136,236,29878,1,0,0:0:0:0:
252,336,30178,6,2,L|408:332,1,140
424,260,30628,2,0,L|268:264,1,140,2|0,0:0|0:0,0:0:0:0:
208,256,31078,1,0,0:0:0:0:
108,140,31378,6,2,P|108:88|188:40,1,140
180,116,31828,2,0,L|40:48,1,140,2|0,0:0|0:0,0:0:0:0:
54,54,32278,1,0,0:0:0:0:
96,212,32578,6,2,P|32:236|12:300,1,140
68,356,33028,2,0,L|220:348,1,140,2|0,0:0|0:0,0:0:0:0:
280,316,33478,2,0,L|368:312,1,70
420,344,33778,5,6,0:0:0:0:
452,272,33928,1,0,0:0:0:0:
420,204,34078,2,0,L|428:120,1,70,8|2,0:0|0:0,0:0:0:0:
356,100,34378,2,0,L|344:192,1,70
288,220,34678,1,8,0:0:0:0:
216,196,34828,1,0,0:0:0:0:
180,268,34978,6,2,L|28:260,1,140,2|10,0:0|0:0,0:0:0:0:
0,192,35428,1,2,0:0:0:0:
48,124,35578,2,0,P|60:88|56:44,1,70
144,28,35878,2,0,P|132:64|136:108,1,70,8|0,0:0|0:0,0:0:0:0:
152,172,36178,6,2,P|208:196|288:152,1,140,2|10,0:0|0:0,0:0:0:0:
304,96,36628,1,2,0:0:0:0:
368,52,36778,2,0,L|456:48,1,70
464,120,37078,2,0,L|376:124,1,70,8|0,0:0|0:0,0:0:0:0:
344,184,37378,6,2,P|308:228|336:312,1,140,2|10,0:0|0:0,0:0:0:0:
388,348,37828,1,2,0:0:0:0:
440,292,37978,2,0,L|512:284,1,70
388,348,38278,2,0,L|316:356,1,70,8|0,0:0|0:0,0:0:0:0:
244,364,38578,5,0,0:0:0:0:
80,68,43378,5,0,0:0:0:0:
432,96,44578,1,0,0:0:0:0:
92,332,45778,5,0,0:0:0:0:
400,308,46378,1,0,0:0:0:0:
208,104,46978,6,0,L|116:112,1,70
112,184,47278,2,0,L|204:176,1,70
252,28,47578,2,0,L|88:44,1,140
28,172,48178,6,0,P|32:224|60:256,1,70,6|0,0:0|0:0,0:0:0:0:
60,312,48478,1,8,0:0:0:0:
136,296,48628,1,0,0:0:0:0:
196,344,48778,2,0,L|284:340,1,70
396,292,49078,2,0,L|308:296,1,70,10|0,0:0|0:0,0:0:0:0:
260,256,49378,6,0,P|236:216|268:120,1,140,2|8,0:0|0:0,0:0:0:0:
292,56,49828,1,0,0:0:0:0:
364,88,49978,2,0,P|416:92|452:80,1,70
292,56,50278,2,0,P|240:52|204:64,1,70,10|0,0:0|0:0,0:0:0:0:
160,100,50578,6,0,L|16:92,1,140,2|8,0:0|0:0,0:0:0:0:
48,164,51028,2,0,P|100:172|132:164,1,70
128,28,51328,2,0,P|76:20|44:28,1,70,0|10,0:0|0:0,0:0:0:0:
16,88,51628,1,0,0:0:0:0:
48,164,51778,6,0,L|40:312,1,140,2|8,0:0|0:0,0:0:0:0:
84,364,52228,1,0,0:0:0:0:
152,328,52378,2,0,P|192:320|232:336,1,70
363,312,52678,2,0,P|329:320|296:312,1,70,10|0,0:0|0:0,0:0:0:0:
332,240,52978,6,0,P|352:208|316:104,1,140,2|8,0:0|0:0,0:0:0:0:
252,100,53428,1,0,0:0:0:0:
168,112,53578,2,0,L|176:212,1,70
136,256,53878,2,0,P|60:256|44:248,1,70,2|0,0:0|0:0,0:0:0:0:
24,192,54178,6,0,P|4:140|32:60,1,140,2|8,0:0|0:0,0:0:0:0:
96,24,54628,1,0,0:0:0:0:
168,48,54778,2,0,L|244:28,1,70
308,52,55078,2,0,L|384:32,1,70,10|0,0:0|0:0,0:0:0:0:
432,84,55378,6,0,P|460:116|444:212,1,140,2|8,0:0|0:0,0:0:0:0:
376,228,55828,1,0,0:0:0:0:
308,192,55978,2,0,P|260:168|224:176,1,70
216,240,56278,2,0,P|264:264|300:256,1,70,10|0,0:0|0:0,0:0:0:0:
144,264,56578,6,8,P|96:236|16:276,1,140,10|0,0:0|0:0,0:0:0:0:
84,312,57028,2,0,L|88:168,1,140
52,104,57478,1,0,0:0:0:0:
52,104,57778,5,0,0:0:0:0:
400,80,62578,5,0,0:0:0:0:
380,340,63778,1,0,0:0:0:0:
72,72,64978,5,0,0:0:0:0:
100,336,65578,1,0,0:0:0:0:
380,212,66178,22,0,L|296:232,1,70
268,164,66478,2,0,L|352:144,1,70
376,288,66778,2,0,L|228:324,1,140
100,336,67378,22,0,P|76:288|80:248,1,70,6|0,0:0|0:0,0:0:0:0:
108,204,67678,1,8,0:0:0:0:
80,132,67828,1,0,0:0:0:0:
124,68,67978,2,0,L|208:72,1,70
264,36,68278,2,0,L|348:40,1,70,10|0,0:0|0:0,0:0:0:0:
408,16,68578,6,0,P|424:52|408:152,1,140,2|8,0:0|0:0,0:0:0:0:
412,228,69028,1,0,0:0:0:0:
368,292,69178,2,0,P|360:328|372:372,1,70
328,220,69478,6,0,L|240:228,1,70,10|0,0:0|0:0,0:0:0:0:
348,136,69778,2,0,L|260:144,1,70,2|0,0:0|0:0,0:0:0:0:
228,76,70078,6,0,P|296:56|376:60,1,140,8|0,0:0|0:0,0:0:0:0:
444,92,70528,2,0,L|440:164,1,70,0|10,0:0|0:0,0:0:0:0:
472,240,70828,1,0,0:0:0:0:
428,312,70978,6,0,P|388:324|276:312,1,140,2|8,0:0|0:0,0:0:0:0:
228,264,71428,2,0,L|144:268,1,70
84,228,71728,1,0,0:0:0:0:
64,148,71878,6,0,L|72:56,1,70,10|0,0:0|0:0,0:0:0:0:
152,184,72178,2,0,L|160:92,1,70,2|0,0:0|0:0,0:0:0:0:
220,56,72478,6,0,P|260:44|360:72,1,140,8|0,0:0|0:0,0:0:0:0:
396,140,72928,1,0,0:0:0:0:
336,200,73078,2,0,L|342:269,1,70,10|0,0:0|0:0,0:0:0:0:
416,312,73378,6,0,P|388:344|284:336,1,140,2|8,0:0|0:0,0:0:0:0:
228,296,73828,1,0,0:0:0:0:
152,332,73978,2,0,P|108:332|72:308,1,70
72,236,74278,6,0,L|110:177,1,70,10|0,0:0|0:0,0:0:0:0:
20,156,74578,2,0,L|64:88,1,70,2|0,0:0|0:0,0:0:0:0:
140,84,74878,6,0,P|184:68|268:104,1,140,8|0,0:0|0:0,0:0:0:0:
320,168,75328,1,0,0:0:0:0:
392,124,75478,22,0,L|476:128,1,70,10|0,0:0|0:0,0:0:0:0:
348,40,75778,2,0,L|432:44,1,70,2|0,0:0|0:0,0:0:0:0:
256,192,76003,12,0,77953,0:0:0:0:
