osu file format v14

[General]
AudioFilename: Renard - PIZZZZZZZZ.mp3
AudioLeadIn: 0
PreviewTime: 19078
Countdown: 0
SampleSet: Normal
StackLeniency: 0.3
Mode: 0
LetterboxInBreaks: 0
WidescreenStoryboard: 0

[Editor]
Bookmarks: 8578
DistanceSpacing: 1
BeatDivisor: 4
GridSize: 4
TimelineZoom: 3.299999

[Metadata]
Title:PIZZZZZZZZ
TitleUnicode:PIZZZZZZZZ
Artist:Renard
ArtistUnicode:Renard
Creator:DeRandom Otaku
Version:Normal
Source:
Tags:LAPFOX TRAX full techno jackass gabba breakcore nicki minaj stupid hoe Hardcore ByBy13 ByBy_ChAn SnowNiNo_
BeatmapID:1010849
BeatmapSetID:473066

[Difficulty]
HPDrainRate:3.5
CircleSize:3.2
OverallDifficulty:4
ApproachRate:4
SliderMultiplier:0.85
SliderTickRate:1

[Events]
//Background and Video events
0,0,"Alice_Madness_Returns_Pink_Castle_Drawing_1440x900.jpg",0,0
//Break Periods
2,38778,42058
2,57978,61258
//Storyboard Layer 0 (Background)
//Storyboard Layer 1 (Fail)
//Storyboard Layer 2 (Pass)
//Storyboard Layer 3 (Foreground)
//Storyboard Sound Samples

[TimingPoints]
178,300,4,1,0,100,1,0
9778,-100,4,1,1,80,0,0
19378,-100,4,1,1,80,0,1
27778,-100,4,1,1,80,0,0
33778,-100,4,1,1,80,0,1
38578,-100,4,1,1,80,0,0
48178,-100,4,1,1,80,0,1
56578,-100,4,1,1,80,0,0
67378,-100,4,1,1,80,0,1
75778,-100,4,1,1,80,0,0
76828,-100,4,1,1,30,0,0
76865,-100,4,2,1,5,0,0
77953,-200,4,2,1,50,0,0

[Colours]
Combo1 : 255,21,255
Combo2 : 255,128,128
Combo3 : 5,185,237
Combo4 : 175,81,67

[HitObjects]
123,121,9778,6,0,P|174:93|285:93,1,170,6|2,0:0|0:0,0:0:0:0:
321,258,10978,2,0,P|270:286|159:286,1,170,2|2,0:0|0:0,0:0:0:0:
24,184,12178,6,0,P|64:168|111:175,1,85,6|0,0:0|0:0,0:0:0:0:
184,202,12778,2,0,P|225:206|264:190,1,85,2|0,0:0|0:0,0:0:0:0:
339,150,13378,1,2,0:0:0:0:
418,119,13678,2,0,L|505:121,2,85,0|2|0,0:0|0:0|0:0,0:0:0:0:
348,68,14578,6,0,L|304:68,2,42.5,6|0|0,0:0|0:0|0:0,0:0:0:0:
328,150,15178,2,0,L|284:150,2,42.5,2|0|0,0:0|0:0|0:0,0:0:0:0:
308,233,15778,2,0,L|264:233,2,42.5,2|0|0,0:0|0:0|0:0,0:0:0:0:
288,316,16378,2,0,L|244:316,2,42.5,2|0|0,0:0|0:0|0:0,0:0:0:0:
366,349,16978,6,0,P|413:349|456:321,1,85,6|0,0:0|0:0,0:0:0:0:
485,256,17578,1,2,0:0:0:0:
430,191,17878,1,0,0:0:0:0:
390,266,18178,5,2,0:0:0:0:
82,252,19378,6,0,P|73:212|79:160,1,85,6|0,0:0|0:0,0:0:0:0:
113,91,19978,1,2,0:0:0:0:
168,26,20278,1,0,0:0:0:0:
231,83,20578,2,0,P|274:83|322:71,1,85,2|0,0:0|0:0,0:0:0:0:
389,33,21178,1,2,0:0:0:0:
471,13,21478,1,0,0:0:0:0:
450,95,21778,6,0,B|450:139|450:139|457:183,1,85,2|0,0:0|0:0,0:0:0:0:
489,258,22378,2,0,P|458:271|402:266,1,85,2|0,0:0|0:0,0:0:0:0:
328,236,22978,1,2,0:0:0:0:
267,296,23278,1,0,0:0:0:0:
182,296,23578,1,2,0:0:0:0:
121,235,23878,1,0,0:0:0:0:
121,150,24178,6,0,P|155:131|211:131,1,85,6|0,0:0|0:0,0:0:0:0:
279,158,24778,1,2,0:0:0:0:
350,203,25078,1,0,0:0:0:0:
431,179,25378,2,0,L|442:268,2,85,2|0|2,0:0|0:0|0:0,0:0:0:0:
424,94,26278,1,0,0:0:0:0:
388,16,26578,6,0,P|344:12|295:24,1,85,2|0,0:0|0:0,0:0:0:0:
224,50,27178,1,2,0:0:0:0:
163,110,27478,1,0,0:0:0:0:
102,49,27778,5,2,0:0:0:0:
289,290,28978,6,0,L|429:290,2,127.5,6|2|2,0:0|0:0|0:0,0:0:0:0:
228,229,30178,2,0,L|88:229,2,127.5,2|2|2,0:0|0:0|0:0,0:0:0:0:
288,168,31378,5,2,0:0:0:0:
380,80,31828,1,2,0:0:0:0:
427,198,32278,1,2,0:0:0:0:
349,232,32578,2,0,P|285:255|223:229,1,127.5,2|2,0:0|0:0,0:0:0:0:
170,176,33328,2,0,L|127:180,2,42.5,0|2|0,0:0|0:0|0:0,0:0:0:0:
204,149,33778,6,0,B|210:110|210:110|210:51,1,85,6|0,0:0|0:0,0:0:0:0:
139,16,34378,1,2,0:0:0:0:
74,71,34678,1,0,0:0:0:0:
38,148,34978,2,0,P|34:195|48:233,1,85,2|0,0:0|0:0,0:0:0:0:
90,303,35578,2,0,P|135:308|176:300,1,85,2|0,0:0|0:0,0:0:0:0:
250,263,36178,5,2,0:0:0:0:
327,228,36478,1,0,0:0:0:0:
412,228,36778,2,0,B|412:194|412:194|386:146,1,85,2|0,0:0|0:0,0:0:0:0:
321,95,37378,2,0,L|270:95,2,42.5,2|0|0,0:0|0:0|0:0,0:0:0:0:
291,174,37978,2,0,L|240:174,2,42.5,2|0|0,0:0|0:0|0:0,0:0:0:0:
261,253,38578,5,6,0:0:0:0:
221,69,43378,5,6,0:0:0:0:
409,351,44578,1,6,0:0:0:0:
108,192,45778,5,6,0:0:0:0:
256,108,46378,1,6,0:0:0:0:
403,192,46978,5,6,0:0:0:0:
341,251,47278,1,4,0:0:0:0:
263,285,47578,1,6,0:0:0:0:
178,291,47878,1,4,0:0:0:0:
93,291,48178,6,0,L|1:291,1,85,6|0,0:0|0:0,0:0:0:0:
39,212,48778,2,0,L|124:212,1,85,2|0,0:0|0:0,0:0:0:0:
209,212,49378,2,0,P|219:176|213:122,1,85,2|0,0:0|0:0,0:0:0:0:
148,76,49978,1,2,0:0:0:0:
217,27,50278,1,0,0:0:0:0:
295,62,50578,6,0,P|340:62|384:72,1,85,2|0,0:0|0:0,0:0:0:0:
439,130,51178,1,2,0:0:0:0:
439,215,51478,1,0,0:0:0:0:
378,275,51778,2,0,P|336:283|294:283,1,85,2|0,0:0|0:0,0:0:0:0:
208,283,52378,2,0,P|165:282|124:291,1,85,2|0,0:0|0:0,0:0:0:0:
54,340,52978,5,2,0:0:0:0:
25,260,53278,1,0,0:0:0:0:
54,180,53578,2,0,P|95:167|145:172,1,85,2|0,0:0|0:0,0:0:0:0:
217,195,54178,2,0,P|258:208|308:203,1,85,2|0,0:0|0:0,0:0:0:0:
378,173,54778,1,2,0:0:0:0:
450,128,55078,1,0,0:0:0:0:
488,203,55378,6,0,B|493:249|493:249|490:292,1,85,2|0,0:0|0:0,0:0:0:0:
434,352,55978,1,2,0:0:0:0:
367,299,56278,1,0,0:0:0:0:
298,349,56578,6,0,L|158:355,2,127.5,2|2|2,0:0|0:0|0:0,0:0:0:0:
367,299,57778,5,6,0:0:0:0:
371,101,62578,5,6,0:0:0:0:
85,272,63778,1,6,0:0:0:0:
427,272,64978,5,6,0:0:0:0:
276,192,65578,1,6,0:0:0:0:
427,112,66178,5,6,0:0:0:0:
351,72,66478,1,4,0:0:0:0:
275,32,66778,2,0,B|232:28|232:28|184:36,1,85,6|4,0:0|0:0,0:0:0:0:
116,75,67378,6,0,P|126:116|117:170,1,85,6|0,0:0|0:0,0:0:0:0:
90,237,67978,2,0,P|80:280|94:334,1,85,2|0,0:0|0:0,0:0:0:0:
163,282,68578,1,2,0:0:0:0:
240,246,68878,1,0,0:0:0:0:
314,205,69178,2,0,P|356:195|401:199,1,85,2|0,0:0|0:0,0:0:0:0:
467,246,69778,5,2,0:0:0:0:
495,165,70078,1,0,0:0:0:0:
467,84,70378,2,0,P|425:78|374:88,1,85,2|0,0:0|0:0,0:0:0:0:
304,117,70978,1,2,0:0:0:0:
223,145,71278,1,0,0:0:0:0:
140,167,71578,2,0,P|93:177|51:163,1,85,2|0,0:0|0:0,0:0:0:0:
99,92,72178,5,6,0:0:0:0:
178,62,72478,1,0,0:0:0:0:
257,32,72778,2,0,P|298:30|343:38,1,85,2|0,0:0|0:0,0:0:0:0:
402,96,73378,1,2,0:0:0:0:
441,171,73678,1,0,0:0:0:0:
441,256,73978,1,2,0:0:0:0:
402,331,74278,1,0,0:0:0:0:
323,298,74578,6,0,P|281:287|236:287,1,85,2|0,0:0|0:0,0:0:0:0:
155,297,75178,2,0,L|164:338,2,42.5,2|0|0,0:0|0:0|0:0,0:0:0:0:
145,255,75628,1,0,0:0:0:0:
256,192,75778,12,0,77953,0:0:0:0:
