osu file format v14

[General]
AudioFilename: Renard - PIZZZZZZZZ.mp3
AudioLeadIn: 0
PreviewTime: 19078
Countdown: 0
SampleSet: Normal
StackLeniency: 0.3
Mode: 0
LetterboxInBreaks: 0
WidescreenStoryboard: 0

[Editor]
Bookmarks: 8578
DistanceSpacing: 0.5
BeatDivisor: 8
GridSize: 4
TimelineZoom: 3.299999

[Metadata]
Title:PIZZZZZZZZ
TitleUnicode:PIZZZZZZZZ
Artist:Renard
ArtistUnicode:Renard
Creator:DeRandom Otaku
Version:NiNo's Insane
Source:
Tags:LAPFOX TRAX full techno jackass gabba breakcore nicki minaj stupid hoe Hardcore ByBy13 ByBy_ChAn SnowNiNo_
BeatmapID:1014580
BeatmapSetID:473066

[Difficulty]
HPDrainRate:5.5
CircleSize:3.8
OverallDifficulty:7.5
ApproachRate:9
SliderMultiplier:1.8
SliderTickRate:1

[Events]
//Background and Video events
0,0,"Alice_Madness_Returns_Pink_Castle_Drawing_1440x900.jpg",0,0
//Break Periods
//Storyboard Layer 0 (Background)
//Storyboard Layer 1 (Fail)
//Storyboard Layer 2 (Pass)
//Storyboard Layer 3 (Foreground)
//Storyboard Sound Samples

[TimingPoints]
178,300,4,1,0,100,1,0
9178,-100,4,2,0,30,0,0
9253,-100,4,2,0,36,0,0
9328,-100,4,2,0,42,0,0
9403,-100,4,2,0,48,0,0
9478,-100,4,2,0,55,0,0
9553,-100,4,2,0,61,0,0
9628,-100,4,2,0,67,0,0
9703,-100,4,2,0,74,0,0
9778,-100,4,1,1,80,0,0
19378,-86.9565217391304,4,1,1,80,0,1
27778,-100,4,1,1,80,0,0
33778,-83.3333333333333,4,1,1,80,0,1
38578,-100,4,1,1,80,0,0
48178,-100,4,1,1,80,0,1
56578,-100,4,1,1,80,0,0
57853,-100,4,1,1,80,0,0
62578,-100,4,1,1,80,0,0
62653,-100,4,1,1,80,0,0
67378,-100,4,1,1,80,0,1
75778,-100,4,1,1,80,0,0
76828,-100,4,1,1,30,0,0
76865,-100,4,2,1,5,0,0
77953,-200,4,2,1,50,0,0

[Colours]
Combo1 : 255,21,255
Combo2 : 255,128,128
Combo3 : 5,185,237
Combo4 : 175,81,67

[HitObjects]
116,266,9178,6,0,L|109:317,7,45,0|0|0|0|0|0|0|0,0:0|0:0|0:0|0:0|0:0|0:0|0:0|0:0,0:0:0:0:
158,235,9778,6,0,P|202:237|266:111,1,180,6|0,0:0|0:0,0:0:0:0:
155,70,10228,1,2,0:0:0:0:
85,185,10378,2,0,P|69:236|89:287,1,90,2|0,0:0|0:0,0:0:0:0:
198,331,10678,1,0,0:0:0:0:
198,331,10753,1,0,0:0:0:0:
198,331,10828,1,0,0:0:0:0:
229,199,10978,6,0,B|241:71|241:71|279:132,1,180,2|0,0:0|0:0,0:0:0:0:
307,243,11428,1,2,0:0:0:0:
142,215,11578,2,0,L|152:107,1,90,2|0,0:0|0:0,0:0:0:0:
240,24,11878,1,0,0:0:0:0:
240,24,11953,1,0,0:0:0:0:
240,24,12028,1,0,0:0:0:0:
258,175,12178,6,0,P|305:189|356:176,1,90,6|0,0:0|0:0,0:0:0:0:
167,107,12478,2,0,P|122:99|80:113,1,90,2|2,0:0|0:0,0:0:0:0:
303,107,12778,2,0,L|294:16,1,90,2|0,0:0|0:0,0:0:0:0:
124,276,13078,2,0,L|133:185,1,90,2|0,0:0|0:0,0:0:0:0:
259,50,13378,5,2,0:0:0:0:
167,107,13528,1,0,0:0:0:0:
259,50,13678,1,2,0:0:0:0:
167,107,13828,1,2,0:0:0:0:
342,60,13978,2,0,P|352:103|331:163,1,90,2|0,0:0|0:0,0:0:0:0:
124,276,14278,2,0,P|113:232|123:189,1,90,2|0,0:0|0:0,0:0:0:0:
252,63,14578,6,0,L|359:59,1,90,6|2,0:0|0:0,0:0:0:0:
283,239,14878,2,0,L|176:235,1,90,2|2,0:0|0:0,0:0:0:0:
355,184,15178,2,0,P|370:227|347:296,1,90,2|2,0:0|0:0,0:0:0:0:
115,275,15478,2,0,P|108:230|123:188,1,90,2|2,0:0|0:0,0:0:0:0:
242,144,15778,6,0,P|214:123|146:114,1,90,6|2,0:0|0:0,0:0:0:0:
274,246,16078,2,0,P|318:239|355:213,1,90,2|2,0:0|0:0,0:0:0:0:
92,63,16378,2,0,P|75:111|90:159,1,90,2|2,0:0|0:0,0:0:0:0:
187,328,16678,2,0,P|194:284|178:243,1,90,2|2,0:0|0:0,0:0:0:0:
160,111,16978,6,0,L|205:100,2,45,6|2|2,0:0|0:0|0:0,0:0:0:0:
177,242,17278,2,0,L|131:231,2,45,2|2|2,0:0|0:0|0:0,0:0:0:0:
273,162,17578,2,0,L|286:220,2,45,2|2|2,0:0|0:0|0:0,0:0:0:0:
60,152,17878,2,0,L|73:96,2,45,2|2|2,0:0|0:0|0:0,0:0:0:0:
260,252,18178,6,0,B|305:266|345:249|345:249|350:272|350:272|383:248|430:263,1,180,2|0,0:0|0:0,0:0:0:0:
399,339,18628,1,0,0:0:0:0:
296,179,18778,2,0,P|285:128|300:81,1,90,0|0,0:0|0:0,0:0:0:0:
485,219,19078,2,0,P|494:262|482:305,1,90,0|0,0:0|0:0,0:0:0:0:
367,249,19378,6,0,L|261:239,1,103.500001974106,6|0,0:0|0:0,0:0:0:0:
165,273,19678,1,0,0:0:0:0:
130,173,19828,2,0,P|166:133|268:132,1,155.250002961159
330,33,20128,2,0,P|336:57|330:99,1,51.7500009870529,0|0,0:0|2:0,0:0:0:0:
267,180,20278,2,0,P|261:156|267:114,1,51.7500009870529,2|0,0:0|2:0,0:0:0:0:
439,113,20428,2,0,P|421:130|381:146,1,51.7500009870529,0|0,0:0|2:0,0:0:0:0:
227,66,20578,6,0,L|100:61,1,103.500001974106,2|0,0:0|0:0,0:0:0:0:
19,66,20878,1,0,0:0:0:0:
75,152,21028,2,0,P|102:176|219:179,1,155.250002961159
305,130,21328,2,0,P|339:141|354:159,1,51.7500009870529,0|0,0:0|2:0,0:0:0:0:
388,233,21478,2,0,P|361:256|338:260,1,51.7500009870529,2|0,0:0|2:0,0:0:0:0:
269,331,21628,2,0,P|261:296|269:274,1,51.7500009870529,0|0,0:0|2:0,0:0:0:0:
215,180,21778,6,0,L|205:66,1,103.500001974106,2|0,0:0|0:0,0:0:0:0:
116,23,22078,1,0,0:0:0:0:
33,85,22228,2,0,P|11:133|43:235,1,155.250002961159
118,293,22528,2,0,P|138:262|141:235,1,51.7500009870529,0|0,0:0|2:0,0:0:0:0:
131,118,22678,2,0,P|111:149|108:176,1,51.7500009870529,2|0,0:0|2:0,0:0:0:0:
215,267,22828,2,0,P|216:230|205:205,1,51.7500009870529,0|0,0:0|2:0,0:0:0:0:
214,32,22978,6,0,P|261:57|322:55,1,103.500001974106,2|0,0:0|0:0,0:0:0:0:
409,25,23278,1,0,0:0:0:0:
433,125,23428,2,0,P|412:149|421:273,1,155.250002961159
466,354,23728,2,0,L|404:360,1,51.7500009870529,0|0,0:0|2:0,0:0:0:0:
336,291,23878,2,0,L|274:285,1,51.7500009870529,2|0,0:0|2:0,0:0:0:0:
204,352,24028,1,0,0:0:0:0:
204,352,24103,1,0,0:0:0:0:
204,352,24178,6,0,P|210:299|184:228,1,103.500001974106,6|0,0:0|0:0,0:0:0:0:
103,206,24478,1,0,0:0:0:0:
117,103,24628,2,0,P|159:122|267:85,1,155.250002961159
354,27,24928,2,0,L|347:87,1,51.7500009870529,0|0,0:0|2:0,0:0:0:0:
428,139,25078,2,0,L|428:83,1,51.7500009870529,2|0,0:0|2:0,0:0:0:0:
501,27,25228,2,0,L|508:87,1,51.7500009870529,0|0,0:0|2:0,0:0:0:0:
494,221,25378,6,0,P|444:246|384:238,1,103.500001974106,2|0,0:0|0:0,0:0:0:0:
318,176,25678,1,0,0:0:0:0:
348,78,25828,2,0,P|315:64|209:113,1,155.250002961159
108,54,26128,2,0,L|100:117,1,51.7500009870529,0|0,0:0|2:0,0:0:0:0:
174,180,26278,2,0,L|182:243,1,51.7500009870529,2|0,0:0|2:0,0:0:0:0:
108,307,26428,2,0,L|100:370,1,51.7500009870529,0|0,0:0|2:0,0:0:0:0:
221,367,26578,6,0,P|249:342|330:339,1,103.500001974106,2|0,0:0|0:0,0:0:0:0:
391,266,26878,1,0,0:0:0:0:
281,199,27028,2,0,L|439:186,1,155.250002961159
497,33,27328,2,0,L|503:95,1,51.7500009870529,0|0,0:0|2:0,0:0:0:0:
436,187,27478,2,0,L|436:127,1,51.7500009870529,2|0,0:0|2:0,0:0:0:0:
369,42,27628,2,0,L|364:93,1,51.7500009870529,0|0,0:0|2:0,0:0:0:0:
468,276,27778,6,0,L|286:288,1,180
224,348,28228,2,0,P|203:321|59:311,1,180
2,361,28678,1,0,0:0:0:0:
2,361,28828,1,0,0:0:0:0:
19,234,28978,6,0,B|46:98|46:98|69:144,1,180,6|0,0:0|0:0,0:0:0:0:
110,205,29428,2,0,P|158:210|243:103,1,180,2|0,0:0|0:0,0:0:0:0:
266,35,29878,2,0,P|314:14|364:28,1,90,2|0,0:0|0:0,0:0:0:0:
439,29,30178,6,0,L|454:216,1,180,2|0,0:0|0:0,0:0:0:0:
371,171,30628,2,0,P|337:139|198:163,1,180,2|0,0:0|0:0,0:0:0:0:
216,238,31078,2,0,P|170:228|134:190,1,90,2|0,0:0|0:0,0:0:0:0:
72,138,31378,6,0,P|50:186|126:290,1,180,2|0,0:0|0:0,0:0:0:0:
98,375,31828,2,0,P|152:347|281:384,1,180,2|0,0:0|0:0,0:0:0:0:
354,363,32278,2,0,P|373:314|367:271,1,90,2|0,0:0|0:0,0:0:0:0:
411,197,32578,6,0,P|349:202|282:114,1,180,2|0,0:0|0:0,0:0:0:0:
277,26,33028,2,0,P|231:45|180:38,1,90,2|0,0:0|0:0,0:0:0:0:
43,71,33328,1,2,0:0:0:0:
126,105,33478,2,0,L|118:205,1,90,2|2,0:0|0:0,0:0:0:0:
33,304,33778,6,0,P|86:283|154:302,1,107.999996704102,4|0,0:0|0:0,0:0:0:0:
331,363,34078,2,0,P|278:370|228:350,1,107.999996704102,2|0,0:0|0:0,0:0:0:0:
135,291,34378,1,2,0:0:0:0:
231,242,34528,1,0,0:0:0:0:
138,183,34678,1,2,0:0:0:0:
234,134,34828,1,0,0:0:0:0:
141,75,34978,6,0,P|88:69|23:90,1,107.999996704102,2|0,0:0|0:0,0:0:0:0:
234,134,35278,2,0,P|285:147|339:141,1,107.999996704102,2|0,0:0|0:0,0:0:0:0:
138,183,35578,2,0,B|132:337|132:337|173:281,1,215.999993408203,2|2,0:0|0:0,0:0:0:0:
234,134,36028,1,0,0:0:0:0:
168,287,36178,6,0,L|276:278,1,107.999996704102,2|0,0:0|0:0,0:0:0:0:
363,341,36478,2,0,L|471:350,1,107.999996704102,2|0,0:0|0:0,0:0:0:0:
448,244,36778,2,0,P|465:190|454:131,1,107.999996704102,2|0,0:0|0:0,0:0:0:0:
265,174,37078,2,0,P|258:227|274:277,1,107.999996704102,2|0,0:0|0:0,0:0:0:0:
337,111,37378,5,2,0:0:0:0:
165,171,37528,1,2,0:0:0:0:
336,221,37678,1,2,0:0:0:0:
234,88,37828,1,2,0:0:0:0:
274,278,37978,1,2,0:0:0:0:
337,111,38128,1,2,0:0:0:0:
191,255,38278,1,2,0:0:0:0:
154,53,38428,1,2,0:0:0:0:
71,188,38578,6,0,P|82:227|66:282,1,90,6|0,0:0|0:0,0:0:0:0:
228,153,38878,2,0,P|216:109|227:66,1,90,0|0,0:0|0:0,0:0:0:0:
169,259,39178,1,0,0:0:0:0:
169,259,39628,6,0,P|216:266|309:175,1,180,0|0,0:0|0:0,0:0:0:0:
396,201,40078,2,0,P|390:155|349:103,1,90,0|0,0:0|0:0,0:0:0:0:
278,101,40378,1,0,0:0:0:0:
278,101,40828,6,0,L|87:80,1,180
62,170,41278,2,0,P|83:211|73:269,1,90,0|0,0:0|0:0,0:0:0:0:
36,349,41578,2,0,P|82:331|142:345,1,90,0|0,0:0|0:0,0:0:0:0:
212,345,41878,2,0,L|208:231,1,90,0|0,0:0|0:0,0:0:0:0:
353,187,42178,6,0,P|313:206|260:199,1,90,0|0,0:0|0:0,0:0:0:0:
110,163,42478,2,0,P|154:159|194:178,1,90,0|0,0:0|0:0,0:0:0:0:
256,99,42778,1,0,0:0:0:0:
256,99,43228,5,0,0:0:0:0:
256,99,43378,2,0,L|364:88,1,90,6|0,0:0|0:0,0:0:0:0:
458,203,43678,2,0,L|350:192,1,90,0|0,0:0|0:0,0:0:0:0:
299,277,43978,1,0,0:0:0:0:
299,277,44428,5,0,0:0:0:0:
299,277,44578,2,0,P|250:252|195:257,1,90,6|0,0:0|0:0,0:0:0:0:
58,331,44878,2,0,P|102:327|141:305,1,90,0|0,0:0|0:0,0:0:0:0:
153,183,45178,1,0,0:0:0:0:
153,183,45628,5,0,0:0:0:0:
153,183,45778,2,0,L|160:82,1,90,6|0,0:0|0:0,0:0:0:0:
265,176,46078,2,0,L|272:75,1,90
377,169,46378,2,0,L|384:68,1,90,6|0,0:0|0:0,0:0:0:0:
491,160,46678,2,0,L|498:59,1,90
364,254,46978,6,0,L|371:355,1,90,6|0,0:0|0:0,0:0:0:0:
265,176,47278,2,0,L|272:75,1,90,6|0,0:0|0:0,0:0:0:0:
242,300,47578,2,0,P|195:329|65:303,1,180,6|4,0:0|0:0,0:0:0:0:
76,312,48178,6,0,L|82:210,1,90,6|2,0:0|0:0,0:0:0:0:
25,57,48478,2,0,L|31:147,1,90,2|2,0:0|0:0,0:0:0:0:
128,128,48778,2,0,P|170:138|234:124,1,90,2|2,0:0|0:0,0:0:0:0:
310,232,49078,2,0,P|265:225|222:235,1,90,2|2,0:0|0:0,0:0:0:0:
387,276,49378,6,0,P|399:233|388:189,1,90,2|2,0:0|0:0,0:0:0:0:
153,199,49678,2,0,P|143:242|156:285,1,90,2|2,0:0|0:0,0:0:0:0:
325,136,49978,1,2,0:0:0:0:
222,235,50128,1,2,0:0:0:0:
388,189,50278,1,2,0:0:0:0:
219,126,50428,1,2,0:0:0:0:
322,276,50578,6,0,L|312:376,1,90,2|2,0:0|0:0,0:0:0:0:
273,146,50878,2,0,L|263:46,1,90,2|2,0:0|0:0,0:0:0:0:
435,281,51178,2,0,L|425:381,1,90,2|2,0:0|0:0,0:0:0:0:
391,137,51478,2,0,L|381:37,1,90,2|2,0:0|0:0,0:0:0:0:
270,25,51778,6,0,P|222:43|173:35,1,90,2|2,0:0|0:0,0:0:0:0:
25,122,52078,2,0,P|69:119|110:136,1,90,2|2,0:0|0:0,0:0:0:0:
234,155,52378,1,2,0:0:0:0:
184,39,52528,1,2,0:0:0:0:
60,203,52678,1,2,0:0:0:0:
93,46,52828,1,2,0:0:0:0:
164,242,52978,6,0,L|266:232,1,90,2|2,0:0|0:0,0:0:0:0:
323,331,53278,2,0,L|221:321,1,90,2|2,0:0|0:0,0:0:0:0:
332,147,53578,2,0,P|350:186|338:247,1,90,2|2,0:0|0:0,0:0:0:0:
94,275,53878,2,0,P|89:230|107:190,1,90,2|2,0:0|0:0,0:0:0:0:
112,82,54178,6,0,P|161:88|205:65,1,90,2|2,0:0|0:0,0:0:0:0:
360,121,54478,2,0,P|318:104|274:110,1,90,2|2,0:0|0:0,0:0:0:0:
213,170,54778,1,2,0:0:0:0:
272,23,54928,1,2,0:0:0:0:
310,186,55078,1,2,0:0:0:0:
197,71,55228,1,2,0:0:0:0:
310,186,55378,6,0,P|350:171|415:184,1,90,2|2,0:0|0:0,0:0:0:0:
486,88,55678,2,0,P|441:92|399:77,1,90,2|2,0:0|0:0,0:0:0:0:
310,271,55978,2,0,P|321:214|303:176,1,90,2|2,0:0|0:0,0:0:0:0:
238,27,56278,2,0,P|225:69|237:112,1,90,2|2,0:0|0:0,0:0:0:0:
112,102,56578,6,0,B|59:76|-13:79|-13:79|23:128,1,180,2|0,0:0|0:0,0:0:0:0:
125,184,57028,2,0,P|82:229|96:353,1,180,2|0,0:0|0:0,0:0:0:0:
166,277,57478,2,0,L|270:271,1,90,2|0,0:0|0:0,0:0:0:0:
396,245,57778,5,6,0:0:0:0:
390,227,58078,1,0,0:0:0:0:
384,209,58378,1,0,0:0:0:0:
378,191,58678,1,0,0:0:0:0:
290,175,58978,5,0,0:0:0:0:
296,157,59278,1,0,0:0:0:0:
302,139,59578,1,0,0:0:0:0:
308,121,59878,1,0,0:0:0:0:
395,97,60178,5,0,0:0:0:0:
389,79,60478,1,0,0:0:0:0:
383,61,60778,1,0,0:0:0:0:
377,43,61078,1,0,0:0:0:0:
292,13,61378,5,0,0:0:0:0:
275,20,61678,1,0,0:0:0:0:
258,27,61978,1,0,0:0:0:0:
241,34,62278,1,0,0:0:0:0:
178,238,62578,5,6,0:0:0:0:
195,236,62878,1,0,0:0:0:0:
212,234,63178,1,0,0:0:0:0:
230,231,63478,2,0,L|287:224,3,45,0|0|0|0,0:0|0:0|0:0|0:0,0:0:0:0:
223,151,63778,5,6,0:0:0:0:
238,143,64078,1,0,0:0:0:0:
254,137,64378,1,0,0:0:0:0:
271,129,64678,2,0,L|324:107,3,45,0|0|0|0,0:0|0:0|0:0|0:0,0:0:0:0:
245,50,64978,5,6,0:0:0:0:
259,38,65278,2,0,L|304:3,3,45,0|0|0|0,0:0|0:0|0:0|0:0,0:0:0:0:
320,97,65578,5,6,0:0:0:0:
336,89,65878,2,0,L|389:67,3,45,0|0|0|0,0:0|0:0|0:0|0:0,0:0:0:0:
371,161,66178,5,6,0:0:0:0:
28,37,66478,1,6,0:0:0:0:
44,270,66778,1,6,0:0:0:0:
288,38,67078,1,4,0:0:0:0:
234,345,67378,6,0,P|282:327|336:343,1,90,6|0,0:0|0:0,0:0:0:0:
484,276,67678,2,0,P|439:281|398:264,1,90,2|0,0:0|0:0,0:0:0:0:
387,128,67978,1,2,0:0:0:0:
279,210,68128,1,0,0:0:0:0:
268,74,68278,1,2,0:0:0:0:
160,156,68428,1,0,0:0:0:0:
149,20,68578,6,0,P|98:38|58:33,1,90,2|0,0:0|0:0,0:0:0:0:
17,213,68878,2,0,P|61:210|102:227,1,90,2|0,0:0|0:0,0:0:0:0:
214,304,69178,1,2,0:0:0:0:
225,169,69328,1,0,0:0:0:0:
102,227,69478,1,2,0:0:0:0:
168,116,69628,1,0,0:0:0:0:
124,315,69778,6,0,P|73:315|37:288,1,90,2|0,0:0|0:0,0:0:0:0:
264,241,70078,2,0,P|308:239|345:263,1,90,2|0,0:0|0:0,0:0:0:0:
217,321,70378,1,2,0:0:0:0:
242,150,70528,1,0,0:0:0:0:
299,332,70678,1,2,0:0:0:0:
164,201,70828,1,0,0:0:0:0:
345,263,70978,6,0,P|363:220|348:166,1,90,2|0,0:0|0:0,0:0:0:0:
252,65,71278,2,0,P|234:108|249:162,1,90,2|0,0:0|0:0,0:0:0:0:
245,251,71578,1,2,0:0:0:0:
311,114,71728,1,0,0:0:0:0:
345,263,71878,1,2,0:0:0:0:
241,149,72028,1,0,0:0:0:0:
241,149,72103,1,0,0:0:0:0:
241,149,72178,6,0,L|144:144,1,90,6|0,0:0|0:0,0:0:0:0:
377,177,72478,2,0,L|474:172,1,90,2|0,0:0|0:0,0:0:0:0:
324,94,72778,1,2,0:0:0:0:
306,245,72928,1,0,0:0:0:0:
245,85,73078,1,2,0:0:0:0:
227,236,73228,1,0,0:0:0:0:
377,177,73378,6,0,L|474:182,1,90,2|0,0:0|0:0,0:0:0:0:
315,332,73678,2,0,P|302:280|311:228,1,90,2|0,0:0|0:0,0:0:0:0:
301,109,73978,1,2,0:0:0:0:
186,181,74128,1,0,0:0:0:0:
305,244,74278,1,2,0:0:0:0:
301,109,74428,1,0,0:0:0:0:
212,276,74578,6,0,P|165:278|118:251,1,90,2|0,0:0|0:0,0:0:0:0:
161,86,74878,2,0,P|208:84|255:111,1,90,2|0,0:0|0:0,0:0:0:0:
93,163,75178,1,2,0:0:0:0:
86,16,75328,1,0,0:0:0:0:
173,166,75478,1,2,0:0:0:0:
44,91,75628,1,0,0:0:0:0:
245,102,75778,5,2,0:0:0:0:
256,192,75853,12,0,77953,0:0:0:0:
