osu file format v14

[General]
AudioFilename: Renard - PIZZZZZZZZ.mp3
AudioLeadIn: 0
PreviewTime: 19078
Countdown: 0
SampleSet: Normal
StackLeniency: 0.3
Mode: 0
LetterboxInBreaks: 0
WidescreenStoryboard: 1

[Editor]
Bookmarks: 8578
DistanceSpacing: 1.4
BeatDivisor: 4
GridSize: 4
TimelineZoom: 3.299999

[Metadata]
Title:PIZZZZZZZZ
TitleUnicode:PIZZZZZZZZ
Artist:Renard
ArtistUnicode:Renard
Creator:DeRandom Otaku
Version:ByBy's Advanced
Source:
Tags:LAPFOX TRAX full techno jackass gabba breakcore nicki minaj stupid hoe Hardcore ByBy13 ByBy_ChAn SnowNiNo_
BeatmapID:1022040
BeatmapSetID:473066

[Difficulty]
HPDrainRate:5
CircleSize:3.3
OverallDifficulty:5.5
ApproachRate:6
SliderMultiplier:1.1
SliderTickRate:1

[Events]
//Background and Video events
0,0,"Alice_Madness_Returns_Pink_Castle_Drawing_1440x900.jpg",0,0
//Break Periods
2,38778,42328
2,57978,61528
//Storyboard Layer 0 (Background)
//Storyboard Layer 1 (Fail)
//Storyboard Layer 2 (Pass)
//Storyboard Layer 3 (Foreground)
//Storyboard Sound Samples

[TimingPoints]
178,300,4,1,0,100,1,0
9178,-100,4,2,0,30,0,0
9778,-100,4,1,1,80,0,0
19378,-100,4,1,1,80,0,1
27778,-100,4,1,1,80,0,0
33778,-100,4,1,1,80,0,1
38578,-100,4,1,1,80,0,0
48178,-100,4,1,1,80,0,1
56578,-100,4,1,1,80,0,0
67378,-100,4,1,1,80,0,1
75778,-100,4,1,1,80,0,0
76828,-100,4,1,1,30,0,0
76865,-100,4,2,1,5,0,0
77953,-200,4,2,1,50,0,0

[Colours]
Combo1 : 255,21,255
Combo2 : 255,128,128
Combo3 : 5,185,237
Combo4 : 175,81,67

[HitObjects]
120,54,9778,6,0,P|177:73|229:56,1,110,6|0,0:0|0:0,0:0:0:0:
283,11,10228,1,2,0:0:0:0:
340,62,10378,2,0,L|348:121,1,55,2|0,0:0|0:0,0:0:0:0:
391,179,10678,2,0,L|378:257,1,55,0|0,0:0|0:0,0:0:0:0:
338,297,10978,6,0,P|285:282|218:304,1,110,2|0,0:0|0:0,0:0:0:0:
178,348,11428,1,2,0:0:0:0:
119,298,11578,2,0,P|81:270|56:265,1,55,2|0,0:0|0:0,0:0:0:0:
16,215,11878,2,0,L|35:153,1,55,0|0,0:0|0:0,0:0:0:0:
76,99,12178,6,0,P|113:106|179:75,1,110,6|2,0:0|0:0,0:0:0:0:
230,21,12628,1,0,0:0:0:0:
278,81,12778,2,0,L|292:136,1,55,2|0,0:0|0:0,0:0:0:0:
329,201,13078,2,0,L|346:269,1,55,2|0,0:0|0:0,0:0:0:0:
418,266,13378,6,0,B|433:209|433:209|391:150,2,110,2|2|2,0:0|0:0|0:0,0:0:0:0:
378,332,14128,1,0,0:0:0:0:
301,337,14278,2,0,P|276:314|236:303,1,55,2|0,0:0|0:0,0:0:0:0:
181,289,14578,6,0,P|128:283|90:228,2,110,6|2|2,0:0|0:0|0:0,0:0:0:0:
166,212,15328,1,2,0:0:0:0:
219,157,15478,2,0,L|290:155,1,55,2|2,0:0|0:0,0:0:0:0:
339,196,15778,6,0,B|325:237|325:237|359:307,2,110,6|2|2,0:0|0:0|0:0,0:0:0:0:
378,130,16528,1,2,0:0:0:0:
323,76,16678,2,0,L|248:76,1,55,2|2,0:0|0:0,0:0:0:0:
191,77,16978,5,4,0:0:0:0:
256,192,17128,12,0,18178,0:0:0:0:
228,270,19378,6,0,B|171:286|171:286|107:267,1,110,6|2,0:0|0:0,0:0:0:0:
123,194,19828,2,0,B|173:175|173:175|229:195,1,110
297,223,20278,2,0,L|362:223,1,55,2|0,0:0|0:0,0:0:0:0:
430,226,20578,6,0,P|427:184|481:121,1,110,2|2,0:0|0:0,0:0:0:0:
439,55,21028,2,0,P|383:64|330:29,1,110
260,42,21478,2,0,P|225:70|191:76,1,55,2|0,0:0|0:0,0:0:0:0:
142,98,21778,6,0,B|126:139|126:139|148:227,1,110,2|2,0:0|0:0,0:0:0:0:
215,227,22228,2,0,B|231:291|231:291|215:332,1,110,0|0,0:0|0:0,0:0:0:0:
285,361,22678,2,0,L|309:306,1,55,2|0,0:0|0:0,0:0:0:0:
343,242,22978,6,0,P|394:224|460:257,1,110,2|2,0:0|0:0,0:0:0:0:
494,182,23428,2,0,P|460:148|462:78,1,110,0|0,0:0|0:0,0:0:0:0:
400,36,23878,2,0,P|367:47|326:38,1,55,2|0,0:0|0:0,0:0:0:0:
271,33,24178,6,0,P|207:20|153:40,2,110
294,106,24928,1,0,0:0:0:0:
242,163,25078,2,0,L|184:172,1,55
120,209,25378,6,0,P|95:259|120:319,2,110
173,264,26128,1,0,0:0:0:0:
247,243,26278,2,0,P|283:243|316:262,1,55
355,303,26578,6,0,P|412:355|460:346,2,110,2|0|2,0:0|0:0|0:0,0:0:0:0:
428,278,27328,1,0,0:0:0:0:
382,215,27478,2,0,L|374:153,1,55
431,108,27778,6,0,P|477:44|403:31,2,165,2|0|0,0:0|0:0|0:0,0:0:0:0:
336,229,28978,6,0,P|284:221|243:154,1,110,6|0,0:0|0:0,0:0:0:0:
201,118,29428,2,0,L|76:118,1,110
84,41,29878,2,0,L|152:41,1,55
216,41,30178,6,0,L|342:42,1,110,2|0,0:0|0:0,0:0:0:0:
400,62,30628,1,0,0:0:0:0:
426,136,30778,2,0,P|382:170|381:231,1,110,0|2,0:0|0:0,0:0:0:0:
377,221,31378,6,0,B|320:211|320:211|251:227,1,110,2|0,0:0|0:0,0:0:0:0:
222,284,31828,2,0,P|193:299|107:269,1,110
88,213,32278,2,0,L|84:150,1,55
121,89,32578,6,0,P|169:69|195:0,1,110,2|0,0:0|0:0,0:0:0:0:
271,27,33028,1,0,0:0:0:0:
330,76,33178,2,0,P|373:91|444:52,1,110,0|2,0:0|0:0,0:0:0:0:
430,68,33778,6,0,L|446:190,1,110,6|2,0:0|0:0,0:0:0:0:
415,249,34228,1,0,0:0:0:0:
352,293,34378,2,0,L|285:306,1,55,2|0,0:0|0:0,0:0:0:0:
221,296,34678,2,0,L|143:309,1,55,2|0,0:0|0:0,0:0:0:0:
110,252,34978,6,0,P|137:202|118:145,1,110,2|2,0:0|0:0,0:0:0:0:
64,104,35428,1,0,0:0:0:0:
93,32,35578,2,0,L|211:22,1,110,2|2,0:0|0:0,0:0:0:0:
294,145,36178,6,0,B|271:200|271:200|299:268,1,110,2|2,0:0|0:0,0:0:0:0:
326,315,36628,1,0,0:0:0:0:
397,285,36778,2,0,P|432:285|463:303,1,55,2|0,0:0|0:0,0:0:0:0:
491,228,37078,2,0,P|470:199|466:172,1,55,2|0,0:0|0:0,0:0:0:0:
433,111,37378,6,0,P|373:105|340:48,1,110,2|2,0:0|0:0,0:0:0:0:
294,8,37828,1,2,0:0:0:0:
237,60,37978,2,0,B|255:115|255:115|240:182,1,110,2|2,0:0|0:0,0:0:0:0:
177,205,38428,1,2,0:0:0:0:
226,264,38578,5,6,0:0:0:0:
91,77,43378,5,6,0:0:0:0:
91,77,44578,1,6,0:0:0:0:
91,77,45778,6,0,P|132:85|204:39,2,110,6|0|6,0:0|0:0|0:0,0:0:0:0:
26,216,46678,1,0,0:0:0:0:
133,326,46978,2,0,L|258:317,1,110,6|6,0:0|0:0,0:0:0:0:
344,202,47578,2,0,L|222:210,1,110,6|4,0:0|0:0,0:0:0:0:
104,125,48178,6,0,P|68:113|-5:155,1,110,6|2,0:0|0:0,0:0:0:0:
25,214,48628,2,0,B|45:266|45:266|26:335,1,110,2|2,0:0|0:0,0:0:0:0:
102,345,49078,2,0,L|119:279,1,55,2|2,0:0|0:0,0:0:0:0:
175,242,49378,6,0,P|220:243|270:188,1,110,2|2,0:0|0:0,0:0:0:0:
274,124,49828,2,0,P|305:102|375:107,1,110,2|2,0:0|0:0,0:0:0:0:
418,169,50278,2,0,P|401:206|401:244,1,55,2|2,0:0|0:0,0:0:0:0:
389,296,50578,6,0,B|334:282|334:282|266:310,2,110,2|2|2,0:0|0:0|0:0,0:0:0:0:
462,325,51328,1,2,0:0:0:0:
408,380,51478,2,0,L|340:361,1,55,2|2,0:0|0:0,0:0:0:0:
279,381,51778,6,0,P|210:340|205:306,2,110,2|2|2,0:0|0:0|0:0,0:0:0:0:
281,303,52528,1,2,0:0:0:0:
347,264,52678,2,0,P|380:256|414:265,1,55,2|2,0:0|0:0,0:0:0:0:
476,271,52978,6,0,P|440:242|425:175,1,110,2|2,0:0|0:0,0:0:0:0:
428,103,53428,2,0,L|301:80,1,110,2|2,0:0|0:0,0:0:0:0:
244,100,53878,2,0,P|243:144|234:164,1,55,2|2,0:0|0:0,0:0:0:0:
175,196,54178,6,0,P|229:194|281:243,1,110,2|2,0:0|0:0,0:0:0:0:
309,293,54628,2,0,B|350:295|350:295|417:268,1,110,2|2,0:0|0:0,0:0:0:0:
441,197,55078,2,0,L|428:138,1,55,2|2,0:0|0:0,0:0:0:0:
376,87,55378,6,0,P|336:98|266:72,1,110,2|2,0:0|0:0,0:0:0:0:
195,79,55828,2,0,P|144:99|91:88,1,110,2|2,0:0|0:0,0:0:0:0:
25,127,56278,2,0,P|35:161|26:196,1,55,2|2,0:0|0:0,0:0:0:0:
82,238,56578,6,0,P|133:233|194:328,2,165,2|2|2,0:0|0:0|0:0,0:0:0:0:
27,93,57778,5,6,0:0:0:0:
404,64,62578,5,6,0:0:0:0:
404,64,63778,1,6,0:0:0:0:
404,64,64978,6,0,B|374:109|401:144|401:144|445:175|445:235|408:277,2,220,6|6|6,0:0|0:0|0:0,0:0:0:0:
353,210,66478,1,6,0:0:0:0:
244,319,66778,2,0,B|190:338|190:338|128:316,1,110,6|4,0:0|0:0,0:0:0:0:
56,193,67378,6,0,P|86:137|58:82,1,110,6|2,0:0|0:0,0:0:0:0:
22,35,67828,1,0,0:0:0:0:
97,18,67978,2,0,P|130:42|162:106,1,110,2|2,0:0|0:0,0:0:0:0:
184,254,68578,6,0,L|246:240,1,55,2|0,0:0|0:0,0:0:0:0:
299,287,68878,2,0,L|355:277,1,55,2|0,0:0|0:0,0:0:0:0:
410,226,69178,2,0,P|378:190|386:121,1,110,2|2,0:0|0:0,0:0:0:0:
434,76,69628,1,0,0:0:0:0:
362,48,69778,6,0,B|309:33|309:33|255:54,1,110,2|2,0:0|0:0,0:0:0:0:
196,100,70228,1,0,0:0:0:0:
261,140,70378,2,0,P|279:177|262:253,1,110,2|2,0:0|0:0,0:0:0:0:
160,352,70978,6,0,L|91:342,1,55,2|0,0:0|0:0,0:0:0:0:
35,311,71278,2,0,P|35:275|19:243,1,55,2|0,0:0|0:0,0:0:0:0:
2,184,71578,2,0,P|33:152|109:155,1,110,2|2,0:0|0:0,0:0:0:0:
142,208,72028,1,0,0:0:0:0:
206,250,72178,6,0,L|336:236,1,110,6|2,0:0|0:0,0:0:0:0:
392,231,72628,1,0,0:0:0:0:
354,163,72778,2,0,P|321:139|321:51,1,110,2|2,0:0|0:0,0:0:0:0:
447,142,73378,6,0,L|460:207,1,55,2|0,0:0|0:0,0:0:0:0:
408,255,73678,2,0,L|420:316,1,55,2|0,0:0|0:0,0:0:0:0:
364,364,73978,2,0,P|323:340|245:351,1,110,2|2,0:0|0:0,0:0:0:0:
189,368,74428,1,0,0:0:0:0:
134,313,74578,6,0,B|115:260|115:260|139:206,1,110,2|2,0:0|0:0,0:0:0:0:
180,147,75028,1,0,0:0:0:0:
234,201,75178,2,0,P|283:206|334:152,1,110,2|2,0:0|0:0,0:0:0:0:
256,192,75778,12,0,77953,0:0:0:0:
