osu file format v12

[General]
AudioFilename: Renard - MAKE BELIEVE[mp3tx.com].mp3
AudioLeadIn: 0
PreviewTime: 128037
Countdown: 0
SampleSet: Soft
StackLeniency: 0.7
Mode: 0
LetterboxInBreaks: 0

[Editor]
Bookmarks: 18318,36608,37179,54894,55465,73179,91465,109751,110037,128037,146322,157751,182894,183465
DistanceSpacing: 0.8
BeatDivisor: 4
GridSize: 4

[Metadata]
Title:MAKE BELIEVE
TitleUnicode:MAKE BELIEVE
Artist:Renard
ArtistUnicode:Renard
Creator:Lally
Version:Hard
Source:
Tags:lapfox ztrot ROBOT BRAINSTRONAUT BLASTOFF​!​!​!
BeatmapID:234879
BeatmapSetID:85504

[Difficulty]
HPDrainRate:7
CircleSize:4
OverallDifficulty:7
ApproachRate:8
SliderMultiplier:0.999999999999999
SliderTickRate:1

[Events]
//Background and Video events
0,0,"owo.jpg",0,0
//Break Periods
2,73367,90703
2,146510,156989
//Storyboard Layer 0 (Background)
//Storyboard Layer 1 (Fail)
//Storyboard Layer 2 (Pass)
//Storyboard Layer 3 (Foreground)
Sprite,Foreground,Centre,"SB\Lally.png",90,420 F,0,18305,18608,0,1 S,0,18305,36894,0.5 F,0,36608,36894,1,0 F,0,55465,55751,0,1 S,0,55465,73465,0.5 F,0,73179,73465,1,0 F,0,110037,110322,0,1 S,0,110037,110322,0.5 F,0,127179,127465,1,0 F,0,165179,165465,0,1 S,0,165179,183179,0.5 F,0,182894,183179,1,0
Sprite,Foreground,Centre,"SB\ztrot.png",525,420 L,128037,7 S,0,0,142,0.5,0.53 S,0,142,285,0.53,0.5 S,0,285,428,0.5 S,0,428,571,0.5,0.53 S,0,571,714,0.53,0.5 S,0,714,1142,0.5 L,136037,7 S,0,0,142,0.5,0.53 S,0,142,285,0.53,0.5 S,0,285,428,0.5 S,0,428,571,0.5,0.53 S,0,571,714,0.53,0.5 S,0,714,1142,0.5 F,0,37179,37465,0,1 S,0,37179,55179,0.5 F,0,54894,55179,1,0 F,0,91465,91751,0,1 S,0,91465,109751,0.5 F,0,109465,109751,1,0 F,0,128037,128322,0,1 F,0,146037,146322,1,0 F,0,183465,183751,0,1 S,0,183465,201179,0.5 F,0,200894,201179,1,0
//Storyboard Sound Samples
//Background Colour Transformations
3,100,163,162,255

[TimingPoints]
9168,285.714285714286,4,2,1,100,1,0
18310,-100,4,2,1,60,0,0
36596,-100,4,2,1,70,0,0
54882,-100,4,2,1,80,0,0
73167,-100,4,2,1,50,0,0
91453,-100,4,2,1,60,0,0
109739,-90.9090909090909,4,2,2,70,0,0
109810,-90.9090909090909,4,2,1,70,0,0
110025,-90.9090909090909,4,2,1,70,0,0
118882,-90.9090909090909,4,2,2,70,0,0
118953,-90.9090909090909,4,2,1,70,0,0
128025,-83.3333333333333,4,2,1,80,0,1
128025,-83.3333333333333,4,2,2,80,0,1
128096,-83.3333333333333,4,2,1,80,0,1
132596,-83.3333333333333,4,2,2,80,0,1
132668,-83.3333333333333,4,2,1,80,0,1
137168,-83.3333333333333,4,2,2,80,0,1
137239,-83.3333333333333,4,2,1,80,0,1
146310,-100,4,2,1,50,0,0
157739,-100,4,2,1,5,0,0
158310,-100,4,2,1,10,0,0
158882,-100,4,2,1,15,0,0
159453,-100,4,2,1,20,0,0
160025,-100,4,2,1,25,0,0
160596,-100,4,2,1,30,0,0
161167,-100,4,2,1,35,0,0
161739,-100,4,2,1,40,0,0
162310,-100,4,2,1,45,0,0
162882,-100,4,2,1,50,0,0
163453,-100,4,2,1,55,0,0
164025,-100,4,2,1,60,0,0
164596,-100,4,2,1,65,0,0
182882,-100,4,2,1,50,0,0
183453,-100,4,2,1,60,0,0

[Colours]
Combo1 : 207,230,51
Combo2 : 54,216,228
Combo3 : 228,22,172

[HitObjects]
108,188,18310,6,0,P|108:128|144:96,1,99.9999999999999,4|0,0:0|0:0,0:0:0:0:
200,52,18882,1,8,0:0:0:0:
216,132,19167,2,0,P|216:192|204:236,1,99.9999999999999,0|2,0:0|0:0,0:0:0:0:
168,300,19739,2,0,P|128:340|84:336,2,99.9999999999999,0|8|0,0:0|0:0|0:0,0:0:0:0:
208,232,20596,1,2,0:0:0:0:
256,296,20882,5,0,1:0:0:0:
280,264,21025,1,0,0:0:0:0:
305,230,21167,2,0,P|296:192|296:132,1,99.9999999999999,0|8,1:0|0:0,0:0:0:0:
312,52,21739,2,0,P|376:28|428:36,1,99.9999999999999,2|0,0:0|0:0,0:0:0:0:
376,104,22310,2,0,P|328:132|268:124,2,99.9999999999999,8|0|0,0:0|0:0|1:0,0:0:0:0:
472,232,23453,6,0,B|412:244|412:244|356:300|356:300|284:304,1,200,8|2,0:0|0:0,0:0:0:0:
256,236,24310,1,0,0:0:0:0:
215,303,24596,2,0,B|156:300|156:300|100:244|100:244|40:232,1,200,8|0,0:0|1:0,0:0:0:0:
32,152,25453,5,2,0:0:0:0:
88,95,25739,1,8,0:0:0:0:
144,151,26025,1,2,0:0:0:0:
368,151,26596,5,2,0:0:0:0:
424,95,26882,1,8,0:0:0:0:
480,152,27168,1,2,0:0:0:0:
464,232,27453,6,0,P|444:296|396:304,1,99.9999999999999,0|0,1:0|0:0,0:0:0:0:
356,256,28025,2,0,P|312:224|300:172,1,99.9999999999999,8|0,0:0|0:0,0:0:0:0:
323,106,28596,2,0,P|367:138|380:180,1,99.9999999999999,2|0,0:0|0:0,0:0:0:0:
300,180,29168,2,0,P|256:148|244:96,1,99.9999999999999,8|0,0:0|0:0,0:0:0:0:
284,36,29739,1,0,1:0:0:0:
325,106,30025,6,0,P|385:98|421:62,2,99.9999999999999,0|8|0,0:0|0:0|0:0,0:0:0:0:
272,164,30882,1,2,0:0:0:0:
243,192,31025,1,0,0:0:0:0:
214,220,31168,1,0,0:0:0:0:
133,220,31453,1,8,0:0:0:0:
104,192,31596,1,0,0:0:0:0:
75,164,31739,1,0,0:0:0:0:
4,132,32025,6,0,P|40:92|96:88,1,99.9999999999999,0|0,1:0|0:0,0:0:0:0:
156,120,32596,2,0,P|204:144|216:208,1,99.9999999999999,8|0,0:0|0:0,0:0:0:0:
356,120,33168,2,0,P|308:144|292:196,1,99.9999999999999,4|0,0:0|0:0,0:0:0:0:
276,220,33596,1,0,1:0:0:0:
256,340,34025,1,0,1:0:0:0:
280,180,34596,5,0,1:0:0:0:
304,148,34739,1,0,0:0:0:0:
332,119,34882,2,0,P|372:77|424:73,2,99.9999999999999,0|8|2,1:0|0:0|0:0,0:0:0:0:
364,196,35739,5,0,1:0:0:0:
392,224,35882,1,0,0:0:0:0:
420,252,36025,2,0,L|496:328,2,99.9999999999999,0|8|4,1:0|0:0|0:0,0:0:0:0:
268,304,37168,5,0,0:0:0:0:
228,224,37453,1,8,0:0:0:0:
140,248,37739,2,0,P|88:216|80:124,2,150,0|0|8,0:0|0:0|0:0,0:0:0:0:
144,172,38882,2,0,P|84:196|64:288,2,150,0|0|8,0:0|0:0|0:0,0:0:0:0:
180,92,40025,2,0,P|228:128|312:100,1,150
340,80,40596,1,0,0:0:0:0:
404,168,40882,1,8,0:0:0:0:
388,208,41025,1,0,0:0:0:0:
372,244,41168,5,0,0:0:0:0:
232,360,41596,1,0,0:0:0:0:
148,252,42025,1,8,0:0:0:0:
60,228,42310,1,0,0:0:0:0:
168,80,42739,1,0,0:0:0:0:
36,96,43168,1,8,0:0:0:0:
108,152,43453,2,0,P|164:180|244:132,1,150
256,56,44168,1,2,0:0:0:0:
260,60,44310,1,8,0:0:0:0:
360,128,44596,6,0,P|396:176|356:260,1,150
300,196,45310,1,2,0:0:0:0:
296,200,45453,1,8,0:0:0:0:
276,288,45739,1,4,0:0:0:0:
108,228,46310,5,0,0:0:0:0:
60,152,46596,1,8,0:0:0:0:
148,148,46882,2,0,P|180:104|272:120,2,150,0|0|8,0:0|0:0|0:0,0:0:0:0:
224,196,48025,2,0,P|280:216|344:156,1,150
372,76,48739,1,2,0:0:0:0:
380,80,48882,1,8,0:0:0:0:
432,156,49168,2,0,P|400:204|432:288,1,150
480,224,49882,1,2,0:0:0:0:
484,220,50025,1,8,0:0:0:0:
468,72,50310,5,0,0:0:0:0:
328,156,50739,1,0,0:0:0:0:
348,244,51025,1,2,0:0:0:0:
340,244,51168,1,8,0:0:0:0:
284,316,51453,1,0,0:0:0:0:
112,316,51882,1,0,0:0:0:0:
200,184,52310,1,8,0:0:0:0:
112,120,52596,6,0,P|152:84|244:80,2,150,0|0|8,0:0|0:0|0:0,0:0:0:0:
80,204,53739,1,0,0:0:0:0:
168,284,54168,1,0,0:0:0:0:
196,312,54310,2,0,L|252:356,1,50,2|0,0:0|0:0,0:0:0:0:
275,342,54596,2,0,L|314:311,1,50,2|0,0:0|0:0,0:0:0:0:
342,283,54882,1,4,0:0:0:0:
296,140,55453,6,0,P|256:80|224:72,1,99.9999999999999,8|0,0:0|0:0,0:0:0:0:
188,76,55882,1,0,0:0:0:0:
148,92,56025,2,0,P|92:108|48:88,2,99.9999999999999,2|0|8,0:0|0:0|0:0,0:0:0:0:
192,168,56882,2,0,P|216:212|200:272,1,99.9999999999999,0|2,0:0|0:0,0:0:0:0:
140,316,57453,5,0,0:0:0:0:
60,272,57739,2,0,P|100:232|164:232,1,99.9999999999999,8|0,0:0|0:0,0:0:0:0:
220,272,58310,1,2,0:0:0:0:
212,360,58596,2,0,P|264:352|300:304,1,99.9999999999999,0|8,0:0|0:0,0:0:0:0:
352,248,59168,1,0,0:0:0:0:
383,216,59310,1,0,0:0:0:0:
414,184,59453,1,4,0:0:0:0:
304,40,60025,6,0,P|292:108|300:152,1,99.9999999999999,8|0,0:0|0:0,0:0:0:0:
208,40,60596,2,0,P|220:108|212:152,1,99.9999999999999,2|0,0:0|0:0,0:0:0:0:
200,180,61025,1,0,0:0:0:0:
176,220,61168,2,0,P|136:264|96:272,2,99.9999999999999,8|0|2,0:0|0:0|0:0,0:0:0:0:
260,248,62025,5,0,1:0:0:0:
291,279,62168,1,0,0:0:0:0:
322,310,62310,2,0,P|366:346|418:346,1,99.9999999999999,0|8,1:0|0:0,0:0:0:0:
472,288,62882,1,2,0:0:0:0:
440,204,63168,5,0,1:0:0:0:
408,172,63310,1,0,0:0:0:0:
376,140,63453,2,0,P|336:104|288:108,1,99.9999999999999,0|8,1:0|0:0,0:0:0:0:
256,188,64025,1,4,0:0:0:0:
120,304,64596,6,0,P|64:268|72:184,1,150,8|0,0:0|0:0,0:0:0:0:
88,152,65168,2,0,P|128:112|172:108,1,99.9999999999999,2|0,0:0|0:0,0:0:0:0:
208,128,65596,1,0,0:0:0:0:
248,148,65739,2,0,P|289:143|329:103,2,99.9999999999999,8|0|2,0:0|0:0|0:0,0:0:0:0:
196,224,66596,5,0,1:0:0:0:
164,255,66739,1,0,0:0:0:0:
132,286,66882,1,0,1:0:0:0:
68,349,67168,1,8,0:0:0:0:
156,376,67453,1,2,0:0:0:0:
132,286,67739,5,0,1:0:0:0:
100,255,67882,1,0,0:0:0:0:
68,224,68025,1,0,1:0:0:0:
4,160,68310,1,8,0:0:0:0:
92,140,68596,2,0,P|148:124|184:80,1,99.9999999999999,4|0,0:0|0:0,0:0:0:0:
212,176,69168,6,0,B|212:232|212:232|196:276,1,99.9999999999999,8|0,0:0|0:0,0:0:0:0:
300,176,69739,2,0,B|300:232|300:232|316:276,1,99.9999999999999,2|0,0:0|0:0,0:0:0:0:
372,340,70310,2,0,P|428:336|472:292,2,99.9999999999999,8|0|2,0:0|0:0|0:0,0:0:0:0:
284,316,71168,5,0,1:0:0:0:
252,284,71310,1,0,0:0:0:0:
220,252,71453,2,0,L|176:208,2,50,0|0|8,1:0|0:0|0:0,0:0:0:0:
292,212,72025,1,0,1:0:0:0:
320,183,72168,1,0,0:0:0:0:
348,154,72310,2,0,L|388:110,2,50,0|0|0,1:0|0:0|1:0,0:0:0:0:
308,144,72739,2,0,L|288:96,2,50,0|2|2,0:0|0:0|0:0,0:0:0:0:
256,192,73167,5,4,1:0:0:0:
84,96,91453,6,0,P|128:120|144:172,1,99.9999999999999,0|0,1:0|0:0,0:0:0:0:
64,176,92025,1,2,0:0:0:0:
112,240,92310,1,0,0:0:0:0:
192,232,92596,2,0,P|240:276|332:256,2,150,2|0|2,0:0|0:0|0:0,0:0:0:0:
372,68,94025,6,0,P|320:88|304:144,1,99.9999999999999,2|2,0:0|0:0,0:0:0:0:
320,160,94453,1,0,0:0:0:0:
344,192,94596,2,0,P|312:232|312:284,1,99.9999999999999
377,254,95167,2,0,P|325:238|269:238,1,99.9999999999999,2|0,0:0|0:0,0:0:0:0:
240,248,95596,1,0,0:0:0:0:
204,264,95739,1,2,0:0:0:0:
80,264,96025,6,0,P|120:232|124:180,1,99.9999999999999
44,188,96596,2,0,P|60:136|104:108,1,99.9999999999999,2|0,0:0|0:0,0:0:0:0:
176,124,97167,1,2,0:0:0:0:
256,264,97596,1,0,0:0:0:0:
336,124,98025,1,2,0:0:0:0:
404,336,98596,6,0,P|352:336|316:304,1,99.9999999999999,2|0,0:0|0:0,0:0:0:0:
304,268,99025,1,0,0:0:0:0:
316,228,99167,1,2,0:0:0:0:
256,172,99453,1,0,0:0:0:0:
196,228,99739,2,0,P|220:272|192:316,1,99.9999999999999,2|2,0:0|0:0,0:0:0:0:
160,328,100167,1,0,0:0:0:0:
120,328,100310,1,2,0:0:0:0:
120,248,100596,6,0,P|72:220|64:172,1,99.9999999999999
144,172,101167,2,0,P|120:112|76:96,1,99.9999999999999
176,28,101739,1,2,0:0:0:0:
256,204,102167,1,0,0:0:0:0:
336,32,102596,1,2,0:0:0:0:
440,152,103167,5,0,0:0:0:0:
408,228,103453,1,2,0:0:0:0:
388,264,103596,1,0,0:0:0:0:
368,300,103739,1,2,0:0:0:0:
260,248,104025,1,2,0:0:0:0:
280,216,104167,1,0,0:0:0:0:
300,180,104310,2,0,P|304:128|268:88,2,99.9999999999999,2|0|2,0:0|0:0|0:0,0:0:0:0:
168,172,105167,6,0,P|88:236|128:320,1,200,0|2,0:0|0:0,0:0:0:0:
172,252,106025,1,0,0:0:0:0:
256,320,106310,1,0,1:0:0:0:
360,152,106739,1,0,1:0:0:0:
156,152,107167,1,0,1:0:0:0:
256,28,107739,5,0,0:0:0:0:
180,72,108025,1,0,0:0:0:0:
144,92,108167,1,0,0:0:0:0:
112,112,108310,1,0,0:0:0:0:
256,112,108596,1,0,0:0:0:0:
256,112,108882,1,0,1:0:0:0:
332,72,109167,1,0,1:0:0:0:
368,92,109310,1,0,1:0:0:0:
400,112,109453,1,0,1:0:0:0:
356,288,109739,5,4,0:0:0:0:
188,316,110025,1,0,1:0:0:0:
156,284,110167,1,0,0:0:0:0:
128,248,110310,2,0,P|100:204|116:152,1,110.000003356934,8|0,0:0|1:0,0:0:0:0:
144,68,110882,2,0,P|92:40|32:52,2,110.000003356934,2|0|8,0:0|1:0|0:0,0:0:0:0:
208,128,111739,1,0,1:0:0:0:
268,192,112025,5,2,0:0:0:0:
298,222,112167,1,0,0:0:0:0:
329,253,112310,2,0,P|373:281|437:261,2,110.000003356934,0|8|0,1:0|0:0|1:0,0:0:0:0:
268,192,113167,2,0,P|232:136|180:128,2,110.000003356934,2|0|8,0:0|1:0|0:0,0:0:0:0:
200,248,114025,1,0,1:0:0:0:
120,292,114310,6,0,P|40:280|24:248,1,110.000003356934,2|0,0:0|1:0,0:0:0:0:
16,172,114882,1,8,0:0:0:0:
96,208,115167,2,0,P|176:220|192:252,1,110.000003356934,0|2,1:0|0:0,0:0:0:0:
256,296,115739,2,0,L|256:352,2,55.0000016784668,0|0|8,1:0|0:0|0:0,0:0:0:0:
336,256,116310,1,0,1:0:0:0:
404,200,116596,6,0,P|456:156|468:112,2,110.000003356934,2|0|8,0:0|1:0|0:0,0:0:0:0:
328,156,117453,1,0,1:0:0:0:
256,108,117739,1,2,0:0:0:0:
184,156,118025,1,0,1:0:0:0:
108,200,118310,2,0,P|56:156|44:117,1,110.000003356934,8|0,0:0|1:0,0:0:0:0:
124,80,118882,22,0,P|184:60|228:92,1,110.000003356934,4|0,0:0|1:0,0:0:0:0:
388,80,119453,2,0,P|328:60|284:92,1,110.000003356934,8|0,0:0|1:0,0:0:0:0:
220,136,120025,2,0,P|176:176|128:176,1,110.000003356934,2|0,0:0|1:0,0:0:0:0:
292,136,120596,2,0,P|336:176|384:176,1,110.000003356934,8|0,0:0|1:0,0:0:0:0:
468,208,121167,6,0,P|432:252|376:264,1,110.000003356934,4|0,0:0|1:0,0:0:0:0:
340,252,121596,1,0,0:0:0:0:
300,232,121739,1,8,0:0:0:0:
232,176,122025,1,0,1:0:0:0:
196,152,122167,1,0,0:0:0:0:
160,128,122310,2,0,P|100:104|44:120,2,110.000003356934,2|0|8,0:0|1:0|0:0,0:0:0:0:
212,296,123168,1,0,1:0:0:0:
212,296,123453,22,0,P|224:228|276:200,1,110.000003356934,4|0,0:0|1:0,0:0:0:0:
300,296,124025,2,0,P|284:228|232:198,1,110.000003356934,8|0,0:0|1:0,0:0:0:0:
172,172,124596,1,2,0:0:0:0:
165,29,124882,1,0,1:0:0:0:
87,149,125167,1,8,0:0:0:0:
220,98,125453,1,0,1:0:0:0:
83,61,125739,5,2,0:0:0:0:
148,100,126025,1,0,1:0:0:0:
148,100,126310,2,0,P|194:60|256:50,1,110.000003356934,8|0,0:0|1:0,0:0:0:0:
148,100,126882,2,0,P|212:95|269:132,1,110.000003356934,2|0,0:0|1:0,0:0:0:0:
440,332,128025,5,4,0:0:0:0:
432,328,128167,2,0,P|368:296|320:320,2,119.999996337891
432,196,129025,1,0,0:0:0:0:
424,196,129167,1,0,0:0:0:0:
364,84,129453,1,0,0:0:0:0:
360,88,129596,1,0,0:0:0:0:
224,56,129882,5,0,0:0:0:0:
216,64,130025,1,8,0:0:0:0:
208,72,130167,1,0,0:0:0:0:
200,80,130310,1,0,0:0:0:0:
192,88,130453,2,0,P|148:128|84:112,1,119.999996337891
128,60,130882,1,0,0:0:0:0:
120,56,131025,1,0,0:0:0:0:
112,52,131167,1,8,0:0:0:0:
68,224,131453,6,0,P|132:232|160:288,1,119.999996337891
92,288,131882,2,0,P|108:228|168:208,1,119.999996337891
168,204,132310,1,8,0:0:0:0:
180,200,132453,1,0,0:0:0:0:
192,196,132596,5,4,0:0:0:0:
204,192,132739,2,0,P|260:164|260:104,2,119.999996337891
192,124,133453,1,8,0:0:0:0:
160,88,133596,1,0,0:0:0:0:
112,100,133739,1,0,0:0:0:0:
52,228,134025,1,0,0:0:0:0:
64,220,134167,1,0,0:0:0:0:
112,304,134453,5,0,0:0:0:0:
128,304,134596,1,8,0:0:0:0:
144,304,134739,1,0,0:0:0:0:
160,304,134882,1,0,0:0:0:0:
176,304,135025,2,0,L|240:304,1,59.9999981689453
208,228,135310,2,0,L|144:228,1,59.9999981689453
252,160,135596,2,0,L|312:160,1,59.9999981689453,0|8,0:0|0:0,0:0:0:0:
448,144,136025,5,0,0:0:0:0:
436,240,136310,1,0,0:0:0:0:
420,284,136453,1,0,0:0:0:0:
382,312,136596,1,0,0:0:0:0:
335,315,136739,1,0,0:0:0:0:
294,291,136882,1,8,0:0:0:0:
273,249,137025,1,0,0:0:0:0:
279,202,137167,1,4,0:0:0:0:
310,166,137310,1,0,0:0:0:0:
256,88,137596,5,0,0:0:0:0:
160,96,137882,1,0,0:0:0:0:
152,96,138025,1,0,0:0:0:0:
201,166,138310,1,0,0:0:0:0:
232,202,138453,1,0,0:0:0:0:
238,249,138596,1,0,0:0:0:0:
217,291,138739,1,0,0:0:0:0:
176,315,138882,1,0,0:0:0:0:
129,312,139025,1,0,0:0:0:0:
91,284,139167,1,8,0:0:0:0:
156,232,139453,6,0,P|116:184|128:128,1,119.999996337891
140,116,139882,1,0,0:0:0:0:
208,48,140167,1,0,0:0:0:0:
220,48,140310,1,0,0:0:0:0:
232,48,140453,2,0,P|272:72|288:68,1,59.9999981689453
268,148,140739,2,0,P|240:136|200:144,1,59.9999981689453
228,208,141025,2,0,P|260:220|300:208,1,59.9999981689453
296,212,141310,1,0,0:0:0:0:
304,204,141453,1,8,0:0:0:0:
376,296,141739,5,0,0:0:0:0:
368,304,141882,2,0,P|320:340|264:328,3,119.999996337891
264,328,142882,2,0,P|212:288|156:296,1,119.999996337891,4|0,0:0|0:0,0:0:0:0:
161,293,143310,2,0,P|96:312|56:284,1,119.999996337891,0|0,1:0|0:0,0:0:0:0:
52,276,143739,1,0,1:0:0:0:
256,192,143882,12,4,146310,1:0:0:0:
256,192,157739,12,0,164596,1:0:0:0:
194,166,165167,6,0,P|174:106|134:90,2,99.9999999999999,8|0|2,0:0|0:0|0:0,0:0:0:0:
130,229,166025,1,0,0:0:0:0:
193,292,166310,1,8,0:0:0:0:
256,228,166596,1,0,0:0:0:0:
383,100,167167,5,0,1:0:0:0:
414,132,167310,1,0,0:0:0:0:
445,163,167453,2,0,L|520:236,2,99.9999999999999,0|8|2,1:0|0:0|0:0,0:0:0:0:
376,220,168310,5,0,1:0:0:0:
345,252,168453,1,0,0:0:0:0:
314,283,168596,2,0,L|239:356,2,99.9999999999999,0|8|4,1:0|0:0|0:0,0:0:0:0:
216,132,169739,6,0,P|188:88|132:72,1,99.9999999999999,8|0,0:0|0:0,0:0:0:0:
132,160,170310,2,0,P|160:204|216:220,1,99.9999999999999,2|0,0:0|0:0,0:0:0:0:
380,160,170882,2,0,P|352:204|296:220,1,99.9999999999999,8|0,0:0|0:0,0:0:0:0:
256,292,171453,1,2,0:0:0:0:
132,160,171739,5,0,1:0:0:0:
100,191,171882,1,0,0:0:0:0:
68,222,172025,1,0,1:0:0:0:
4,285,172310,1,8,0:0:0:0:
88,312,172596,1,2,0:0:0:0:
68,222,172882,5,0,1:0:0:0:
36,191,173025,1,0,0:0:0:0:
4,160,173167,2,0,L|80:96,2,99.9999999999999,0|8|4,1:0|0:0|0:0,0:0:0:0:
348,60,174310,6,0,L|424:128,1,99.9999999999999,8|0,0:0|0:0,0:0:0:0:
358,190,174882,2,0,L|282:122,2,99.9999999999999,2|0|8,0:0|0:0|0:0,0:0:0:0:
444,216,175739,1,0,0:0:0:0:
444,216,176025,1,4,0:0:0:0:
376,276,176310,5,0,1:0:0:0:
312,339,176596,1,0,1:0:0:0:
284,304,176739,1,0,0:0:0:0:
256,268,176882,1,8,0:0:0:0:
200,339,177168,1,0,1:0:0:0:
168,307,177310,1,0,0:0:0:0:
136,275,177453,1,0,1:0:0:0:
256,268,177739,5,0,1:0:0:0:
287,236,177882,1,0,0:0:0:0:
318,204,178025,2,0,L|352:168,2,50,0|0|12,1:0|0:0|0:0,0:0:0:0:
208,60,178882,6,0,P|204:116|188:160,1,99.9999999999999,8|0,0:0|0:0,0:0:0:0:
304,60,179453,2,0,P|308:116|324:160,1,99.9999999999999,2|0,0:0|0:0,0:0:0:0:
256,216,180025,2,0,L|256:324,2,99.9999999999999,8|0|4,0:0|0:0|0:0,0:0:0:0:
192,152,180882,1,0,1:0:0:0:
160,120,181025,1,0,0:0:0:0:
128,88,181168,1,0,1:0:0:0:
256,60,181453,1,8,0:0:0:0:
384,88,181739,5,0,1:0:0:0:
352,120,181882,1,0,0:0:0:0:
320,152,182025,1,0,1:0:0:0:
256,216,182310,2,0,L|256:288,2,50,8|0|2,0:0|0:0|0:0,0:0:0:0:
256,124,182882,1,4,1:0:0:0:
96,128,183453,6,0,P|72:184|100:232,1,99.9999999999999,2|0,0:0|0:0,0:0:0:0:
156,184,184025,2,0,P|160:248|96:304,2,150,2|0|2,0:0|0:0|0:0,0:0:0:0:
176,108,185168,1,0,0:0:0:0:
120,48,185453,1,2,0:0:0:0:
200,32,185739,6,0,P|232:36|260:28,2,50
252,108,186310,1,2,0:0:0:0:
252,108,186596,1,0,0:0:0:0:
320,64,186882,2,0,P|348:60|376:72,2,50
356,168,187453,1,0,1:0:0:0:
204,332,188025,5,0,0:0:0:0:
140,284,188310,1,0,0:0:0:0:
212,248,188596,1,2,0:0:0:0:
100,204,189025,1,0,0:0:0:0:
76,336,189453,1,2,0:0:0:0:
196,152,190025,6,0,P|248:136|268:96,1,99.9999999999999,0|2,0:0|0:0,0:0:0:0:
272,60,190453,1,0,0:0:0:0:
248,28,190596,1,2,0:0:0:0:
128,56,190882,2,0,P|76:88|64:132,1,99.9999999999999
44,200,191453,1,2,0:0:0:0:
68,232,191596,1,0,0:0:0:0:
92,264,191739,1,2,0:0:0:0:
152,344,192025,5,0,1:0:0:0:
304,292,192596,1,2,0:0:0:0:
364,240,192882,1,0,0:0:0:0:
380,320,193168,1,2,0:0:0:0:
236,276,193596,1,0,0:0:0:0:
368,160,194025,1,2,0:0:0:0:
256,44,194596,5,0,0:0:0:0:
188,88,194882,1,2,0:0:0:0:
160,116,195025,1,0,0:0:0:0:
132,144,195168,1,2,0:0:0:0:
212,196,195453,5,2,0:0:0:0:
240,224,195596,1,0,0:0:0:0:
268,252,195739,1,2,0:0:0:0:
168,284,196025,1,2,0:0:0:0:
140,312,196168,1,0,0:0:0:0:
108,336,196310,1,2,0:0:0:0:
232,352,196596,6,0,P|296:360|368:256,1,200,0|2,1:0|0:0,0:0:0:0:
320,196,197453,1,0,0:0:0:0:
400,180,197739,2,0,P|376:132|280:128,2,150,2|0|2,0:0|0:0|0:0,0:0:0:0:
240,184,199168,5,2,0:0:0:0:
212,108,199453,1,2,0:0:0:0:
172,120,199596,1,0,0:0:0:0:
132,132,199739,1,2,0:0:0:0:
164,216,200025,1,0,0:0:0:0:
164,216,200310,1,0,0:0:0:0:
100,268,200596,5,2,0:0:0:0:
124,300,200739,1,0,0:0:0:0:
148,332,200882,1,2,0:0:0:0:
