osu file format v12

[General]
AudioFilename: Renard - MAKE BELIEVE[mp3tx.com].mp3
AudioLeadIn: 0
PreviewTime: 128037
Countdown: 0
SampleSet: Soft
StackLeniency: 0.7
Mode: 0
LetterboxInBreaks: 0

[Editor]
DistanceSpacing: 1
BeatDivisor: 4
GridSize: 4

[Metadata]
Title:MAKE BELIEVE
TitleUnicode:MAKE BELIEVE
Artist:Renard
ArtistUnicode:Renard
Creator:Lally
Version:Easy
Source:
Tags:lapfox ztrot ROBOT BRAINSTRONAUT BLASTOFF​!​!​!
BeatmapID:234878
BeatmapSetID:85504

[Difficulty]
HPDrainRate:3
CircleSize:2
OverallDifficulty:3
ApproachRate:3
SliderMultiplier:0.6
SliderTickRate:1

[Events]
//Background and Video events
0,0,"owo.jpg",0,0
//Break Periods
2,73367,90013
2,146510,156299
//Storyboard Layer 0 (Background)
//Storyboard Layer 1 (Fail)
//Storyboard Layer 2 (Pass)
//Storyboard Layer 3 (Foreground)
//Storyboard Sound Samples
//Background Colour Transformations
3,100,163,162,255

[TimingPoints]
9168,285.714285714286,4,2,1,100,1,0
18310,-100,4,2,1,60,0,0
36596,-100,4,2,1,70,0,0
73167,-100,4,2,1,50,0,0
91453,-100,4,2,1,60,0,0
109739,-90.9090909090909,4,2,2,70,0,0
109810,-90.9090909090909,4,2,1,70,0,0
118882,-90.9090909090909,4,2,2,70,0,0
118953,-90.9090909090909,4,2,1,70,0,0
128025,-83.3333333333333,4,2,2,80,0,1
128096,-83.3333333333333,4,2,1,80,0,1
132596,-83.3333333333333,4,2,2,80,0,1
132668,-83.3333333333333,4,2,1,80,0,1
137168,-83.3333333333333,4,2,2,80,0,1
137239,-83.3333333333333,4,2,1,80,0,1
141739,-83.3333333333333,4,2,2,80,0,1
141810,-83.3333333333333,4,2,1,80,0,1
146310,-100,4,2,1,50,0,0
157739,-100,4,2,1,5,0,0
158310,-100,4,2,1,10,0,0
158882,-100,4,2,1,15,0,0
159453,-100,4,2,1,20,0,0
160025,-100,4,2,1,25,0,0
160596,-100,4,2,1,30,0,0
161167,-100,4,2,1,35,0,0
161739,-100,4,2,1,40,0,0
162310,-100,4,2,1,45,0,0
162882,-100,4,2,1,50,0,0
163453,-100,4,2,1,55,0,0
164025,-100,4,2,1,60,0,0
164596,-100,4,2,1,45,0,0
182882,-100,4,2,1,40,0,0
183453,-100,4,2,1,50,0,0
194310,-100,4,2,1,40,0,0
194453,-100,4,2,1,60,0,0
200882,-100,4,2,1,40,0,0

[Colours]
Combo1 : 207,230,51
Combo2 : 54,216,228
Combo3 : 228,22,172

[HitObjects]
192,144,18310,38,0,B|128:108|128:108|68:108,2,120,4|2|8,0:0|0:0|0:0,0:0:0:0:
256,248,20025,1,2,0:0:0:0:
320,144,20596,2,0,B|384:108|384:108|444:108,2,120,8|2|8,0:0|0:0|0:0,0:0:0:0:
256,248,22310,2,0,L|256:320,2,60,2|0|4,0:0|0:0|0:0,0:0:0:0:
208,136,23453,6,0,P|176:88|108:68,1,120,2|8,0:0|0:0,0:0:0:0:
35,101,24453,2,0,P|64:144|108:158,1,90,2|8,0:0|0:0,0:0:0:0:
192,236,25453,1,0,0:0:0:0:
176,292,25739,2,0,P|136:332|68:344,2,120,2|8|2,0:0|0:0|0:0,0:0:0:0:
256,200,27453,1,4,0:0:0:0:
352,128,28025,6,0,B|400:112|400:112|424:84|424:84|464:64,2,120,2|8|2,0:0|0:0|0:0,0:0:0:0:
256,56,29739,1,8,0:0:0:0:
160,128,30310,2,0,B|112:112|112:112|88:84|88:84|48:64,2,120,2|8|2,0:0|0:0|0:0,0:0:0:0:
256,200,32025,1,0,1:0:0:0:
316,304,32596,6,0,P|404:300|432:272,1,120,2|8,0:0|0:0,0:0:0:0:
464,200,33596,2,0,P|460:148|444:108,1,90,0|0,1:0|1:0,0:0:0:0:
340,64,34596,6,0,L|288:24,2,60,0|2|0,0:0|0:0|0:0,0:0:0:0:
244,132,35739,2,0,P|252:216|344:220,1,180,0|4,1:0|0:0,0:0:0:0:
416,316,37168,6,0,P|464:248|468:200,1,120,2|0,0:0|1:0,0:0:0:0:
420,104,38310,1,2,0:0:0:0:
308,64,38882,2,0,P|300:148|304:196,1,120,0|2,1:0|0:0,0:0:0:0:
396,256,40025,2,0,P|360:312|308:348,1,120,0|2,1:0|0:0,0:0:0:0:
256,240,41168,1,4,0:0:0:0:
193,344,41739,6,0,P|152:312|116:256,1,120,2|0,0:0|1:0,0:0:0:0:
210,183,42882,2,0,P|212:148|204:64,2,120,2|0|2,0:0|1:0|0:0,0:0:0:0:
180,300,44596,2,0,P|136:300|64:252,1,120,0|2,1:0|0:0,0:0:0:0:
16,156,45739,1,4,0:0:0:0:
108,80,46310,6,0,P|152:56|228:56,1,120,2|0,0:0|1:0,0:0:0:0:
188,168,47453,2,0,P|232:192|308:192,1,120,2|0,0:0|1:0,0:0:0:0:
416,160,48596,1,2,0:0:0:0:
324,84,49168,2,0,P|380:44|440:44,2,120,0|2|4,1:0|0:0|2:0,0:0:0:0:
256,184,50882,6,0,P|212:224|144:240,1,120,2|0,0:0|1:0,0:0:0:0:
40,272,52025,2,0,P|72:328|132:352,2,120,2|0|2,0:0|1:0|0:0,0:0:0:0:
32,152,53739,2,0,P|84:104|144:92,1,120,0|2,1:0|0:0,0:0:0:0:
228,164,54882,1,4,0:0:0:0:
304,256,55453,6,0,P|380:312|404:136,1,360,8|2,0:0|0:0,0:0:0:0:
332,56,57739,1,8,0:0:0:0:
256,148,58310,2,0,L|256:216,2,60,2|2|8,0:0|0:0|0:0,0:0:0:0:
180,56,59453,1,4,0:0:0:0:
91,136,60025,6,0,P|132:312|208:256,1,360,8|2,0:0|0:0,0:0:0:0:
284,164,62310,2,0,P|332:112|388:96,1,120,8|2,0:0|0:0,0:0:0:0:
392,216,63453,2,0,P|384:308|360:336,1,120,8|4,0:0|0:0,0:0:0:0:
256,288,64596,6,0,L|256:44,2,240,8|8|8,0:0|0:0|0:0,0:0:0:0:
143,326,67453,2,0,P|128:308|120:216,1,120,2|8,0:0|0:0,0:0:0:0:
168,108,68596,1,4,0:0:0:0:
236,204,69168,6,0,P|284:236|356:252,1,120,8|2,0:0|0:0,0:0:0:0:
392,144,70310,2,0,P|344:112|284:93,2,120,8|2|8,0:0|0:0|0:0,0:0:0:0:
496,204,72025,1,2,0:0:0:0:
428,304,72596,6,0,L|428:368,2,60,8|0|4,0:0|0:0|1:0,0:0:0:0:
160,192,91453,6,0,P|96:192|56:144,2,120,4|2|0,0:0|0:0|1:0,0:0:0:0:
256,120,93167,2,0,L|256:48,2,60,2|0|0,0:0|0:0|1:0,0:0:0:0:
352,192,94310,2,0,P|416:192|456:144,2,120,2|0|2,0:0|1:0|0:0,0:0:0:0:
256,264,96025,1,0,1:0:0:0:
168,184,96596,6,0,P|112:168|52:200,1,120,2|2,0:0|0:0,0:0:0:0:
120,260,97596,2,0,L|192:328,1,90,0|0,1:0|1:0,0:0:0:0:
296,276,98596,2,0,L|348:228,2,60,0|2|0,0:0|0:0|0:0,0:0:0:0:
204,204,99739,2,0,L|152:156,2,60,0|2|0,0:0|0:0|0:0,0:0:0:0:
256,176,100596,1,0,1:0:0:0:
336,80,101167,6,0,B|384:60|384:60|416:56|416:56|448:40,2,120,2|0|2,0:0|1:0|0:0,0:0:0:0:
292,120,102596,1,2,0:0:0:0:
256,236,103167,2,0,L|256:304,2,60,0|2|0,0:0|0:0|0:0,0:0:0:0:
228,184,104025,2,0,P|184:124|140:104,1,120,0|2,1:0|0:0,0:0:0:0:
52,188,105167,1,0,1:0:0:0:
60,308,105739,6,0,L|0:348,2,60,2|0|0,0:0|0:0|1:0,0:0:0:0:
140,264,106739,2,0,L|220:216,1,90,0|0,1:0|1:0,0:0:0:0:
320,284,107739,2,0,L|376:328,2,60,0|2|0,0:0|0:0|0:0,0:0:0:0:
308,164,108882,2,0,L|252:124,2,60,0|2|0,0:0|0:0|0:0,0:0:0:0:
368,192,109739,6,0,P|464:160|404:36,2,264.000008056641,4|8|0,0:0|0:0|1:0,0:0:0:0:
256,236,112596,1,8,0:0:0:0:
144,192,113167,6,0,P|48:160|108:36,2,264.000008056641,0|0|0,1:0|1:0|1:0,0:0:0:0:
208,92,116025,1,8,0:0:0:0:
256,200,116596,5,0,1:0:0:0:
304,92,117167,1,8,0:0:0:0:
416,136,117739,2,0,L|464:88,2,66.0000020141602,0|0|8,1:0|0:0|0:0,0:0:0:0:
436,252,118882,6,0,B|452:360|452:360|356:312|300:340,1,264.000008056641,4|0,0:0|1:0,0:0:0:0:
256,232,120596,1,8,0:0:0:0:
208,338,121167,2,0,B|156:312|60:360|60:360|76:252,2,264.000008056641,0|0|0,1:0|1:0|1:0,0:0:0:0:
256,192,124025,12,0,126882,1:0:0:0:
144,120,128025,22,0,L|84:76,2,71.9999978027344,4|8|0,0:0|0:0|1:0,0:0:0:0:
104,228,129167,2,0,B|152:292|152:292|216:316,1,143.999995605469,0|8,1:0|0:0,0:0:0:0:
212,200,130310,6,0,B|200:160|200:160|176:120,2,71.9999978027344,0|8|0,1:0|0:0|1:0,0:0:0:0:
252,308,131453,1,8,0:0:0:0:
300,200,132025,2,0,B|312:160|312:160|336:120,1,71.9999978027344,0|8,1:0|0:0,0:0:0:0:
364,88,132596,6,0,P|432:44|496:56,2,143.999995605469,4|8|0,0:0|0:0|1:0,0:0:0:0:
256,124,134310,1,8,0:0:0:0:
148,88,134882,6,0,P|80:44|16:56,2,143.999995605469,0|8|0,1:0|0:0|1:0,0:0:0:0:
124,200,136596,2,0,P|80:292|48:336,1,143.999995605469,8|4,0:0|0:0,0:0:0:0:
172,328,137739,6,0,P|196:293|240:201,1,143.999995605469,8|0,0:0|1:0,0:0:0:0:
176,104,138882,2,0,L|144:40,2,71.9999978027344,0|8|0,1:0|0:0|1:0,0:0:0:0:
242,202,140025,6,0,P|302:286|350:314,1,143.999995605469,8|0,0:0|1:0,0:0:0:0:
416,224,141167,2,0,P|382:202|322:118,1,143.999995605469,8|4,0:0|0:0,0:0:0:0:
256,192,142310,12,4,146310,0:0:0:0:
256,192,157739,12,0,164596,0:0:0:0:
48,148,165168,6,0,B|136:216|216:156|276:88|396:192,1,360,2|8,0:0|0:0,0:0:0:0:
392,304,167453,2,0,P|424:348|492:360,2,120,2|8|2,0:0|0:0|0:0,0:0:0:0:
284,256,169167,1,4,0:0:0:0:
339,149,169739,6,0,P|256:21|177:150,1,360,2|8,0:0|0:0,0:0:0:0:
116,256,172025,2,0,P|64:344|44:348,2,120,2|8|2,0:0|0:0|0:0,0:0:0:0:
24,176,173739,1,0,1:0:0:0:
140,144,174310,6,0,B|184:100|284:104|288:200|360:264|456:228|460:196,1,360,2|8,0:0|0:0,0:0:0:0:
464,80,176596,1,2,0:0:0:0:
344,80,177168,2,0,L|284:40,2,60,8|0|2,0:0|0:0|0:0,0:0:0:0:
296,192,178310,1,0,1:0:0:0:
192,128,178882,6,0,P|48:168|152:284,1,360,2|8,0:0|0:0,0:0:0:0:
256,232,181168,1,2,0:0:0:0:
328,136,181739,2,0,P|380:108|428:52,2,120,8|2|4,0:0|0:0|0:0,0:0:0:0:
208,116,183453,6,0,B|184:12|56:28|24:172|104:168|148:212|180:272,1,360,2|8,0:0|0:0,0:0:0:0:
256,348,185739,1,2,0:0:0:0:
256,228,186310,2,0,L|256:160,2,60,8|0|2,0:0|0:0|0:0,0:0:0:0:
256,348,187453,1,0,1:0:0:0:
338,260,188025,6,0,B|364:212|408:168|488:172|456:28|328:12|304:116,1,360,2|8,0:0|0:0,0:0:0:0:
256,224,190310,1,2,0:0:0:0:
172,136,190882,2,0,P|128:104|56:104,2,120,8|2|4,0:0|0:0|0:0,0:0:0:0:
88,220,192596,6,0,P|40:276|184:260,1,360,2|0,0:0|1:0,0:0:0:0:
168,144,194882,1,2,0:0:0:0:
256,64,195453,2,0,P|308:40|380:36,1,120,8|2,0:0|0:0,0:0:0:0:
464,108,196596,1,4,0:0:0:0:
424,220,197168,6,0,P|472:276|326:263,1,360,2|8,0:0|0:0,0:0:0:0:
256,168,199453,1,2,0:0:0:0:
148,224,200025,1,8,0:0:0:0:
160,104,200596,6,0,L|112:48,1,60,2|4,0:0|0:0,0:0:0:0:
