osu file format v11

[General]
AudioFilename: Love Song.mp3
AudioLeadIn: 2000
PreviewTime: 42655
Countdown: 1
SampleSet: None
StackLeniency: 0.7
Mode: 0
LetterboxInBreaks: 1

[Editor]
Bookmarks: 0,21322,42655,63988,85321,91321
DistanceSpacing: 0.9
BeatDivisor: 8
GridSize: 4

[Metadata]
Title:Love Song
TitleUnicode:Love Song
Artist:Renard
ArtistUnicode:Renard
Creator:Ayu
Version:y
Source:
Tags:Lapfox queenston Kyshiro cheesiest RLC BD Blue Dragon [Luanny] inverness
BeatmapID:212120
BeatmapSetID:74617

[Difficulty]
HPDrainRate:7
CircleSize:4
OverallDifficulty:8
ApproachRate:9
SliderMultiplier:1.8
SliderTickRate:1

[Events]
//Background and Video events
0,0,"fofa.jpg"
//Break Periods
//Storyboard Layer 0 (Background)
Sprite,Background,Centre,"SB\BG.jpg",320,240 F,0,0,333,0,1 M,1,0,85321,320,352,320,114 F,0,85321,89321,1,0
//Storyboard Layer 1 (Fail)
//Storyboard Layer 2 (Pass)
//Storyboard Layer 3 (Foreground)
Sprite,Foreground,Centre,"SB\lolcircle.png",320,240 L,0,9 C,0,0,1333,255,50,50,255,178,50 C,0,1333,2666,255,178,50,255,255,50 C,0,2666,3999,255,255,50,50,255,50 C,0,3999,5332,50,255,50,53,255,255 C,0,5332,6665,53,255,255,50,50,255 C,0,6665,7998,50,50,255,178,50,255 C,0,7998,9331,178,50,255,255,50,50 S,0,0,,0.75 F,0,0,333,0,1 M,1,0,85321,587,116,587,58 R,0,0,89321,0,40 F,0,85321,89321,1,0
Sprite,Foreground,Centre,"SB\lolcircle.png",320,240 L,0,9 C,0,0,1333,255,50,50,255,178,50 C,0,1333,2666,255,178,50,255,255,50 C,0,2666,3999,255,255,50,50,255,50 C,0,3999,5332,50,255,50,53,255,255 C,0,5332,6665,53,255,255,50,50,255 C,0,6665,7998,50,50,255,178,50,255 C,0,7998,9331,178,50,255,255,50,50 S,0,0,,1.5 F,0,0,333,0,0.25 M,1,0,85321,93,399,93,341 R,0,0,89321,0,36 F,0,85321,89321,0.25,0
Sprite,Foreground,Centre,"SB\lolcircle.png",320,240 L,0,9 C,0,0,1333,255,50,50,255,178,50 C,0,1333,2666,255,178,50,255,255,50 C,0,2666,3999,255,255,50,50,255,50 C,0,3999,5332,50,255,50,53,255,255 C,0,5332,6665,53,255,255,50,50,255 C,0,6665,7998,50,50,255,178,50,255 C,0,7998,9331,178,50,255,255,50,50 S,0,0,,0.9 F,0,0,333,0,0.45 M,1,0,85321,3,209,3,151 R,0,0,89321,0,39 F,0,85321,89321,0.45,0
Sprite,Foreground,Centre,"SB\lolcircle.png",320,240 L,0,9 C,0,0,1333,255,50,50,255,178,50 C,0,1333,2666,255,178,50,255,255,50 C,0,2666,3999,255,255,50,50,255,50 C,0,3999,5332,50,255,50,53,255,255 C,0,5332,6665,53,255,255,50,50,255 C,0,6665,7998,50,50,255,178,50,255 C,0,7998,9331,178,50,255,255,50,50 S,0,0,,0.5 F,0,0,333,0,0.6 M,1,0,85321,333,239,333,181 R,0,0,89321,0,44 F,0,85321,89321,0.6,0
Sprite,Foreground,Centre,"SB\lolcircle.png",320,240 L,0,9 C,0,0,1333,255,50,50,255,178,50 C,0,1333,2666,255,178,50,255,255,50 C,0,2666,3999,255,255,50,50,255,50 C,0,3999,5332,50,255,50,53,255,255 C,0,5332,6665,53,255,255,50,50,255 C,0,6665,7998,50,50,255,178,50,255 C,0,7998,9331,178,50,255,255,50,50 S,0,0,,0.9 F,0,0,333,0,0.8 M,1,0,85321,587,516,587,458 R,0,0,89321,0,38 F,0,85321,89321,0.8,0
Sprite,Foreground,Centre,"SB\lolve-Y.png",320,240 L,0,9 C,0,0,1333,255,50,50,255,178,50 C,0,1333,2666,255,178,50,255,255,50 C,0,2666,3999,255,255,50,50,255,50 C,0,3999,5332,50,255,50,53,255,255 C,0,5332,6665,53,255,255,50,50,255 C,0,6665,7998,50,50,255,178,50,255 C,0,7998,9331,178,50,255,255,50,50 L,0,32 S,0,0,1333,0.59,0.55 L,42655,65 S,0,0,666,0.6,0.55 F,0,0,333,0,1 M,1,0,85321,587,118,587,60 F,0,85321,89321,1,0
Sprite,Foreground,Centre,"SB\lolve-Y.png",320,240 L,0,9 C,0,0,1333,255,50,50,255,178,50 C,0,1333,2666,255,178,50,255,255,50 C,0,2666,3999,255,255,50,50,255,50 C,0,3999,5332,50,255,50,53,255,255 C,0,5332,6665,53,255,255,50,50,255 C,0,6665,7998,50,50,255,178,50,255 C,0,7998,9331,178,50,255,255,50,50 L,0,32 S,0,0,1333,1,0.95 L,42655,65 S,0,0,666,1,0.95 F,0,0,333,0,0.15 M,1,0,85321,93,399,93,341 F,0,85321,89321,0.15,0
Sprite,Foreground,Centre,"lu.png",379,448 F,0,-333,0,0,1 F,0,0,20666,1 F,0,20666,21000,1,0 F,0,21000,42321,0 F,0,42321,42655,0,1 F,0,42655,63321,1 F,0,63321,63655,1,0
Sprite,Foreground,Centre,"bd.png",370,448 F,0,21000,21333,0,1 F,0,21333,41988,1 F,0,41988,42321,1,0 F,0,42321,63655,0 F,0,63655,63988,0,1 F,0,63988,85321,1 F,0,63988,85321,1 F,0,85321,85988,1,0
//Storyboard Sound Samples
//Background Colour Transformations
3,100,163,162,255

[TimingPoints]
9.1805122368836,666.666666666667,4,3,0,69,1,0
21342,-66.6666666666667,4,3,0,69,0,0
42675,-50,4,3,0,69,0,0
86675,-50,4,3,0,5,0,0

[Colours]
Combo1 : 128,0,255
Combo2 : 255,0,0
Combo3 : 255,128,0
Combo4 : 255,255,0
Combo5 : 0,255,0
Combo6 : 3,216,239
Combo7 : 0,0,255

[HitObjects]
44,276,9,2,0,P|88:264|132:276,1,90,4|0,0:0|0:0,0:0:0
273,329,675,2,0,P|229:342|188:332,1,90,0|4,0:0|0:0,0:0:0
208,252,1342,2,0,P|248:172|232:84,1,180,4|2,0:0|2:0,0:0:0
168,136,2342,2,0,P|136:168,1,45,0|0,0:0|0:0,0:0:0
108,192,2675,6,0,P|18:192,1,90,4|0,0:0|0:0,0:0:0
168,248,3342,2,0,P|258:248,1,90,0|4,0:0|0:0,0:0:0
338,248,4009,2,0,P|320:304|292:320,1,90,4|0,0:0|0:0,0:0:0
168,136,4675,2,0,P|186:80|214:64,1,90,2|0,2:0|0:0,0:0:0
252,52,5175,1,0,0:0:0
292,64,5342,6,0,P|328:148|408:164,1,180,4|0,0:0|0:0,0:0:0
388,68,6342,2,0,P|304:180|304:180|268:196,1,180,4|0,0:0|0:0,0:0:0
196,232,7342,2,0,P|196:284|181:318,1,90,2|4,2:0|0:0,0:0:0
138,174,8009,6,0,P|138:122|154:86,1,90,4|0,0:0|0:0,0:0:0
116,256,8675,2,0,P|64:256|64:256|32:280,1,90,0|4,0:0|0:0,0:0:0
220,156,9342,2,0,P|272:156|272:156|304:132,1,90,4|0,0:0|0:0,0:0:0
316,52,10009,1,8,0:0:0
347,64,10175,1,4,0:0:0
370,88,10342,1,0,0:0:0
382,119,10509,1,2,0:0:0
381,153,10675,6,0,P|381:242,1,90,4|0,0:0|0:0,0:0:0
296,333,11342,2,0,P|296:244,1,90,0|4,0:0|0:0,0:0:0
218,152,12009,2,0,P|218:242,1,90,4|0,0:0|0:0,0:0:0
134,332,12675,2,0,P|134:241,1,90,2|0,2:0|0:0,0:0:0
128,160,13342,6,0,P|120:104|128:72,1,90,4|0,0:0|0:0,0:0:0
230,62,14009,2,0,P|278:31|310:25,1,90,0|4,0:0|0:0,0:0:0
362,114,14675,2,0,P|410:144|430:171,1,90,4|0,0:0|0:0,0:0:0
371,256,15342,2,0,P|364:312|348:341,1,90,8|0,0:0|0:0,0:0:0
328,356,15842,1,0,0:0:0
296,364,16009,6,0,P|236:364|236:364|204:352,1,90,4|0,0:0|0:0,0:0:0
157,302,16675,2,0,P|128:291|128:291|68:291,1,90,0|4,0:0|0:0,0:0:0
8,344,17342,2,0,P|72:272|76:192,1,180,4|2,0:0|2:0,0:0:0
48,116,18342,1,0,0:0:0
112,68,18675,6,0,P|96:24,1,45,4|0,0:0|0:0,0:0:0
184,52,19009,2,0,P|192:5,1,45,0|0,0:0|0:0,0:0:0
260,64,19342,2,0,P|290:28,1,45,2|0,2:0|0:0,0:0:0
324,112,19675,2,0,P|367:96,1,45,4|0,0:0|0:0,0:0:0
348,184,20009,6,0,P|436:199,1,90,4|0,0:0|0:0,0:0:0
336,276,20675,2,0,P|247:260,1,90,2|8,2:0|0:0,0:0:0
80,276,21231,1,2,0:2:0
80,276,21342,6,0,P|40:252|24:160,1,135.000005149842,4|0,0:0|0:0,0:0:0
96,36,21898,1,0,0:0:0
150,90,22009,2,0,P|210:74|282:86,1,135.000005149842,2|4,0:0|0:0,0:0:0
352,220,22564,1,0,0:0:0
340,144,22675,2,0,P|380:56,1,90.0000034332277,4|0,0:0|0:0,0:0:0
472,32,23009,2,0,P|432:120,1,90.0000034332277,0|0,0:0|0:0,0:0:0
464,184,23342,1,2,0:0:0
408,328,23564,1,0,0:0:0
480,352,23675,1,0,0:0:0
328,368,23898,1,0,0:0:0
256,344,24009,6,0,P|208:300|184:292,1,90.0000034332277,4|0,0:0|0:0,0:0:0
152,360,24342,2,0,P|60:376,1,90.0000034332277
12,320,24675,2,0,P|-4:248|0:184,1,135.000005149842,2|0,0:0|0:0,0:0:0
44,40,25231,5,0,0:0:0
76,108,25342,2,0,P|140:148|152:148,1,90.0000034332277,4|0,0:0|0:0,0:0:0
200,88,25675,2,0,P|300:84,1,90.0000034332277,2|0,2:0|0:0,0:0:0
343,30,26009,2,0,P|344:77|384:153,1,135.000005149842,0|2,0:0|0:0,0:0:0
480,32,26564,5,2,2:0:0
480,32,26675,1,4,0:0:0
452,184,26898,2,0,P|472:236,1,45.0000017166138,0|0,0:0|0:0,0:0:0
400,364,27231,2,0,P|380:312,1,45.0000017166138,0|2,0:0|0:0,0:0:0
284,208,27564,1,0,0:0:0
284,208,27675,2,0,P|236:224|212:256,1,90.0000034332277,4|0,0:0|0:0,0:0:0
208,332,28009,2,0,P|256:316|280:284,1,90.0000034332277,4|0,0:0|0:0,0:0:0
212,255,28342,2,0,P|116:275,1,90.0000034332277
280,285,28675,2,0,P|417:256,1,135.000005149842,2|0,0:0|0:0,0:0:0
284,176,29231,5,0,0:0:0
284,176,29342,2,0,P|232:176|200:156,1,90.0000034332277,4|0,0:0|0:0,0:0:0
124,144,29675,2,0,P|150:98|183:81,1,90.0000034332277
232,24,30009,2,0,P|258:69|256:106,1,90.0000034332277,2|0,0:0|0:0,0:0:0
200,156,30342,1,4,0:0:0
80,252,30564,1,0,0:0:0
80,252,30675,5,4,0:0:0
276,136,31009,1,2,2:0:0
184,344,31342,1,0,0:0:0
128,120,31675,1,2,0:0:0
300,272,32009,6,0,P|344:300|380:304,1,90.0000034332277,4|0,0:0|0:0,0:0:0
440,252,32342,1,0,0:0:0
420,100,32564,1,0,0:0:0
348,120,32675,1,2,0:0:0
144,12,33009,6,0,P|124:60|128:108,1,90.0000034332277,4|0,0:0|0:0,0:0:0
71,151,33342,2,0,P|91:199|87:247,1,90.0000034332277,4|0,0:0|0:0,0:0:0
144,290,33675,2,0,P|124:338|128:386,1,90.0000034332277
200,352,34009,1,2,0:0:0
400,236,34342,1,0,0:0:0
344,380,34564,1,0,0:0:0
316,308,34675,6,0,P|293:269|291:226,1,90.0000034332277,4|0,0:0|0:0,0:0:0
380,128,35009,2,0,P|425:127|463:147,1,90.0000034332277
504,272,35342,2,0,P|481:311|445:334,1,90.0000034332277,2|0,0:0|0:0,0:0:0
400,236,35675,1,4,0:0:0
196,76,35898,1,0,0:0:0
176,148,36009,6,0,P|199:187|201:230,1,90.0000034332277,4|0,0:0|0:0,0:0:0
112,328,36342,2,0,P|67:329|29:309,1,90.0000034332277,2|0,2:0|0:0,0:0:0
84,256,36675,2,0,P|61:217|59:174,1,90.0000034332277
148,76,37009,2,0,P|193:75|231:95,1,90.0000034332277,2|2,0:0|2:0,0:0:0
288,148,37342,5,4,0:0:0
396,40,37564,1,0,0:0:0
396,40,37675,1,0,0:0:0
432,188,37898,1,0,0:0:0
432,188,38009,1,2,0:0:0
324,296,38231,1,0,0:0:0
324,296,38341,2,0,P|304:364|288:368,1,90.0000034332277,4|0,0:0|0:0,0:0:0
217,366,38675,6,0,P|208:364|188:296,1,90.0000034332277,4|0,0:0|0:0,0:0:0
187,296,39009,1,0,0:0:0
80,188,39231,1,0,0:0:0
80,188,39342,1,2,0:0:0
116,40,39564,1,0,0:0:0
116,40,39675,1,0,0:0:0
224,148,39898,1,0,0:0:0
264,212,40009,6,0,P|312:220|352:212,1,90.0000034332277,4|0,0:0|0:0,0:0:0
421,179,40342,2,0,P|469:171|509:179,1,90.0000034332277,0|0,0:0|0:0,0:0:0
464,252,40675,2,0,P|412:336,1,90.0000034332277,2|0,0:0|0:0,0:0:0
308,140,41009,2,0,P|360:56,1,90.0000034332277,4|0,0:0|0:0,0:0:0
424,100,41342,1,4,0:0:0
348,360,41675,1,2,2:0:0
88,284,42009,1,0,0:0:0
164,24,42342,1,2,0:0:0
228,72,42564,1,2,2:0:0
228,72,42675,6,0,P|264:99|311:101,1,90,4|0,0:0|0:0,0:0:0
388,60,43009,2,0,P|396:32|412:16,2,45,0|0|0,0:0|0:0|0:0,0:0:0
388,92,43259,1,0,0:0:0
404,120,43342,1,0,0:0:0
424,144,43425,1,0,0:0:0
436,172,43509,2,0,P|456:220|452:256,1,90,4|2,0:0|0:0,0:0:0
356,352,43842,6,0,P|336:304|340:268,2,90,0|4|0,0:0|0:0|0:0,0:0:0
368,184,44342,1,0,0:0:0
336,100,44509,1,4,0:0:0
308,112,44592,1,0,0:0:0
276,112,44675,2,0,P|232:104|200:72,1,90,0|4,0:0|0:0,0:0:0
368,184,45009,2,0,P|432:195|480:243,1,135,2|0,0:0|0:0,0:0:0
500,288,45342,6,0,P|408:288,1,90,4|0,0:0|0:0,0:0:0
234,340,45675,2,0,P|324:340,1,90
324,240,46009,1,0,0:0:0
304,216,46092,1,0,0:0:0
292,188,46175,1,4,0:0:0
296,156,46259,1,0,0:0:0
304,124,46342,1,2,0:0:0
368,60,46509,2,0,P|404:92,1,45,6|0,0:0|0:0,0:0:0
368,60,46675,6,0,P|328:32|284:36,1,90,4|0,0:0|0:0,0:0:0
113,103,47009,2,0,P|153:131|193:129,1,90,0|4,0:0|0:0,0:0:0
17,199,47342,1,0,0:0:0
16,232,47425,1,0,0:0:0
24,264,47509,1,4,0:0:0
40,292,47592,2,0,P|16:336,1,45,0|2,0:0|0:0,0:0:0
64,316,47759,2,0,P|114:314,1,45,0|2,0:0|0:0,0:0:0
196,372,48009,6,0,P|152:288|168:204,1,180,4|0,0:0|0:0,0:0:0
230,143,48509,2,0,P|236:120|232:100,1,45,2|0,0:0|0:0,0:0:0
142,53,48675,2,0,P|136:76|140:96,1,45,0|0,0:0|0:0,0:0:0
136,188,48842,2,0,P|88:200|49:190,1,90,4|2,0:0|0:0,0:0:0
212,236,49175,1,4,0:0:0
232,260,49259,1,0,0:0:0
244,288,49342,1,4,0:0:0
280,372,49509,6,0,P|320:344|336:308,1,90,0|0,0:0|0:0,0:0:0
348,220,49842,2,0,P|376:228|392:244,2,45,4|0|0,0:0|0:0|0:0,0:0:0
316,224,50092,1,0,0:0:0
284,216,50175,1,4,0:0:0
264,192,50259,1,0,0:0:0
256,160,50342,2,0,P|244:92|264:28,1,135,2|0,0:0|0:0,0:0:0
300,56,50675,6,0,P|344:72|384:60,1,90,4|0,0:0|0:0,0:0:0
212,148,51009,2,0,P|168:132|128:144,1,90,0|4,0:0|0:0,0:0:0
167,225,51342,2,0,P|107:297,2,90,0|0|2,0:0|0:0|0:0,0:0:0
276,84,51842,1,2,0:0:0
348,248,52009,6,0,P|380:284|424:296,1,90,4|0,0:0|0:0,0:0:0
418,295,52259,1,0,0:0:0
418,295,52342,1,2,0:0:0
424,208,52509,1,4,0:0:0
424,208,52592,1,0,0:0:0
424,208,52675,1,0,0:0:0
372,136,52842,1,4,0:0:0
372,136,52925,1,0,0:0:0
372,136,53009,2,0,P|356:84|356:84|368:48,1,90,2|4,0:0|0:0,0:0:0
348,248,53342,6,0,P|364:300|364:300|353:334,1,90,4|0,0:0|0:0,0:0:0
272,288,53675,2,0,P|184:268|140:280,1,135,0|0,0:0|0:0,0:0:0
72,336,54009,2,0,P|120:256|104:172,1,180,0|2,0:0|0:0,0:0:0
48,104,54509,2,4,P|12:73,2,45,4|0|4,0:0|0:0|0:0,0:0:0
105,174,54842,2,0,P|133:198|187:197,1,90,0|0,0:0|0:0,0:0:0
333,106,55175,2,0,P|305:82|254:82,1,90,4|0,0:0|0:0,0:0:0
329,200,55509,1,0,0:0:0
357,214,55592,1,0,0:0:0
377,237,55675,1,6,0:0:0
393,263,55759,1,0,0:0:0
398,293,55842,1,0,0:0:0
346,367,56009,6,0,P|346:296|454:294|454:226,1,180,4|0,0:0|0:0,0:0:0
453,151,56509,2,0,P|454:90|346:88|346:17,1,180,2|4,0:0|0:0,0:0:0
448,16,57009,2,0,P|448:87|340:89|340:157,1,180,4|0,0:0|0:0,0:0:0
388,228,57509,2,0,P|423:259,2,45
299,235,57842,2,0,P|257:254|214:248,2,90,4|4|0,0:0|0:0|0:0,0:0:0
133,208,58342,1,2,0:0:0
120,236,58426,1,0,0:0:0
118,267,58509,1,2,0:0:0
132,294,58592,1,0,0:0:0
155,316,58675,5,4,0:0:0
133,208,58842,2,0,P|146:153|134:123,1,90
16,275,59175,2,0,P|3:330|15:360,2,90,4|0|4,0:0|0:0|0:0,0:0:0
82,213,59676,1,2,0:0:0
169,195,59842,1,4,0:0:0
169,195,59925,1,0,0:0:0
169,195,60009,2,0,P|250:196|250:269|331:269,1,180,4|0,0:0|0:0,0:0:0
406,224,60509,2,0,P|418:278|407:313,2,90,2|0|4,0:0|0:0|0:0,0:0:0
325,183,61009,2,0,P|313:129|324:94,1,90,0|2,0:0|0:0,0:0:0
344,74,61259,1,0,0:0:0
372,60,61342,5,4,0:0:0
324,184,61509,2,0,P|297:229|297:229|265:250,1,90
167,143,61842,2,0,P|194:98|194:98|228:75,1,90,4|0,0:0|0:0,0:0:0
184,232,62175,1,4,0:0:0
316,104,62342,2,0,B|388:72|467:163|397:293|312:248|231:288|231:288|180:212|84:210|88:62|202:22|252:90,1,720,2|2,0:0|0:0,0:0:0
400,32,64009,6,0,P|512:16,1,90,4|0,0:0|0:0,0:0:0
456,104,64342,1,2,0:0:0
480,192,64509,1,0,0:0:0
468,212,64592,1,0,0:0:0
460,232,64675,1,0,0:0:0
456,252,64759,1,0,0:0:0
452,276,64842,1,4,0:0:0
384,336,65009,2,0,P|416:372|456:376,1,90,0|2,0:0|0:0,0:0:0
376,256,65342,6,0,P|332:272|304:352,1,135,4|0,0:0|0:0,0:0:0
320,360,65675,2,0,P|272:356|228:360,1,90,2|0,0:0|0:0,0:0:0
208,364,65925,1,0,0:0:0
188,360,66009,1,0,0:0:0
168,364,66092,1,0,0:0:0
144,360,66175,1,4,0:0:0
124,364,66259,1,0,0:0:0
104,360,66342,2,0,P|56:368|8:360,1,90,2|0,0:0|0:0,0:0:0
52,280,66675,5,4,0:0:0
12,200,66842,1,0,0:0:0
104,204,67009,2,8,P|108:160|84:112,1,90,2|0,0:0|0:0,0:0:0
52,280,67342,1,0,0:0:0
52,280,67509,2,8,P|48:324|72:372,1,90,4|2,0:0|0:0,0:0:0
156,348,67842,1,0,0:0:0
220,284,68009,5,4,0:0:0
236,268,68092,1,0,0:0:0
256,256,68175,1,0,0:0:0
276,248,68259,1,0,0:0:0
296,244,68342,1,2,0:0:0
332,328,68509,1,4,0:0:0
416,300,68675,5,0,0:0:0
400,284,68759,1,0,0:0:0
388,264,68842,1,4,0:0:0
380,244,68925,1,0,0:0:0
376,224,69009,1,2,0:0:0
376,200,69092,1,0,0:0:0
380,176,69175,1,4,0:0:0
388,156,69259,1,0,0:0:0
400,136,69342,6,0,P|488:104,1,90,4|0,0:0|0:0,0:0:0
376,200,69675,2,0,P|288:232,1,90,2|0,0:0|0:0,0:0:0
176,184,70009,1,0,0:0:0
260,88,70175,1,4,0:0:0
292,232,70342,2,0,P|284:280|252:308,1,90,2|0,0:0|0:0,0:0:0
260,88,70675,2,0,P|320:56|436:68,1,180,4|2,0:0|0:0,0:0:0
292,232,71175,2,0,P|232:264|116:252,1,180,4|4,0:0|0:0,0:0:0
64,188,71675,1,2,0:0:0
64,188,71759,1,0,0:0:0
64,188,71842,1,0,0:0:0
20,108,72009,6,0,P|56:20,1,90,4|0,0:0|0:0,0:0:0
64,188,72342,1,2,0:0:0
122,257,72509,2,0,P|86:345,2,90,4|0|2,0:0|0:0|0:0,0:0:0
200,300,73009,1,4,0:0:0
220,280,73092,1,0,0:0:0
244,264,73176,1,4,0:0:0
268,256,73259,1,0,0:0:0
296,248,73342,6,0,P|344:248|344:248|384:268,1,90,2|0,0:2|0:0,0:0:0
504,180,73675,2,0,P|456:180|456:180|416:160,1,90,2|4,2:0|0:0,0:0:0
316,88,74009,2,0,P|334:125|334:125|334:173,1,90,2|4,2:0|0:0,0:0:0
488,344,74342,2,0,P|469:306|469:306|469:258,1,90,2|4,2:0|0:0,0:0:0
504,180,74675,5,4,0:0:0
464,100,74842,1,0,0:0:0
396,40,75009,2,0,P|348:28,2,45,2|0|0,0:0|0:0|0:0,0:0:0
292,128,75342,5,0,0:0:0
416,180,75509,1,4,0:0:0
396,40,75676,1,2,0:0:0
292,128,75842,1,0,0:0:0
416,180,76009,2,0,P|460:200|484:280,1,135,4|0,0:0|0:0,0:0:0
472,296,76342,2,0,P|428:304|384:288,1,90,2|0,0:0|0:0,0:0:0
328,220,76675,1,0,0:0:0
264,336,76842,1,4,0:0:0
156,256,77009,2,0,P|112:240|112:240|72:256,1,90,2|4,0:0|0:0,0:0:0
112,336,77342,6,0,P|124:232|72:160,1,180,4|2,0:0|0:0,0:0:0
12,120,77842,1,0,0:0:0
4,164,77925,1,0,0:0:0
0,208,78009,1,0,0:0:0
84,172,78175,1,4,0:0:0
12,120,78342,2,0,P|12:24,1,90,2|2,0:0|0:0,0:0:0
0,208,78675,2,0,P|8:280|96:344,1,180,12|0,0:0|0:0,0:0:0
216,244,79175,2,0,P|208:172|120:108,1,180,8|0,0:0|0:0,0:0:0
12,120,79675,1,8,0:0:0
12,120,79842,1,4,0:0:0
0,208,80009,5,4,0:0:0
80,252,80175,1,0,0:0:0
40,332,80342,2,0,P|88:348|136:340,1,90,2|0,0:0|0:0,0:0:0
204,296,80675,1,0,0:0:0
224,288,80759,1,0,0:0:0
244,284,80842,1,4,0:0:0
268,280,80925,1,0,0:0:0
292,280,81009,2,0,P|336:280|384:280,1,90,2|4,0:0|0:0,0:0:0
460,232,81342,6,0,P|436:144|360:96,1,180,4|2,0:0|0:0,0:0:0
324,176,81842,1,4,0:0:0
404,28,82009,2,0,P|360:16|312:20,1,90,0|4,0:0|0:0,0:0:0
236,168,82342,2,0,P|280:180|328:176,1,90,2|4,0:0|0:0,0:0:0
288,92,82675,1,2,2:0:0
364,256,82842,1,0,0:0:0
236,168,83009,1,2,0:0:0
312,332,83175,1,0,0:0:0
324,176,83342,2,0,P|416:176,1,90,2|8,2:0|0:0,0:0:0
312,332,83675,2,0,P|220:332,1,90,2|4,2:0|0:0,0:0:0
136,304,84009,5,4,0:0:0
120,288,84092,1,0,0:0:0
100,280,84175,1,0,0:0:0
80,276,84259,1,0,0:0:0
56,276,84342,2,0,P|84:236|88:188,1,90,2|4,2:0|0:0,0:0:0
376,80,84675,5,0,0:0:0
392,96,84759,1,0,0:0:0
412,104,84842,1,4,0:0:0
432,108,84925,1,0,0:0:0
456,108,85009,2,0,P|428:148|424:196,1,90,2|4,2:0|0:0,0:0:0
250,87,85342,6,0,B|202:22|88:62|84:210|180:212|231:288|231:288|312:248|397:293|467:163|388:72|316:104,1,720,4|2,1:0|0:0,0:0:0
