osu file format v10

[General]
AudioFilename: Renard - Intensive Care Unit (feat. FIAB).mp3
AudioLeadIn: 0
PreviewTime: 79251
Countdown: 1
SampleSet: Normal
StackLeniency: 0.7
Mode: 0
LetterboxInBreaks: 1

[Editor]
DistanceSpacing: 0.8
BeatDivisor: 4
GridSize: 8

[Metadata]
Title:Intensive Care Unit (feat. FIAB)
TitleUnicode:Intensive Care Unit (feat. FIAB)
Artist:Renard
ArtistUnicode:Renard
Creator:Neptune
Version:Emergency
Source:
Tags:Renard
BeatmapID:182097
BeatmapSetID:60997

[Difficulty]
HPDrainRate:6
CircleSize:4
OverallDifficulty:7
ApproachRate:9
SliderMultiplier:2
SliderTickRate:2

[Events]
//Background and Video events
0,0,"renard hehe.jpg"
//Break Periods
2,65058,68456
2,103439,106837
//Storyboard Layer 0 (Background)
//Storyboard Layer 1 (Fail)
//Storyboard Layer 2 (Pass)
//Storyboard Layer 3 (Foreground)
//Storyboard Sound Samples
//Background Colour Transformations
3,100,163,162,255

[TimingPoints]
2490,299.850074962519,4,1,0,50,1,0
50466,-100,4,1,0,50,0,0
69656,299.850074962519,4,1,0,50,1,1
78052,-100,4,1,0,100,0,0
79251,-100,4,2,0,50,0,1
98442,-100,4,1,0,50,0,0

[Colours]
Combo1 : 179,164,140
Combo2 : 129,87,63

[HitObjects]
112,120,2489,1,0,0:0:0
192,168,2639,1,0,0:0:0
232,192,2714,1,0,0:0:0
272,216,2789,1,0,0:0:0
400,80,2939,1,0,0:0:0
400,168,3089,2,0,B|400:272,1,100,8|0,0:0|0:0,0:0:0
160,264,3389,5,0,0:0:0
96,160,3539,1,0,0:0:0
248,48,3689,5,0,0:0:0
192,168,3839,1,0,0:0:0
232,192,3914,1,0,0:0:0
272,216,3989,1,0,0:0:0
144,48,4139,6,0,B|280:48,1,100,8|0,0:0|0:0,0:0:0
320,320,4439,2,0,B|208:320,1,100
120,288,4738,1,0,0:0:0
64,200,4888,1,0,0:0:0
120,112,5038,1,0,0:0:0
120,112,5113,1,0,0:0:0
120,112,5188,1,0,0:0:0
248,96,5338,5,0,0:0:0
328,208,5488,1,8,0:0:0
168,208,5638,1,0,0:0:0
248,304,5788,5,0,0:0:0
168,136,5938,1,0,0:0:0
328,136,6088,1,0,0:0:0
448,120,6238,6,0,B|448:224,1,100
360,288,6537,2,0,B|360:176,1,100,8|0,0:0|0:0,0:0:0
312,64,6837,2,0,B|192:64,1,100
176,64,7062,1,0,0:0:0
136,64,7137,1,0,0:0:0
96,64,7212,1,0,0:0:0
56,64,7287,1,0,0:0:0
32,144,7437,5,0,0:0:0
56,232,7587,2,0,B|48:296|64:352,1,100
152,352,7887,2,0,B|224:320|256:296,1,100,8|0,0:0|0:0,0:0:0
296,232,8187,1,0,0:0:0
256,136,8337,5,0,0:0:0
320,64,8487,1,0,0:0:0
376,136,8636,1,0,0:0:0
424,136,8711,1,0,0:0:0
464,136,8786,1,0,0:0:0
448,232,8936,6,0,B|352:296,1,100,0|8,0:0|0:0,0:0:0
304,216,9236,2,0,B|280:168|224:152,2,100
304,304,9686,1,0,0:0:0
216,304,9836,2,0,B|168:304,2,50
256,48,10136,6,0,B|256:160,1,100,0|8,0:0|0:0,0:0:0
160,144,10436,1,0,0:0:0
96,208,10585,1,0,0:0:0
360,144,10735,1,0,0:0:0
424,208,10885,1,0,0:0:0
192,272,11035,5,0,0:0:0
232,272,11110,1,0,0:0:0
272,272,11185,1,0,0:0:0
312,272,11260,1,0,0:0:0
352,272,11335,1,0,0:0:0
304,144,11485,5,8,0:0:0
216,144,11635,1,0,0:0:0
216,232,11785,1,0,0:0:0
296,232,11935,6,0,B|400:232,1,100
304,120,12235,2,0,B|192:120,1,100,4|0,0:0|0:0,0:0:0
136,176,12534,1,0,0:0:0
136,264,12684,1,0,0:0:0
400,192,12834,1,0,0:0:0
400,104,12984,1,0,0:0:0
352,32,13134,2,0,B|232:56|168:120,1,200,8|0,0:0|0:0,0:0:0
256,152,13584,5,0,0:0:0
256,200,13659,1,0,0:0:0
256,248,13734,1,0,0:0:0
360,296,13884,1,0,0:0:0
360,248,13959,1,0,0:0:0
360,200,14034,1,0,0:0:0
136,112,14184,1,0,0:0:0
136,160,14259,1,0,0:0:0
136,208,14334,1,0,0:0:0
368,80,14484,6,0,B|416:80,2,50
280,80,14783,1,0,0:0:0
200,112,14933,1,0,0:0:0
240,192,15083,1,0,0:0:0
320,160,15233,1,0,0:0:0
424,160,15383,6,0,B|464:216|480:256,1,100,0|8,0:0|0:0,0:0:0
360,256,15683,1,0,0:0:0
256,320,15833,2,0,B|296:352,2,50
120,192,16133,2,0,B|120:280,2,50
248,104,16433,1,0,0:0:0
248,104,16507,1,0,0:0:0
248,104,16582,1,0,0:0:0
248,104,16657,1,0,0:0:0
248,104,16732,1,0,0:0:0
248,104,16807,1,0,0:0:0
248,104,16882,6,0,B|328:144|360:176,1,100,8|0,0:0|0:0,0:0:0
152,192,17182,2,0,B|176:272|200:304,1,100
188,285,17482,1,0,0:0:0
280,240,17632,1,0,0:0:0
188,285,17782,1,0,0:0:0
208,160,17932,1,0,0:0:0
188,285,18082,1,0,0:0:0
96,208,18232,1,0,0:0:0
96,208,18307,1,0,0:0:0
96,208,18382,1,0,0:0:0
336,144,18531,6,0,B|384:144,2,50
336,144,18831,2,0,B|296:88|248:80,1,100,0|0,0:0|0:0,0:0:0
336,232,19131,2,0,B|336:336,1,100,8|0,0:0|0:0,0:0:0
440,336,19431,1,0,0:0:0
472,232,19581,1,0,0:0:0
472,128,19731,1,0,0:0:0
432,32,19881,1,0,0:0:0
320,48,20031,6,0,B|368:104|384:136,1,100,4|0,0:0|0:0,0:0:0
256,264,20331,2,0,B|256:200|256:144,1,100,4|0,0:0|0:0,0:0:0
184,48,20630,2,0,B|136:104|120:136,1,100,4|0,0:0|0:0,0:0:0
72,232,20930,2,0,B|120:288|136:320,1,100
256,328,21230,1,0,0:0:0
376,240,21380,1,8,0:0:0
280,120,21530,1,0,0:0:0
160,208,21680,5,0,0:0:0
80,64,21830,1,0,0:0:0
80,112,21905,1,0,0:0:0
80,160,21980,1,0,0:0:0
208,184,22130,2,0,B|264:200|280:296,1,100
288,96,22430,2,0,B|328:152|400:168,1,100
365,157,22654,1,0,0:0:0
365,157,22729,1,0,0:0:0
368,248,22879,1,0,0:0:0
272,248,23029,2,0,B|160:248,1,100,8|0,0:0|0:0,0:0:0
232,128,23329,2,0,B|336:128,2,100,0|0|0,0:0|0:0|0:0,0:0:0
136,48,23779,5,0,0:0:0
136,88,23854,1,0,0:0:0
136,128,23929,1,0,0:0:0
136,168,24004,1,0,0:0:0
136,208,24079,1,0,0:0:0
96,280,24229,6,0,B|184:352,1,100
264,344,24528,1,0,0:0:0
264,256,24678,1,8,0:0:0
48,152,24828,6,0,B|152:152,1,100
392,40,25128,2,0,B|320:136,1,100
384,344,25428,2,0,B|296:272,1,100
256,184,25728,1,0,0:0:0
256,184,25803,1,0,0:0:0
256,184,25878,1,0,0:0:0
280,96,26028,1,0,0:0:0
176,104,26178,5,0,0:0:0
136,120,26253,1,0,0:0:0
104,152,26328,1,0,0:0:0
88,192,26403,1,0,0:0:0
80,240,26478,1,0,0:0:0
176,240,26627,6,0,B|232:240,2,50
176,328,26927,1,0,0:0:0
296,288,27077,1,0,0:0:0
376,200,27227,1,8,0:0:0
256,64,27377,5,0,0:0:0
296,88,27452,1,0,0:0:0
336,112,27527,1,0,0:0:0
256,168,27677,1,0,0:0:0
336,232,27827,1,0,0:0:0
200,256,27977,1,0,0:0:0
376,88,28127,1,0,0:0:0
376,88,28202,1,0,0:0:0
376,88,28277,1,0,0:0:0
448,144,28427,5,0,0:0:0
448,192,28501,1,0,0:0:0
448,240,28576,1,0,0:0:0
448,328,28726,2,0,B|376:320|344:288,1,100,0|0,0:0|0:0,0:0:0
312,176,29026,1,0,0:0:0
272,48,29176,2,0,B|160:48,1,100
88,128,29476,1,8,0:0:0
88,240,29626,1,0,0:0:0
160,328,29776,2,0,B|264:328,1,100,0|0,0:0|0:0,0:0:0
328,272,30076,1,0,0:0:0
296,48,30226,5,0,0:0:0
264,64,30301,1,0,0:0:0
232,80,30376,1,0,0:0:0
200,96,30450,1,0,0:0:0
168,112,30525,1,0,0:0:0
136,128,30600,1,0,0:0:0
104,144,30675,1,0,0:0:0
80,160,30750,1,0,0:0:0
48,184,30825,1,0,0:0:0
32,216,30900,2,0,B|32:272,3,50
464,96,31275,6,0,B|416:48|376:40|376:40,1,100,4|0,0:0|0:0,0:0:0
464,288,31575,2,0,B|416:336|376:344|376:344,1,100
232,144,31875,2,0,B|184:192|176:232|176:232,1,100
288,88,32175,1,8,0:0:0
368,184,32325,1,0,0:0:0
288,280,32475,1,0,0:0:0
208,184,32624,1,0,0:0:0
208,112,32774,5,0,0:0:0
368,112,32924,1,0,0:0:0
368,256,33074,1,8,0:0:0
208,264,33224,1,0,0:0:0
96,280,33374,5,8,0:0:0
96,240,33449,1,0,0:0:0
96,200,33524,1,0,0:0:0
96,160,33599,1,0,0:0:0
96,120,33674,1,0,0:0:0
96,32,33824,1,0,0:0:0
184,64,33974,1,0,0:0:0
208,152,34124,1,0,0:0:0
256,240,34274,6,0,B|344:184,2,100,0|8|0,0:0|0:0|0:0,0:0:0
328,296,34723,1,0,0:0:0
392,216,34873,1,0,0:0:0
392,120,35023,1,0,0:0:0
384,32,35173,2,0,B|448:32|488:72,1,100
480,160,35473,2,0,B|480:208,2,50
464,304,35773,2,0,B|416:328,2,50
368,216,36073,2,0,B|312:216,2,50,0|0|0,0:0|0:0|0:0,0:0:0
184,184,36373,5,0,0:0:0
88,184,36522,2,0,B|88:80,1,100
128,272,36822,2,0,B|216:328,1,100,0|0,0:0|0:0,0:0:0
320,320,37122,1,0,0:0:0
432,184,37272,1,8,0:0:0
328,40,37422,1,0,0:0:0
328,40,37497,1,0,0:0:0
328,40,37572,1,0,0:0:0
160,40,37722,5,0,0:0:0
248,80,37872,2,0,B|248:128|248:192,1,100
256,264,38172,1,0,0:0:0
256,312,38247,1,0,0:0:0
256,360,38322,1,0,0:0:0
360,328,38472,6,0,B|464:328,1,100
160,328,38771,2,0,B|48:328,1,100
256,184,39071,2,8,B|256:80,1,100,0|8,0:0|0:0,0:0:0
256,84,39296,1,0,0:0:0
256,84,39371,1,0,0:0:0
352,80,39521,1,0,0:0:0
424,144,39671,6,0,B|456:200|440:272,1,100
336,288,39971,2,0,B|160:192,1,200
88,136,40421,1,0,0:0:0
256,312,40570,1,0,0:0:0
256,272,40645,1,0,0:0:0
256,232,40720,1,12,0:0:0
440,136,40870,5,0,0:0:0
328,136,41020,1,0,0:0:0
224,136,41170,1,0,0:0:0
120,136,41320,1,0,0:0:0
120,256,41470,5,0,0:0:0
232,256,41620,1,0,0:0:0
336,256,41770,1,0,0:0:0
440,256,41920,1,0,0:0:0
440,136,42070,5,0,0:0:0
440,32,42220,1,0,0:0:0
344,32,42370,2,0,B|240:32,1,100
176,104,42669,2,0,B|176:216,1,100
192,304,42969,1,0,0:0:0
192,304,43044,1,0,0:0:0
192,304,43119,2,0,B|304:304,1,100
248,56,43419,5,0,0:0:0
336,192,43569,1,0,0:0:0
176,192,43719,1,0,0:0:0
336,192,43869,1,0,0:0:0
248,312,44019,1,8,0:0:0
248,312,44094,1,0,0:0:0
248,312,44169,1,0,0:0:0
256,176,44319,1,0,0:0:0
248,56,44469,2,0,B|160:48|144:112,1,100,0|0,0:0|0:0,0:0:0
312,200,44768,2,0,B|352:160|352:96,1,100,0|0,0:0|0:0,0:0:0
280,312,45068,6,0,B|224:312,4,50
384,312,45518,1,0,0:0:0
384,208,45668,2,0,B|368:160|320:128,1,100
296,232,45968,2,0,B|280:184|232:152,1,100
216,256,46268,2,0,B|192:208|136:184,1,100
96,104,46567,5,0,0:0:0
144,192,46717,1,8,0:0:0
240,160,46867,1,0,0:0:0
304,240,47017,1,0,0:0:0
400,208,47167,1,0,0:0:0
472,280,47317,1,8,0:0:0
472,280,47392,1,0,0:0:0
472,280,47467,1,0,0:0:0
472,280,47542,1,0,0:0:0
472,280,47617,1,0,0:0:0
472,184,47767,5,8,0:0:0
472,144,47842,1,0,0:0:0
472,112,47917,1,0,0:0:0
472,72,47992,1,0,0:0:0
472,32,48067,1,0,0:0:0
296,48,48217,6,0,B|232:48|192:80,1,100
296,336,48516,2,0,B|232:336|192:304,1,100
64,128,48816,2,0,B|64:192|96:232,1,100,0|0,0:0|0:0,0:0:0
168,288,49116,1,0,0:0:0
184,80,49266,5,8,0:0:0
184,80,49341,1,0,0:0:0
184,80,49416,1,0,0:0:0
256,256,49566,1,8,0:0:0
256,256,49641,1,0,0:0:0
256,256,49716,1,0,0:0:0
440,224,49866,1,8,0:0:0
440,224,49941,1,0,0:0:0
440,224,50016,1,0,0:0:0
440,224,50091,1,0,0:0:0
440,224,50166,1,0,0:0:0
440,224,50241,1,0,0:0:0
440,224,50316,1,0,0:0:0
440,224,50391,1,0,0:0:0
440,224,50466,6,0,B|328:128|240:104,1,200,8|0,0:0|0:0,0:0:0
160,112,50915,2,0,B|160:176|160:176|56:176|56:176|56:248,1,200,8|0,0:0|0:0,0:0:0
136,320,51365,2,0,B|240:320,2,100,0|0|0,0:0|0:0|0:0,0:0:0
184,208,51815,2,0,B|224:168,2,50
304,112,52115,1,0,0:0:0
400,112,52265,1,0,0:0:0
352,32,52415,1,0,0:0:0
248,40,52564,6,0,B|168:40|128:80,1,100
88,112,52864,2,0,B|88:320,1,200,8|0,0:0|0:0,0:0:0
184,232,53314,2,0,B|184:8,1,200,8|0,0:0|0:0,0:0:0
280,120,53764,2,0,B|376:152|416:80|480:120,1,200,8|0,0:0|0:0,0:0:0
456,208,54214,6,0,B|416:312,1,100,0|0,0:0|0:0,0:0:0
320,272,54513,2,0,B|256:240|240:192,1,100,0|0,0:0|0:0,0:0:0
246,206,54738,1,0,0:0:0
246,206,54813,1,0,0:0:0
144,224,54963,1,0,0:0:0
136,184,55038,1,0,0:0:0
144,144,55113,1,0,0:0:0
176,112,55188,1,0,0:0:0
216,104,55263,2,0,B|328:104,1,100,8|0,0:0|0:0,0:0:0
456,232,55563,2,0,B|352:232,1,100
208,328,55863,2,0,B|328:328,1,100
312,240,56163,5,0,0:0:0
256,160,56313,1,0,0:0:0
192,240,56463,1,0,0:0:0
256,320,56612,1,0,0:0:0
368,320,56762,1,0,0:0:0
416,320,56837,1,0,0:0:0
464,320,56912,1,0,0:0:0
464,224,57062,1,0,0:0:0
464,176,57137,1,0,0:0:0
464,128,57212,1,0,0:0:0
344,56,57362,5,8,0:0:0
296,56,57437,1,0,0:0:0
256,56,57512,1,0,0:0:0
216,56,57587,1,0,0:0:0
176,56,57662,2,0,B|88:144|40:216,1,200,8|0,0:0|0:0,0:0:0
64,304,58112,2,0,B|264:304,1,200,8|0,0:0|0:0,0:0:0
312,224,58561,5,0,0:0:0
168,112,58711,1,0,0:0:0
344,112,58861,1,0,0:0:0
200,224,59011,1,0,0:0:0
256,40,59161,1,0,0:0:0
256,120,59311,5,0,0:0:0
256,120,59386,1,0,0:0:0
256,120,59461,1,0,0:0:0
256,120,59536,1,0,0:0:0
256,120,59611,1,0,0:0:0
256,160,59686,1,0,0:0:0
256,200,59761,1,0,0:0:0
256,240,59836,1,0,0:0:0
256,280,59911,1,0,0:0:0
256,320,59986,1,0,0:0:0
256,360,60061,1,0,0:0:0
256,192,60211,12,0,62460,0:0:0
256,192,62609,12,0,64858,0:0:0
256,280,69056,5,0,0:0:0
256,280,69206,1,0,0:0:0
256,280,69281,1,0,0:0:0
256,280,69356,1,0,0:0:0
256,184,69506,1,8,0:0:0
80,72,69656,6,0,B|288:72,1,200,0|0,0:0|0:0,0:0:0
272,160,70106,2,0,B|152:160,1,100,0|0,0:0|0:0,0:0:0
168,248,70406,2,0,B|168:352,1,100,0|0,0:0|0:0,0:0:0
272,344,70705,1,0,0:0:0
320,264,70855,1,0,0:0:0
384,336,71005,1,0,0:0:0
448,168,71155,6,0,B|448:280,1,100
352,200,71455,2,0,B|296:184|264:120,1,100
184,136,71755,2,0,B|72:152|8:224,1,200,8|0,0:0|0:0,0:0:0
120,320,72205,1,0,0:0:0
120,320,72355,1,0,0:0:0
352,320,72504,1,0,0:0:0
352,320,72654,1,0,0:0:0
352,128,72804,1,0,0:0:0
352,128,72954,1,0,0:0:0
128,56,73104,6,0,B|128:168,1,100
128,248,73404,2,0,B|184:248|224:224,1,100
280,144,73704,2,0,B|328:160|360:200,1,100
320,280,74004,2,0,B|256:280,2,50
176,320,74304,1,0,0:0:0
88,272,74454,1,0,0:0:0
160,192,74603,2,0,B|160:136,2,50,0|0|0,0:0|0:0|0:0,0:0:0
256,40,74903,6,0,B|256:144,1,100
360,144,75203,2,0,B|304:240,1,100
424,240,75503,2,0,B|424:352,2,100
424,152,75953,1,0,0:0:0
344,96,76103,1,0,0:0:0
264,152,76253,1,0,0:0:0
176,96,76403,1,0,0:0:0
96,152,76552,1,0,0:0:0
96,264,76702,6,0,B|160:256,2,50
224,328,77002,1,0,0:0:0
336,320,77152,2,0,B|408:272|424:248,1,100
456,184,77452,1,0,0:0:0
464,72,77602,2,0,B|400:72,1,50
312,56,77827,2,0,B|256:32,1,50
184,112,78052,1,0,0:0:0
256,336,78352,5,4,0:0:0
88,48,78651,1,4,0:0:0
424,56,78951,1,8,0:0:0
256,192,79251,5,0,0:0:0
352,208,79401,1,0,0:0:0
392,224,79476,1,0,0:0:0
440,216,79551,1,0,0:0:0
472,128,79701,2,0,B|400:64|280:32,1,200
208,56,80151,1,0,0:0:0
208,152,80301,1,0,0:0:0
312,256,80451,1,0,0:0:0
312,160,80600,1,0,0:0:0
192,240,80750,6,0,B|128:240|88:272,1,100
192,104,81050,2,0,B|128:104|88:72,1,100
80,184,81350,1,0,0:0:0
120,184,81425,1,0,0:0:0
160,184,81500,1,0,0:0:0
200,184,81575,1,0,0:0:0
240,184,81650,1,8,0:0:0
376,72,81800,6,0,B|376:176,1,100
448,248,82100,2,0,B|472:296|432:352,1,100
344,336,82400,2,0,B|208:336,1,100,0|0,0:0|0:0,0:0:0
256,248,82699,1,0,0:0:0
256,248,82774,1,0,0:0:0
256,248,82849,1,0,0:0:0
168,192,82999,1,0,0:0:0
256,144,83149,1,0,0:0:0
256,248,83299,1,0,0:0:0
368,240,83449,5,0,0:0:0
368,200,83524,1,0,0:0:0
368,160,83599,1,0,0:0:0
368,64,83749,1,0,0:0:0
368,64,83824,1,0,0:0:0
368,64,83899,1,0,0:0:0
368,64,83974,1,0,0:0:0
368,64,84049,1,0,0:0:0
272,48,84199,6,0,B|200:48|144:80,1,100
96,112,84498,1,0,0:0:0
96,200,84648,2,0,B|96:304,2,100,0|8|0,0:0|0:0|0:0,0:0:0
200,240,85098,1,0,0:0:0
272,304,85248,2,0,B|288:232|368:240,1,100
432,232,85548,2,0,B|440:176|392:128,1,100,0|0,0:0|0:0,0:0:0
336,80,85848,1,0,0:0:0
336,80,85923,1,0,0:0:0
336,80,85998,1,0,0:0:0
240,80,86148,5,0,0:0:0
192,80,86223,1,0,0:0:0
144,80,86298,1,0,0:0:0
104,80,86373,1,0,0:0:0
64,80,86448,1,0,0:0:0
56,176,86597,6,0,B|144:168|272:184,1,200,0|0,0:0|0:0,0:0:0
256,264,87047,1,0,0:0:0
352,216,87197,1,0,0:0:0
360,304,87347,1,0,0:0:0
272,352,87497,1,0,0:0:0
352,216,87647,6,0,B|296:216|248:192,1,100
168,144,87947,1,0,0:0:0
112,232,88097,1,0,0:0:0
144,328,88247,1,0,0:0:0
144,328,88322,1,0,0:0:0
144,328,88397,1,0,0:0:0
232,336,88546,2,0,B|280:312,3,50
276,313,88846,6,0,B|368:272,1,100,0|0,0:0|0:0,0:0:0
424,192,89146,2,0,B|424:72,2,100
320,192,89596,1,0,0:0:0
184,56,89746,1,0,0:0:0
72,200,89896,1,0,0:0:0
176,200,90046,6,0,B|176:144|248:144,1,100,8|0,0:0|0:0,0:0:0
288,224,90346,1,0,0:0:0
368,168,90495,1,0,0:0:0
368,72,90645,1,0,0:0:0
280,72,90795,2,0,B|232:40|184:32,1,100
184,72,91020,1,0,0:0:0
184,120,91095,1,0,0:0:0
184,168,91170,1,0,0:0:0
184,216,91245,1,0,0:0:0
96,224,91395,6,0,B|48:256|72:184|120:320,1,100,8|0,0:0|0:0,0:0:0
200,312,91695,2,0,B|256:312|296:272,1,100
384,248,91995,1,0,0:0:0
384,248,92070,1,0,0:0:0
384,248,92145,1,0,0:0:0
368,72,92295,6,0,B|432:152,1,100
304,136,92594,2,0,B|288:240,1,100
208,224,92894,2,0,B|144:192|96:256|16:184,1,200
16,144,93269,1,0,0:0:0
32,104,93344,1,0,0:0:0
56,64,93419,1,0,0:0:0
96,40,93494,1,0,0:0:0
192,48,93644,6,0,B|248:72|288:136,2,100
152,128,94094,2,0,B|64:312,1,200
168,320,94543,2,0,B|240:312|280:272,1,100
248,112,94843,2,0,B|296:152|312:200,1,100
344,264,95143,1,0,0:0:0
448,208,95293,1,0,0:0:0
352,144,95443,1,0,0:0:0
312,56,95593,6,0,B|240:56,4,50
176,96,96043,2,0,B|128:128|112:184,1,100
40,224,96343,1,0,0:0:0
112,288,96492,2,0,B|176:264|200:336,1,100
288,336,96792,1,0,0:0:0
392,368,96942,1,0,0:0:0
424,256,97092,1,0,0:0:0
320,224,97242,1,0,0:0:0
328,136,97392,6,0,B|296:64|208:32|120:64,1,200
144,144,97842,2,0,B|144:248,1,100
256,192,98142,1,8,0:0:0
256,240,98217,1,0,0:0:0
256,288,98292,1,0,0:0:0
256,192,98442,12,0,103239,0:0:0
256,144,107437,5,4,0:0:0
256,224,107587,1,8,0:0:0
256,272,107662,1,0,0:0:0
256,320,107737,1,0,0:0:0
256,144,107887,1,0,0:0:0
336,80,108037,6,0,B|424:112|480:224,2,200,4|0|4,0:0|0:0|0:0,0:0:0
312,192,108786,1,0,0:0:0
216,104,108936,1,0,0:0:0
192,216,109086,1,0,0:0:0
72,168,109236,6,0,B|32:216,2,50
216,264,109536,2,0,B|216:320,2,50
392,288,109836,2,0,B|440:336,2,50
256,224,110136,5,0,0:0:0
256,184,110211,1,0,0:0:0
256,144,110286,1,0,0:0:0
256,104,110361,1,0,0:0:0
256,64,110436,2,0,B|136:120|80:224,2,200
344,64,111185,1,0,0:0:0
448,136,111335,1,0,0:0:0
344,208,111485,1,0,0:0:0
344,304,111635,5,12,0:0:0
344,304,111710,1,0,0:0:0
344,304,111785,1,0,0:0:0
184,224,111935,1,12,0:0:0
184,224,112010,1,0,0:0:0
184,224,112085,1,0,0:0:0
360,96,112235,1,12,0:0:0
360,96,112309,1,0,0:0:0
360,96,112384,1,0,0:0:0
256,96,112534,2,0,B|200:96,3,50
176,96,112834,6,0,B|66:96,1,100
112,224,113134,2,0,B|224:224,1,100
336,208,113434,2,0,B|336:336,1,100
440,192,113734,2,0,B|440:80,2,100,0|8|0,0:0|0:0|0:0,0:0:0
448,264,114184,5,8,0:0:0
416,152,114334,1,8,0:0:0
344,72,114484,1,8,0:0:0
248,48,114633,1,0,0:0:0
200,136,114783,2,0,B|144:136|120:200,1,100,8|0,0:0|0:0,0:0:0
200,264,115083,1,0,0:0:0
296,256,115233,6,0,B|400:216|448:112,2,200
304,160,115983,1,0,0:0:0
368,56,116133,1,0,0:0:0
304,160,116283,1,0,0:0:0
184,32,116433,5,12,0:0:0
184,32,116507,1,0,0:0:0
184,32,116582,1,0,0:0:0
440,192,116732,5,12,0:0:0
440,192,116807,1,0,0:0:0
440,192,116882,1,0,0:0:0
160,328,117032,5,12,0:0:0
160,328,117107,1,0,0:0:0
160,328,117182,1,0,0:0:0
256,136,117332,5,0,0:0:0
256,160,117407,1,0,0:0:0
256,184,117482,1,0,0:0:0
256,208,117557,1,0,0:0:0
256,232,117632,1,12,0:0:0
