osu file format v12

[General]
AudioFilename: LapFox Trax - Nice People - 01 I Love My Internet Friends.mp3
AudioLeadIn: 0
PreviewTime: 68266
Countdown: 0
SampleSet: None
StackLeniency: 0.7
Mode: 0
LetterboxInBreaks: 0

[Editor]
Bookmarks: 13736,6577,6852
DistanceSpacing: 1.5
BeatDivisor: 4
GridSize: 4

[Metadata]
Title:I Love My Internet Friends
TitleUnicode:I Love My Internet Friends
Artist:Renard
ArtistUnicode:Renard
Creator:P o M u T a
Version:Hard
Source:
Tags:lapfox nice people Blue Dragon DoKoLP Backfire kazukisinx -kevincela- breakcore
BeatmapID:263381
BeatmapSetID:62905

[Difficulty]
HPDrainRate:5
CircleSize:4
OverallDifficulty:6
ApproachRate:8
SliderMultiplier:1
SliderTickRate:1

[Events]
//Background and Video events
0,0,"cover.jpg",0,0
//Break Periods
2,34610,37422
2,83513,90086
2,106083,112657
2,143701,149804
//Storyboard Layer 0 (Background)
//Storyboard Layer 1 (Fail)
//Storyboard Layer 2 (Pass)
//Storyboard Layer 3 (Foreground)
//Storyboard Sound Samples
//Background Colour Transformations
3,100,163,162,255

[TimingPoints]
8078,235.109717868339,4,2,0,70,1,0
34410,-100,4,1,0,10,0,0
38172,-100,4,2,0,70,0,0
68266,-100,4,2,0,70,0,1
82372,-100,4,2,0,70,0,0
90836,-100,4,2,0,50,0,0
105648,-66.6666666666667,4,2,0,50,0,0
105883,-100,4,2,0,50,0,0
120930,-100,4,2,0,70,0,0
128454,-100,4,1,0,70,0,0
150554,-100,4,2,0,70,0,0

[Colours]
Combo1 : 179,77,79
Combo2 : 206,0,0
Combo3 : 210,191,191

[HitObjects]
80,64,8078,6,0,P|116:88|172:96,1,100,0|8,0:0|0:0,0:0:0:0:
220,88,8430,2,0,P|276:92|316:112,1,100
352,144,8783,1,8,0:0:0:0:
380,240,9018,2,0,P|360:284|320:320,1,100,0|8,0:0|0:0,0:0:0:0:
272,328,9371,2,0,L|172:328,1,100
124,328,9723,1,8,0:0:0:0:
64,248,9958,6,0,P|24:176|16:108,2,150,0|0|8,0:0|0:0|0:0,0:0:0:0:
152,200,10899,2,0,P|216:160|288:140,1,150
380,100,11487,1,0,0:0:0:0:
380,100,11604,1,8,0:0:0:0:
296,48,11839,6,0,P|232:24|152:24,2,150,0|0|8,0:0|0:0|0:0,0:0:0:0:
216,108,12780,2,0,P|148:119|79:159,2,150,0|0|8,0:0|0:0|0:0,0:0:0:0:
176,200,13720,6,0,P|122:243|82:312,2,150,0|0|8,0:0|0:0|0:0,0:0:0:0:
256,260,14661,2,0,P|284:296|332:324,1,100,0|8,0:0|0:0,0:0:0:0:
380,324,15013,2,0,L|480:324,1,100
480,324,15366,1,8,0:0:0:0:
480,224,15601,6,0,L|480:72,2,150,4|0|8,0:0|0:0|0:0,0:0:0:0:
380,224,16541,2,0,L|328:224,1,50
236,192,16894,1,8,0:0:0:0:
140,160,17129,2,0,L|90:160,1,50,0|8,0:0|0:0,0:0:0:0:
24,84,17482,6,0,P|72:32|148:16,2,150,0|0|8,0:0|0:0|0:0,0:0:0:0:
90,160,18422,2,0,L|140:160,1,50
236,128,18775,1,8,0:0:0:0:
330,96,19010,2,0,L|380:96,1,50,0|8,0:0|0:0,0:0:0:0:
468,144,19363,6,0,P|468:208|416:272,2,150,0|0|8,0:0|0:0|0:0,0:0:0:0:
380,192,20303,2,0,P|412:247|398:328,2,150,0|0|8,0:0|0:0|0:0,0:0:0:0:
336,172,21126,1,0,0:0:0:0:
288,156,21244,6,0,P|244:144|188:140,1,100,4|8,0:0|0:0,0:0:0:0:
140,148,21596,2,0,P|128:192|92:232,1,100
60,264,21949,1,8,0:0:0:0:
180,280,22184,2,0,L|266:330,1,100,0|8,0:0|0:0,0:0:0:0:
292,284,22537,2,0,L|378:334,1,100
403,293,22889,1,8,0:0:0:0:
480,224,23125,6,0,L|480:72,2,150,0|0|8,0:0|0:0|0:0,0:0:0:0:
384,192,24065,2,0,L|384:40,2,150,0|0|8,0:0|0:0|0:0,0:0:0:0:
284,192,25005,6,0,L|284:344,2,150,0|0|8,0:0|0:0|0:0,0:0:0:0:
188,160,25946,2,0,L|188:108,1,50
136,108,26181,2,0,L|136:58,1,50,8|0,0:0|0:0,0:0:0:0:
84,56,26416,1,0,0:0:0:0:
36,144,26651,1,8,0:0:0:0:
120,196,26886,5,0,0:0:0:0:
256,132,27239,1,0,0:0:0:0:
392,196,27592,1,8,0:0:0:0:
392,296,27827,1,0,0:0:0:0:
256,360,28179,1,0,0:0:0:0:
120,296,28532,1,8,0:0:0:0:
120,196,28767,5,0,0:0:0:0:
256,132,29120,1,0,0:0:0:0:
392,196,29472,1,8,0:0:0:0:
392,296,29708,2,0,L|392:348,2,50,0|0|8,0:0|0:0|0:0,0:0:0:0:
392,196,30178,1,0,0:0:0:0:
256,192,30648,12,4,34410,0:0:0:0:
256,192,38172,5,8,0:0:0:0:
156,20,38642,1,8,0:0:0:0:
356,20,39112,1,8,0:0:0:0:
356,172,39465,2,0,L|356:224,1,50,0|8,0:0|0:0,0:0:0:0:
408,224,39700,2,0,L|408:276,1,50
356,364,40052,5,8,0:0:0:0:
256,192,40523,1,8,0:0:0:0:
156,20,40993,1,8,0:0:0:0:
156,172,41346,2,0,L|156:224,1,50,0|8,0:0|0:0,0:0:0:0:
104,224,41581,2,0,L|104:276,1,50,0|0,0:0|0:0,0:0:0:0:
256,192,41933,12,8,44284,0:0:0:0:
208,280,44755,6,0,P|256:292|304:280,2,100,12|4|12,0:0|0:0|0:0,0:0:0:0:
256,192,45460,1,4,0:0:0:0:
304,104,45695,6,0,P|256:92|208:104,1,100,4|8,0:0|0:0,0:0:0:0:
152,156,46048,2,0,P|116:212|48:260,1,150,0|8,0:0|0:0,0:0:0:0:
180,336,46635,2,0,P|236:296|296:336,1,150,0|8,0:0|0:0,0:0:0:0:
372,336,47106,1,0,0:0:0:0:
372,336,47223,1,0,0:0:0:0:
372,336,47341,1,8,0:0:0:0:
372,336,47458,1,0,0:0:0:0:
372,336,47576,6,0,P|408:296|408:252,1,100,0|8,0:0|0:0,0:0:0:0:
368,188,47929,2,0,L|464:72,1,150,0|8,0:0|0:0,0:0:0:0:
316,44,48516,2,0,L|216:44,1,100,0|8,0:0|0:0,0:0:0:0:
216,120,48869,2,0,L|320:120,1,100
392,120,49222,1,8,0:0:0:0:
392,120,49339,1,0,0:0:0:0:
392,120,49457,6,0,L|452:204,1,100,0|8,0:0|0:0,0:0:0:0:
432,272,49809,2,0,P|408:212|332:216,1,150,0|8,0:0|0:0,0:0:0:0:
280,272,50280,1,0,0:0:0:0:
280,272,50397,2,0,L|180:272,1,100,0|8,0:0|0:0,0:0:0:0:
104,272,50750,2,0,P|56:248|52:204,1,100
88,140,51103,1,8,0:0:0:0:
216,60,51338,6,0,P|264:64|308:40,1,100,0|8,0:0|0:0,0:0:0:0:
384,40,51690,2,0,L|384:192,1,150,0|8,0:0|0:0,0:0:0:0:
256,268,52278,2,0,L|256:168,1,100,0|8,0:0|0:0,0:0:0:0:
256,92,52631,1,0,0:0:0:0:
108,64,52866,1,0,0:0:0:0:
108,64,52983,1,8,0:0:0:0:
28,192,53219,6,0,P|12:240|56:324,2,150,4|0|8,0:0|0:0|0:0,0:0:0:0:
140,292,54159,2,0,L|192:292,1,50
340,292,54512,1,0,0:0:0:0:
340,144,54747,2,0,L|340:92,2,50,0|8|0,0:0|0:0|0:0,0:0:0:0:
396,192,55099,6,0,P|432:256|496:296,2,150,0|0|8,0:0|0:0|0:0,0:0:0:0:
340,144,55922,1,0,0:0:0:0:
340,144,56040,2,0,L|292:124,1,50
218,124,56275,2,0,L|172:144,1,50,8|0,0:0|0:0,0:0:0:0:
104,176,56510,1,0,0:0:0:0:
104,176,56628,1,0,0:0:0:0:
104,176,56745,1,8,0:0:0:0:
104,176,56863,1,0,0:0:0:0:
104,176,56980,6,0,P|100:224|68:264,1,100,0|8,0:0|0:0,0:0:0:0:
69,264,57333,2,0,L|217:293,1,150,0|8,0:0|0:0,0:0:0:0:
284,328,57803,1,0,0:0:0:0:
360,332,57921,2,0,P|392:292|436:276,1,100,0|8,0:0|0:0,0:0:0:0:
452,204,58273,2,0,L|408:112,1,100
444,48,58626,1,8,0:0:0:0:
296,40,58861,6,0,P|224:40|148:24,2,150,0|0|8,0:0|0:0|0:0,0:0:0:0:
444,48,59802,2,0,P|424:104|492:144,1,150
432,284,60389,2,0,L|380:256,1,50,0|8,0:0|0:0,0:0:0:0:
256,192,60742,5,4,0:0:0:0:
256,192,61212,1,8,0:0:0:0:
180,60,61447,2,0,L|143:23,2,50,8|0|8,0:0|0:0|0:0,0:0:0:0:
332,60,61918,2,0,L|367:24,2,50,8|0|8,0:0|0:0|0:0,0:0:0:0:
256,192,62388,1,8,0:0:0:0:
120,256,62623,6,0,L|83:292,2,50,8|0|8,0:0|0:0|0:0,0:0:0:0:
256,320,63093,2,0,L|256:372,2,50,8|0|8,0:0|0:0|0:0,0:0:0:0:
392,256,63563,2,0,L|428:292,2,50,8|0|8,0:0|0:0|0:0,0:0:0:0:
256,192,64034,1,8,0:0:0:0:
256,192,64269,1,8,0:0:0:0:
256,192,64504,12,8,65914,0:0:0:0:
256,280,66385,6,2,L|256:300,24,16.6666666666667
216,215,67443,2,0,L|179:178,2,50,0|8|0,0:0|0:0|0:0,0:0:0:0:
296,215,67795,2,0,L|332:178,2,50,0|0|8,0:0|0:0|0:0,0:0:0:0:
256,360,68266,6,0,L|308:360,2,50,6|0|8,0:0|0:0|0:0,0:0:0:0:
108,360,68736,2,0,L|52:360,2,50,2|0|8,0:0|0:0|0:0,0:0:0:0:
236,280,69206,2,0,L|288:280,2,50,2|0|8,0:0|0:0|0:0,0:0:0:0:
88,280,69676,2,0,L|32:280,2,50,2|0|8,0:0|0:0|0:0,0:0:0:0:
216,200,70146,6,0,L|268:200,2,50,2|0|8,0:0|0:0|0:0,0:0:0:0:
68,200,70617,2,0,L|8:200,2,50,2|0|8,0:0|0:0|0:0,0:0:0:0:
196,120,71087,2,0,L|252:120,2,50,2|0|8,0:0|0:0|0:0,0:0:0:0:
48,120,71557,2,0,L|-4:120,2,50,2|0|8,0:0|0:0|0:0,0:0:0:0:
172,40,72027,5,2,0:0:0:0:
172,40,72145,1,0,0:0:0:0:
172,40,72262,1,8,0:0:0:0:
172,40,72380,1,0,0:0:0:0:
172,40,72498,2,0,L|272:40,1,100,2|8,0:0|0:0,0:0:0:0:
400,120,72968,1,2,0:0:0:0:
400,120,73085,1,0,0:0:0:0:
400,120,73203,1,8,0:0:0:0:
400,120,73320,1,0,0:0:0:0:
400,120,73438,2,0,L|300:120,1,100,2|8,0:0|0:0,0:0:0:0:
172,200,73908,5,2,0:0:0:0:
172,200,74026,1,0,0:0:0:0:
172,200,74143,1,8,0:0:0:0:
172,200,74261,1,0,0:0:0:0:
172,200,74378,2,0,L|272:200,1,100,2|8,0:0|0:0,0:0:0:0:
400,280,74849,1,2,0:0:0:0:
400,280,74966,1,0,0:0:0:0:
400,280,75084,1,8,0:0:0:0:
400,280,75201,1,0,0:0:0:0:
400,280,75319,2,0,L|300:280,1,100,2|8,0:0|0:0,0:0:0:0:
152,280,75789,6,0,L|76:216,1,100,6|8,0:0|0:0,0:0:0:0:
76,64,76259,2,0,L|152:128,1,100,2|8,0:0|0:0,0:0:0:0:
256,240,76730,2,0,L|256:296,2,50,2|0|8,0:0|0:0|0:0,0:0:0:0:
256,92,77200,2,0,L|256:36,2,50,2|0|8,0:0|0:0|0:0,0:0:0:0:
360,128,77670,6,0,L|436:64,1,100,2|8,0:0|0:0,0:0:0:0:
436,216,78140,2,0,L|360:280,1,100,2|8,0:0|0:0,0:0:0:0:
256,240,78610,2,0,L|256:290,2,50,2|0|8,0:0|0:0|0:0,0:0:0:0:
256,92,79081,2,0,L|256:42,2,50,2|0|8,0:0|0:0|0:0,0:0:0:0:
256,192,79551,12,2,81902,0:0:0:0:
256,264,82372,6,0,L|256:364,2,100,0|8|0,0:0|0:0|0:0,0:0:0:0:
256,120,83313,1,4,0:0:0:0:
336,276,90836,6,0,P|400:316|472:328,2,150,4|0|0,0:0|0:0|0:0,0:0:0:0:
256,212,91777,2,0,L|256:160,2,50,2|0|2,0:0|0:0|0:0,0:0:0:0:
220,248,92129,1,0,0:0:0:0:
84,312,92482,2,0,L|60:268,1,50,2|0,0:0|0:0,0:0:0:0:
40,224,92717,6,0,L|0:188,2,50,2|0|0,0:0|0:0|0:0,0:0:0:0:
92,224,93070,2,0,L|132:188,1,50,0|2,0:0|0:0,0:0:0:0:
256,72,93422,2,0,L|256:16,2,50,0|0|2,0:0|0:0|0:0,0:0:0:0:
256,172,93893,1,2,0:0:0:0:
256,172,94010,2,0,P|304:288|380:240,1,250,0|2,0:0|0:0,0:0:0:0:
388,89,94951,6,0,L|311:220,1,150,0|0,0:0|0:0,0:0:0:0:
256,300,95538,1,2,0:0:0:0:
216,332,95656,1,0,0:0:0:0:
168,340,95773,1,0,0:0:0:0:
124,316,95891,1,2,0:0:0:0:
64,236,96126,2,0,L|28:192,2,50,0|0|0,0:0|0:0|0:0,0:0:0:0:
100,200,96479,5,2,0:0:0:0:
184,148,96714,2,0,P|235:158|276:188,1,100,0|2,0:0|0:0,0:0:0:0:
356,244,97184,1,0,0:0:0:0:
356,244,97419,2,0,P|400:216|424:172,1,100,2|0,0:0|0:0,0:0:0:0:
432,124,97772,2,0,L|352:60,1,100
312,36,98125,2,0,L|260:36,2,50,0|0|2,0:0|0:0|0:0,0:0:0:0:
412,36,98595,6,0,L|480:36,2,50,0|0|2,0:0|0:0|0:0,0:0:0:0:
312,36,99065,1,0,0:0:0:0:
312,36,99535,2,0,B|276:40|248:24|248:24|220:52,2,100,0|2|0,0:0|0:0|0:0,0:0:0:0:
372,116,100241,2,0,B|420:176|420:176|388:208|388:292,1,200,2|2,0:0|0:0,0:0:0:0:
124,292,101181,2,0,B|124:208|92:176|92:176|140:116,1,200,2|2,0:0|0:0,0:0:0:0:
336,88,102121,6,0,L|420:152,1,100,2|0,0:0|0:0,0:0:0:0:
404,248,102592,2,0,L|320:184,1,100,2|0,0:0|0:0,0:0:0:0:
240,132,103062,2,0,P|248:180|216:216,2,100,2|0|2,0:0|0:0|0:0,0:0:0:0:
40,36,104002,6,0,P|108:64|176:36,1,150,2|0,0:0|0:0,0:0:0:0:
224,36,104472,2,0,L|324:36,1,100,2|0,0:0|0:0,0:0:0:0:
424,36,104943,1,2,0:0:0:0:
424,136,105178,1,0,0:0:0:0:
424,236,105413,1,2,0:0:0:0:
424,336,105648,2,2,L|424:364,6,25.0000009536744,2|2|2|2|2|2|6,0:0|0:0|0:0|0:0|0:0|0:0|0:0,0:0:0:0:
188,24,113407,6,0,P|228:44|216:92,1,100,2|0,0:0|0:0,0:0:0:0:
136,148,113877,2,0,P|125:194|165:214,1,100,2|0,0:0|0:0,0:0:0:0:
256,252,114347,2,0,L|180:320,2,100,2|0|2,0:0|0:0|0:0,0:0:0:0:
328,184,115052,1,0,0:0:0:0:
400,116,115288,2,0,L|476:48,2,100,2|0|2,0:0|0:0|0:0,0:0:0:0:
328,184,115993,1,0,0:0:0:0:
256,252,116228,2,0,P|164:312|80:296,1,200,2|2,0:0|0:0,0:0:0:0:
80,96,117168,6,0,P|172:36|256:52,2,200,2|2|2,0:0|0:0|0:0,0:0:0:0:
184,268,118579,2,0,L|120:344,2,100,2|0|2,0:0|0:0|0:0,0:0:0:0:
328,116,119520,2,0,L|392:40,2,100,2|0|2,0:0|0:0|0:0,0:0:0:0:
184,268,120460,1,0,0:0:0:0:
256,192,120695,6,0,L|256:140,2,50,8|0|12,0:0|0:0|0:0,0:0:0:0:
380,348,121400,2,0,P|432:328|456:292,1,100,8|0,0:0|0:0,0:0:0:0:
492,200,121871,2,0,L|516:148,2,50
396,228,122341,2,0,P|312:200|256:108,1,200,8|4,0:0|0:0,0:0:0:0:
68,40,123281,6,0,L|168:40,1,100,8|0,0:0|0:0,0:0:0:0:
268,48,123751,1,8,0:0:0:0:
364,72,123987,2,0,L|416:96,1,50,0|8,0:0|0:0,0:0:0:0:
420,192,124339,2,0,L|368:168,1,50,0|8,0:0|0:0,0:0:0:0:
280,132,124692,6,0,P|188:104|84:116,1,200,4|8,0:0|0:0,0:0:0:0:
48,312,125632,2,0,L|12:360,2,50
108,232,126103,2,0,P|188:196|192:280,1,200,8|4,0:0|0:0,0:0:0:0:
372,192,127043,6,0,L|432:112,1,100,8|0,0:0|0:0,0:0:0:0:
376,28,127513,1,8,0:0:0:0:
288,72,127748,1,0,0:0:0:0:
288,72,127866,1,0,0:0:0:0:
288,72,127983,2,0,L|188:72,1,100,8|0,0:0|0:0,0:0:0:0:
88,72,128454,6,0,L|52:168,1,100,4|0,0:0|0:0,0:0:0:0:
104,252,128924,2,0,L|140:156,1,100,8|0,0:0|0:0,0:0:0:0:
232,128,129394,1,0,0:0:0:0:
232,128,129512,1,0,0:0:0:0:
324,168,129747,1,0,0:0:0:0:
324,168,129864,2,0,P|368:272|444:276,1,200,8|0,0:0|0:0,0:0:0:0:
256,348,130805,6,0,P|200:360|156:356,1,100,8|0,0:0|0:0,0:0:0:0:
68,316,131275,2,0,L|0:244,1,100
28,148,131745,2,0,L|96:220,1,100,8|0,0:0|0:0,0:0:0:0:
184,268,132215,6,0,P|220:236|272:236,1,100,4|0,0:0|0:0,0:0:0:0:
332,312,132686,2,0,P|296:344|244:344,1,100,8|0,0:0|0:0,0:0:0:0:
184,268,133156,2,0,L|144:236,1,50
72,168,133509,2,0,P|188:192|256:96,1,250,0|0,0:0|0:0,0:0:0:0:
452,52,134567,6,0,P|404:68|376:112,1,100,8|0,0:0|0:0,0:0:0:0:
376,208,135037,2,0,L|460:268,1,100
364,296,135507,2,0,L|280:236,1,100,8|0,0:0|0:0,0:0:0:0:
208,172,135977,6,0,P|164:144|116:144,1,100,4|0,0:0|0:0,0:0:0:0:
160,52,136447,2,0,P|204:80|252:80,1,100,8|0,0:0|0:0,0:0:0:0:
340,32,136918,1,0,0:0:0:0:
340,32,137035,1,0,0:0:0:0:
428,80,137270,1,0,0:0:0:0:
428,80,137388,2,0,P|444:168|364:228,1,200,8|0,0:0|0:0,0:0:0:0:
264,212,138093,5,0,0:0:0:0:
172,248,138328,1,8,0:0:0:0:
96,316,138563,1,0,0:0:0:0:
188,352,138799,2,0,L|288:352,1,100
368,292,139269,2,0,L|468:292,1,100,8|0,0:0|0:0,0:0:0:0:
368,292,139739,6,0,L|368:192,1,100,4|0,0:0|0:0,0:0:0:0:
292,128,140209,2,0,L|292:232,1,100,8|0,0:0|0:0,0:0:0:0:
212,288,140679,1,0,0:0:0:0:
164,304,140797,1,0,0:0:0:0:
64,300,141032,2,0,P|-12:184|48:112,1,250
140,76,141855,6,0,P|176:112|224:112,1,100,0|8,0:0|0:0,0:0:0:0:
308,64,142325,2,0,P|354:64|390:100,1,100
432,192,142795,1,0,0:0:0:0:
432,192,143030,1,8,0:0:0:0:
432,192,143266,2,0,L|432:248,2,50,0|0|4,0:0|0:0|0:0,0:0:0:0:
256,268,150554,6,2,L|256:284,9,16.6666666666667
256,192,151024,6,0,P|296:168|320:120,1,100,4|8,0:0|0:0,0:0:0:0:
284,56,151377,2,0,P|336:68|384:56,1,100,0|0,0:0|0:0,0:0:0:0:
440,104,151730,1,8,0:0:0:0:
472,252,151965,2,0,P|388:256|372:308,1,150
308,348,152435,1,0,0:0:0:0:
308,348,152552,1,0,0:0:0:0:
308,348,152670,1,8,0:0:0:0:
308,348,152788,1,0,0:0:0:0:
308,348,152905,6,0,P|256:356|208:348,1,100,0|8,0:0|0:0,0:0:0:0:
156,292,153258,2,0,P|132:256|88:220,1,100
20,188,153610,2,0,L|56:152,1,50,8|0,0:0|0:0,0:0:0:0:
108,100,153846,2,0,P|152:68|196:56,1,100,0|8,0:0|0:0,0:0:0:0:
268,72,154198,2,0,P|312:60|356:28,1,100
432,28,154551,1,8,0:0:0:0:
432,28,154668,1,0,0:0:0:0:
432,28,154786,6,0,L|432:128,1,100,0|8,0:0|0:0,0:0:0:0:
364,164,155139,2,0,P|460:180|468:220,1,150,0|8,0:0|0:0,0:0:0:0:
432,284,155609,1,0,0:0:0:0:
432,284,155726,2,0,P|376:284|336:264,1,100,0|8,0:0|0:0,0:0:0:0:
296,204,156079,2,0,P|257:184|201:184,1,100
132,216,156432,1,8,0:0:0:0:
132,216,156549,1,0,0:0:0:0:
132,216,156667,6,0,P|92:236|88:288,1,100,0|8,0:0|0:0,0:0:0:0:
140,340,157020,2,0,P|192:348|240:340,1,100,0|0,0:0|0:0,0:0:0:0:
296,384,157372,1,8,0:0:0:0:
420,300,157607,2,0,L|468:208,1,100,0|8,0:0|0:0,0:0:0:0:
424,148,157960,1,0,0:0:0:0:
308,56,158195,2,0,L|340:16,2,50,0|8|0,0:0|0:0|0:0,0:0:0:0:
256,112,158548,6,0,P|216:148|172:164,1,100,4|8,0:0|0:0,0:0:0:0:
100,160,158900,2,0,P|172:164|164:228,1,150,0|8,0:0|0:0,0:0:0:0:
68,340,159488,1,0,0:0:0:0:
68,340,159606,2,0,L|168:340,1,100
316,340,160076,2,0,L|256:340,2,50,0|8|0,0:0|0:0|0:0,0:0:0:0:
392,332,160429,6,0,P|428:300|452:252,1,100,0|8,0:0|0:0,0:0:0:0:
388,216,160781,2,0,P|352:184|328:136,1,100,0|0,0:0|0:0,0:0:0:0:
384,88,161134,1,8,0:0:0:0:
256,8,161369,2,0,L|180:72,1,100,0|8,0:0|0:0,0:0:0:0:
116,32,161722,2,0,L|40:96,1,100
40,172,162074,1,8,0:0:0:0:
164,252,162309,6,0,P|156:320|92:364,2,150,0|0|8,0:0|0:0|0:0,0:0:0:0:
104,113,163250,1,0,0:0:0:0:
256,132,163485,1,8,0:0:0:0:
256,132,163603,2,0,P|296:104|344:84,1,100,0|0,0:0|0:0,0:0:0:0:
412,116,163955,1,8,0:0:0:0:
348,252,164190,6,0,P|356:320|420:364,2,150,0|0|8,0:0|0:0|0:0,0:0:0:0:
256,132,165131,2,0,P|200:88|128:112,1,150
32,224,165719,2,0,L|88:244,1,50,0|8,0:0|0:0,0:0:0:0:
172,360,166071,5,4,0:0:0:0:
