osu file format v12

[General]
AudioFilename: LapFox Trax - Nice People - 01 I Love My Internet Friends.mp3
AudioLeadIn: 0
PreviewTime: 68282
Countdown: 0
SampleSet: None
StackLeniency: 0.7
Mode: 0
LetterboxInBreaks: 0

[Editor]
Bookmarks: 8029,38124,68218,83265,90788,105835,113359,120882,128406
DistanceSpacing: 0.8
BeatDivisor: 4
GridSize: 4

[Metadata]
Title:I Love My Internet Friends
TitleUnicode:
Artist:Renard
ArtistUnicode:
Creator:Blue Dragon
Version:Nogard
Source:
Tags:lapfox nice people
BeatmapID:260343
BeatmapSetID:97354

[Difficulty]
HPDrainRate:6
CircleSize:4
OverallDifficulty:8
ApproachRate:9
SliderMultiplier:1.8
SliderTickRate:1

[Events]
//Background and Video events
0,0,"cover.jpg",0,0
//Break Periods
2,34626,37588
2,83529,89312
2,106099,112823
2,143717,149970
//Storyboard Layer 0 (Background)
//Storyboard Layer 1 (Fail)
//Storyboard Layer 2 (Pass)
//Storyboard Layer 3 (Foreground)
//Storyboard Sound Samples
//Background Colour Transformations
3,100,163,162,255

[TimingPoints]
8094,235.109717868339,4,2,0,50,1,0
45711,-100,4,2,0,70,0,0
68282,-100,4,2,0,70,0,1
82388,-100,4,2,0,70,0,0
89912,-100,4,2,0,50,0,0
91087,-200,4,2,0,50,0,0
105664,-100,4,2,0,50,0,0
113423,-200,4,2,0,50,0,0
120711,-100,4,1,0,50,0,0
120946,-100,4,2,0,60,0,0
128470,-100,4,2,0,80,0,0

[Colours]
Combo1 : 179,77,79
Combo2 : 206,0,0
Combo3 : 210,191,191

[HitObjects]
44,32,8035,2,2,B|24:80|52:120,1,90,2|0,0:0|0:0,0:0:0:0:
104,164,8329,1,0,0:0:0:0:
84,232,8446,2,0,B|28:308,1,90
87,356,8681,2,8,B|152:380|216:336|212:271,1,180,8|0,0:0|0:0,0:0:0:0:
212,199,9034,2,8,B|208:263|272:307|336:284,1,180,8|0,0:0|0:0,0:0:0:0:
392,332,9387,2,0,B|312:380,1,90,2|0,0:0|0:0,0:0:0:0:
404,264,9622,2,0,B|484:216,1,90,2|0,0:0|0:0,0:0:0:0:
460,312,9857,2,0,B|484:348,2,45
351,219,10209,6,2,B|324:176|345:134,1,90
400,12,10445,2,2,B|427:55|406:97,1,90,2|2,0:0|0:0,0:0:0:0:
344,60,10680,1,0,0:0:0:0:
312,48,10738,1,0,0:0:0:0:
280,36,10797,1,0,0:0:0:0:
207,36,10915,2,8,B|230:100|186:164|121:160,1,180,8|0,0:0|0:0,0:0:0:0:
52,152,11267,1,0,0:0:0:0:
96,92,11385,2,8,B|72:156|116:220|181:216,1,180,8|0,0:0|0:0,0:0:0:0:
248,192,11738,2,2,B|264:164,3,22.5
271,159,11855,6,8,B|451:159,1,180,8|0,0:0|0:0,0:0:0:0:
424,92,12208,2,8,B|470:142|455:218|393:240,1,180,8|0,0:0|0:0,0:0:0:0:
336,284,12561,2,0,B|296:312|304:364,1,90,0|2,0:0|0:0,0:0:0:0:
256,260,12796,6,8,B|224:304|229:360|229:360|152:376,1,180,8|0,0:0|0:0,0:0:0:0:
114,232,13148,2,8,B|129:305|129:305|185:300|229:332,1,180,8|0,0:0|0:0,0:0:0:0:
188,236,13501,2,0,B|192:188,2,45
124,156,13736,6,2,B|80:152|44:176|32:216|40:244|40:244|48:284,1,180
196,160,14089,2,2,B|240:164|276:140|288:100|280:72|280:72|272:32,1,180,2|2,0:0|0:0,0:0:0:0:
208,84,14441,2,0,B|199:36,2,45
135,83,14677,6,0,B|116:40|64:40,2,90,2|0|0,0:0|0:0|0:0,0:0:0:0:
72,116,15029,2,2,B|28:108,2,45
52,184,15264,2,0,B|28:272,1,90
84,316,15499,1,2,0:0:0:0:
152,340,15617,6,8,B|202:386|278:371|300:309,1,180,8|0,0:0|0:0,0:0:0:0:
232,284,15970,2,0,B|401:346,1,180,2|0,0:0|0:0,0:0:0:0:
456,300,16322,2,0,B|472:320|471:342,2,45,2|0|0,0:0|0:0|0:0,0:0:0:0:
412,244,16557,6,8,B|365:193|380:117|442:95,1,180,8|0,0:0|0:0,0:0:0:0:
480,156,16910,1,0,0:0:0:0:
436,24,17028,2,0,B|344:8,1,90,2|0,0:0|0:0,0:0:0:0:
284,44,17263,1,0,0:0:0:0:
296,116,17380,1,0,0:0:0:0:
228,144,17498,2,8,B|177:190|101:175|79:113,1,180,8|0,0:0|0:0,0:0:0:0:
79,114,17792,1,0,0:0:0:0:
79,114,17851,1,0,0:0:0:0:
16,80,17968,2,0,B|36:28,2,45,2|0|0,0:0|0:0|0:0,0:0:0:0:
132,12,18203,2,0,B|112:64,2,45,2|0|0,0:0|0:0|0:0,0:0:0:0:
16,152,18438,6,8,B|-30:203|-15:279|47:301,1,180,8|0,0:0|0:0,0:0:0:0:
46,300,18732,1,0,0:0:0:0:
46,301,18791,1,2,0:0:0:0:
112,332,18909,2,0,B|88:376,2,45
180,304,19144,1,0,0:0:0:0:
240,344,19261,1,0,0:0:0:0:
312,360,19379,6,8,B|381:357|424:292|396:233,1,180,8|0,0:0|0:0,0:0:0:0:
336,196,19731,1,0,0:0:0:0:
396,149,19849,2,8,B|424:91|381:26|312:24,1,180,8|0,0:0|0:0,0:0:0:0:
239,24,20202,1,0,0:0:0:0:
256,92,20319,2,0,B|256:144,2,45,2|0|0,0:0|0:0|0:0,0:0:0:0:
184,172,20554,2,0,B|184:120,2,45,2|0|0,0:0|0:0|0:0,0:0:0:0:
112,164,20789,2,0,B|112:216,2,45,2|0|0,0:0|0:0|0:0,0:0:0:0:
44,196,21025,1,2,0:0:0:0:
44,212,21083,1,0,0:0:0:0:
44,232,21142,1,0,0:0:0:0:
44,252,21201,1,0,0:0:0:0:
44,272,21260,1,0,0:0:0:0:
256,192,21318,12,0,22905,0:0:0:0:
212,13,23141,6,2,B|111:12|33:100|5:191|33:283|111:370|212:370,1,540,2|0,0:0|0:0,0:0:0:0:
136,244,24081,2,0,B|124:193|153:164|185:136|214:165|243:194|276:167|305:137|293:87,1,270,2|0,0:0|0:0,0:0:0:0:
300,13,24551,2,2,B|401:12|479:100|507:191|479:283|401:370|300:370,2,540
77,148,26197,1,0,0:0:0:0:
212,371,26432,1,0,0:0:0:0:
435,236,26667,1,2,0:0:0:0:
32,40,26902,6,2,B|31:141|119:219|210:247|302:219|389:141|389:40,1,540,2|0,0:0|0:0,0:0:0:0:
122,40,27843,2,2,B|122:140|209:218|301:246|392:218|480:140|480:40,1,540,2|0,0:0|0:0,0:0:0:0:
312,56,28783,2,0,B|243:67|223:118|205:171|255:192|306:212|290:267|268:318|201:329,1,360,2|0,0:0|0:0,0:0:0:0:
119,249,29488,2,0,B|129:181|180:158|234:141|255:192|276:242|330:223|380:202|391:133,1,360,2|0,0:0|0:0,0:0:0:0:
129,65,30194,2,2,B|382:318,1,360,2|6,0:0|0:0,0:0:0:0:
256,192,30782,12,0,34426,0:0:0:0:
460,36,38188,5,8,0:0:0:0:
52,112,38658,1,8,0:0:0:0:
460,192,39128,1,8,0:0:0:0:
52,272,39481,1,0,0:0:0:0:
88,272,39598,1,8,0:0:0:0:
124,272,39716,1,0,0:0:0:0:
160,272,39833,1,0,0:0:0:0:
460,348,40068,5,8,0:0:0:0:
52,272,40539,1,8,0:0:0:0:
460,192,41009,1,8,0:0:0:0:
52,112,41362,1,0,0:0:0:0:
88,112,41479,1,8,0:0:0:0:
124,112,41597,1,0,0:0:0:0:
160,112,41714,1,0,0:0:0:0:
460,36,41949,5,8,0:0:0:0:
52,36,42420,1,8,0:0:0:0:
460,192,42890,1,8,0:0:0:0:
52,192,43242,1,0,0:0:0:0:
52,228,43360,1,8,0:0:0:0:
52,264,43478,1,0,0:0:0:0:
52,300,43595,1,0,0:0:0:0:
460,348,43830,5,8,0:0:0:0:
52,348,44300,1,8,0:0:0:0:
280,24,44771,5,12,0:0:0:0:
424,216,45006,1,12,0:0:0:0:
232,360,45241,1,12,0:0:0:0:
88,168,45476,1,12,0:0:0:0:
112,24,45711,6,0,B|123:75|174:78,1,90,4|0,0:0|0:0,0:0:0:0:
228,128,45946,1,0,0:0:0:0:
300,128,46064,2,8,B|364:105|428:149|424:214,1,180,2|0,0:0|0:0,0:0:0:0:
360,352,46416,5,0,0:0:0:0:
348,336,46475,1,0,0:0:0:0:
336,320,46534,1,0,0:0:0:0:
324,304,46593,1,0,0:0:0:0:
312,288,46651,2,8,B|316:353|252:397|188:374,1,180,2|0,0:0|0:0,0:0:0:0:
176,360,46916,2,0,B|156:336,3,22.5
104,296,47122,6,0,B|44:364,1,90,2|0,0:0|0:0,0:0:0:0:
176,272,47357,2,0,B|236:204,1,90,2|0,0:0|0:0,0:0:0:0:
248,172,47533,1,0,0:0:0:0:
256,136,47592,6,8,B|191:140|147:76|170:12,1,180,2|0,0:0|0:0,0:0:0:0:
96,16,47945,2,0,B|20:68,1,90,2|0,0:0|0:0,0:0:0:0:
64,124,48180,2,0,B|104:96,2,45,0|0|2,0:0|0:0|0:0,0:0:0:0:
48,196,48415,1,0,0:0:0:0:
104,240,48532,6,8,B|169:236|213:300|190:364,1,180,2|0,0:0|0:0,0:0:0:0:
120,372,48885,1,0,0:0:0:0:
76,316,49003,2,2,B|0:268,1,90,2|0,0:0|0:0,0:0:0:0:
104,240,49238,2,2,B|180:192,1,90,2|0,0:0|0:0,0:0:0:0:
156,124,49473,6,8,B|152:59|216:15|280:38,1,180,2|0,0:0|0:0,0:0:0:0:
324,92,49825,2,8,B|389:88|433:152|410:216,1,180,2|0,0:0|0:0,0:0:0:0:
424,288,50178,2,0,B|468:276,2,45
356,260,50413,2,8,B|360:325|296:369|232:346,1,180,2|0,0:0|0:0,0:0:0:0:
188,292,50766,2,8,B|123:296|79:232|102:168,1,180,2|0,0:0|0:0,0:0:0:0:
88,152,51060,1,0,0:0:0:0:
76,140,51119,1,0,0:0:0:0:
20,96,51236,1,0,0:0:0:0:
88,68,51354,6,2,B|136:80|171:48,1,90
240,28,51589,1,0,0:0:0:0:
300,68,51706,2,8,B|358:39|423:82|426:150,1,180,2|0,0:0|0:0,0:0:0:0:
424,224,52059,2,0,B|460:268,2,45
356,204,52294,2,8,B|297:175|232:218|229:286,1,180,2|0,0:0|0:0,0:0:0:0:
228,360,52647,2,8,B|256:301|213:236|145:233,1,180,2|0,0:0|0:0,0:0:0:0:
108,296,52999,2,0,B|140:332,1,45
108,296,53117,2,0,B|76:332,1,45
108,296,53235,6,8,B|46:274|31:198|77:148,1,180,2|0,0:0|0:0,0:0:0:0:
36,88,53587,2,2,B|208:24,1,180
228,92,53940,1,0,0:0:0:0:
244,88,53999,1,0,0:0:0:0:
260,80,54057,1,0,0:0:0:0:
272,68,54116,1,0,0:0:0:0:
276,52,54175,6,8,B|325:6|401:21|423:83,1,180,2|0,0:0|0:0,0:0:0:0:
464,144,54528,2,0,B|464:204,2,45
392,148,54763,1,0,0:0:0:0:
396,220,54880,2,2,B|400:248|436:272|464:265,1,90
488,336,55115,6,4,B|312:368,1,180,4|0,0:0|0:0,0:0:0:0:
307,295,55468,2,4,B|219:311,1,90,2|0,0:0|0:0,0:0:0:0:
208,328,55644,1,0,0:0:0:0:
196,344,55703,1,0,0:0:0:0:
123,343,55821,2,0,B|76:336|41:370,1,90,2|0,0:0|0:0,0:0:0:0:
148,276,56056,6,8,B|176:216|133:152|65:149,1,180,2|0,0:0|0:0,0:0:0:0:
40,216,56409,2,2,B|104:48,1,180
36,28,56761,2,0,B|20:72,2,45
164,88,56996,6,8,B|212:42|289:57|311:119,1,180,2|0,0:0|0:0,0:0:0:0:
260,171,57349,2,8,B|282:233|358:248|407:202,1,180,2|0,0:0|0:0,0:0:0:0:
456,148,57702,2,2,B|488:60,1,90,2|0,0:0|0:0,0:0:0:0:
480,220,57937,2,8,B|526:268|510:345|448:367,1,180,2|0,0:0|0:0,0:0:0:0:
384,340,58289,2,8,B|335:293|258:309|236:371,1,180,2|0,0:0|0:0,0:0:0:0:
164,360,58642,1,0,0:0:0:0:
146,361,58701,1,0,0:0:0:0:
128,362,58760,1,0,0:0:0:0:
110,363,58818,1,0,0:0:0:0:
92,365,58877,6,8,B|29:342|14:266|60:217,1,180,2|0,0:0|0:0,0:0:0:0:
111,166,59230,2,8,B|157:117|141:40|79:18,1,180,2|0,0:0|0:0,0:0:0:0:
48,104,59583,2,0,B|-16:32,1,90
212,136,59818,6,8,B|234:198|310:213|359:167,1,180,2|0,0:0|0:0,0:0:0:0:
385,100,60170,2,8,B|338:148|354:225|416:247,1,180,2|0,0:0|0:0,0:0:0:0:
467,196,60523,1,2,0:0:0:0:
392,320,60758,5,4,0:0:0:0:
104,320,61228,5,8,0:0:0:0:
164,284,61463,1,0,0:0:0:0:
164,248,61581,1,0,0:0:0:0:
164,212,61699,1,8,0:0:0:0:
113,161,61934,1,0,0:0:0:0:
113,125,62051,1,0,0:0:0:0:
113,89,62169,1,8,0:0:0:0:
62,38,62404,1,8,0:0:0:0:
132,16,62639,5,4,0:0:0:0:
184,68,62874,1,0,0:0:0:0:
220,68,62992,1,0,0:0:0:0:
256,68,63109,1,8,0:0:0:0:
307,118,63344,1,0,0:0:0:0:
343,118,63462,1,0,0:0:0:0:
379,118,63579,1,8,0:0:0:0:
430,169,63815,1,8,0:0:0:0:
432,204,63932,1,0,0:0:0:0:
432,240,64050,1,4,0:0:0:0:
432,312,64285,1,4,0:0:0:0:
376,356,64520,5,8,0:0:0:0:
312,324,64755,1,0,0:0:0:0:
276,324,64872,1,0,0:0:0:0:
240,324,64990,1,8,0:0:0:0:
189,374,65225,1,0,0:0:0:0:
153,374,65343,1,0,0:0:0:0:
117,374,65460,1,8,0:0:0:0:
66,323,65695,1,0,0:0:0:0:
66,287,65813,1,0,0:0:0:0:
66,251,65930,1,2,0:0:0:0:
117,199,66166,1,2,0:0:0:0:
176,156,66401,2,2,B|208:156,28,22.5
124,104,67341,5,8,0:0:0:0:
388,104,67459,1,0,0:0:0:0:
388,104,67517,1,0,0:0:0:0:
388,104,67576,1,8,0:0:0:0:
211,69,67694,6,8,B|299:69,1,90,0|8,0:0|0:0,0:0:0:0:
301,141,67929,2,8,B|213:141,1,90,0|10,0:0|0:0,0:0:0:0:
256,216,68164,1,0,0:0:0:0:
36,360,68282,6,4,B|124:328,1,90,4|0,0:0|0:0,0:0:0:0:
152,228,68517,2,4,B|64:260,1,90,8|0,0:0|0:0,0:0:0:0:
100,156,68752,2,4,B|188:124,1,90,2|0,0:0|0:0,0:0:0:0:
216,24,68987,2,4,B|128:56,1,90,8|0,0:0|0:0,0:0:0:0:
380,54,69222,6,4,B|296:24,1,90,4|0,0:0|0:0,0:0:0:0:
327,125,69457,2,4,B|412:156,1,90,8|0,0:0|0:0,0:0:0:0:
444,258,69692,2,4,B|360:228,1,90,2|0,0:0|0:0,0:0:0:0:
391,329,69927,2,4,B|476:360,1,90,8|0,0:0|0:0,0:0:0:0:
268,328,70162,6,0,B|255:279|299:251,1,90,4|0,0:0|0:0,0:0:0:0:
120,204,70398,2,0,B|168:191|196:235,1,90,8|0,0:0|0:0,0:0:0:0:
244,56,70633,2,0,B|256:104|212:132,1,90,2|0,0:0|0:0,0:0:0:0:
392,180,70868,2,0,B|343:192|315:148,1,90,8|0,0:0|0:0,0:0:0:0:
120,340,71103,6,0,B|171:351|196:308,1,90,4|0,0:0|0:0,0:0:0:0:
108,56,71338,2,0,B|96:107|139:132,1,90,8|0,0:0|0:0,0:0:0:0:
392,44,71573,2,0,B|340:32|315:75,1,90,2|0,0:0|0:0,0:0:0:0:
404,328,71808,2,0,B|415:276|372:251,1,90,8|0,0:0|0:0,0:0:0:0:
104,252,72043,6,0,B|12:276,1,90,4|0,0:0|0:0,0:0:0:0:
128,140,72278,2,0,B|36:164,1,90,8|0,0:0|0:0,0:0:0:0:
176,306,72514,2,0,B|264:284,1,90,2|0,0:0|0:0,0:0:0:0:
200,195,72749,2,0,B|287:172,1,90,8|0,0:0|0:0,0:0:0:0:
340,20,72984,6,0,B|296:44|296:92,1,90,4|0,0:0|0:0,0:0:0:0:
390,156,73219,2,0,B|435:132|436:84,1,90,8|0,0:0|0:0,0:0:0:0:
436,300,73454,2,0,B|435:251|391:227,1,90,2|0,0:0|0:0,0:0:0:0:
295,291,73689,2,0,B|296:340|340:364,1,90,8|0,0:0|0:0,0:0:0:0:
172,364,73924,2,0,B|216:340|216:292,1,90,4|0,0:0|0:0,0:0:0:0:
119,226,74159,2,0,B|76:251|76:300,1,90,8|0,0:0|0:0,0:0:0:0:
76,84,74394,2,0,B|76:132|120:156,1,90,2|0,0:0|0:0,0:0:0:0:
216,92,74630,2,0,B|216:44|172:20,1,90,8|0,0:0|0:0,0:0:0:0:
342,179,74865,6,2,B|292:176|280:125,1,90,2|0,0:0|0:0,0:0:0:0:
231,258,75100,2,2,B|220:208|169:204,1,90,8|0,0:0|0:0,0:0:0:0:
342,253,75335,2,2,B|291:265|288:316,1,90,2|0,0:0|0:0,0:0:0:0:
169,130,75570,2,2,B|220:118|224:68,1,90,8|0,0:0|0:0,0:0:0:0:
428,140,75805,6,4,B|468:168|512:140,1,90,4|0,0:0|0:0,0:0:0:0:
376,88,76040,2,4,B|335:59|291:87,1,90,8|0,0:0|0:0,0:0:0:0:
468,76,76275,2,0,B|468:-12,1,90,2|0,0:0|0:0,0:0:0:0:
336,152,76510,2,0,B|336:240,1,90,8|0,0:0|0:0,0:0:0:0:
336,316,76746,6,2,B|281:316|267:267,1,90,2|0,0:0|0:0,0:0:0:0:
336,242,76981,1,8,0:0:0:0:
204,296,77098,1,0,0:0:0:0:
212,224,77216,6,2,B|212:169|163:155,1,90,2|0,0:0|0:0,0:0:0:0:
138,224,77451,1,8,0:0:0:0:
192,92,77568,1,0,0:0:0:0:
120,84,77686,6,2,B|32:84,1,90,2|0,0:0|0:0,0:0:0:0:
216,16,77921,2,2,B|128:16,1,90,8|0,0:0|0:0,0:0:0:0:
386,16,78156,2,2,B|296:16,1,90,2|0,0:0|0:0,0:0:0:0:
482,84,78391,2,2,B|392:84,1,90,8|2,0:0|0:0,0:0:0:0:
332,124,78626,5,2,0:0:0:0:
324,268,78744,1,0,0:0:0:0:
180,260,78862,1,8,0:0:0:0:
188,116,78979,1,0,0:0:0:0:
357,197,79097,5,2,0:0:0:0:
250,293,79214,1,0,0:0:0:0:
154,186,79332,1,8,0:0:0:0:
261,90,79449,1,0,0:0:0:0:
488,188,79567,6,4,B|460:228|488:272,1,90,4|0,0:0|0:0,0:0:0:0:
404,372,79802,2,4,B|432:332|404:288,1,90,8|0,0:0|0:0,0:0:0:0:
324,184,80037,2,4,B|296:224|324:268,1,90,2|0,0:0|0:0,0:0:0:0:
240,368,80272,2,4,B|268:328|240:284,1,90,8|0,0:0|0:0,0:0:0:0:
272,100,80507,6,4,B|244:56|272:16,1,90,4|0,0:0|0:0,0:0:0:0:
187,115,80742,2,4,B|216:160|188:200,1,90,8|0,0:0|0:0,0:0:0:0:
108,96,80978,2,4,B|80:52|108:12,1,90,2|0,0:0|0:0,0:0:0:0:
23,111,81213,2,4,B|52:156|24:196,1,90,8|0,0:0|0:0,0:0:0:0:
216,208,81448,5,4,0:0:0:0:
296,176,81565,1,0,0:0:0:0:
191,191,81683,1,8,0:0:0:0:
320,192,81800,1,0,0:0:0:0:
231,132,81918,5,4,0:0:0:0:
280,252,82036,1,0,0:0:0:0:
256,95,82153,1,8,0:0:0:0:
255,288,82271,1,0,0:0:0:0:
256,192,82388,12,6,83329,0:0:0:0:
220,353,89912,6,0,B|205:310|220:265,1,90,8|0,0:0|0:0,0:0:0:0:
292,264,90147,2,0,B|307:307|292:352,1,90,8|0,0:0|0:0,0:0:0:0:
196,192,90382,1,0,0:0:0:0:
256,156,90499,1,0,0:0:0:0:
316,192,90617,2,0,B|348:192,8,22.5,0|0|0|0|0|0|0|0|4,0:0|0:0|0:0|0:0|0:0|0:0|0:0|0:0|0:0,0:0:0:0:
328,52,91087,5,0,0:0:0:0:
292,44,91205,2,8,B|255:10|199:21|182:68,1,135,2|0,0:0|0:0,0:0:0:0:
140,128,91793,2,2,B|96:144,1,45,2|0,0:0|0:0,0:0:0:0:
68,164,92028,1,0,0:0:0:0:
44,192,92145,2,8,B|10:228|21:284|68:301,1,135,2|0,0:0|0:0,0:0:0:0:
110,358,92733,6,0,B|132:348|136:324,1,45
144,288,92968,1,0,0:0:0:0:
128,256,93086,2,0,B|125:221|157:200|188:211,1,90,2|0,0:0|0:0,0:0:0:0:
212,184,93438,2,0,B|252:156,1,45
284,164,93673,2,0,B|324:136,1,45
340,108,93909,1,8,0:0:0:0:
365,82,94026,2,0,B|450:76|502:156|475:234,1,225,2|4,0:0|0:0,0:0:0:0:
344,352,94967,5,0,0:0:0:0:
240,328,95319,1,2,0:0:0:0:
168,340,95554,2,2,B|120:352,1,45,2|0,0:0|0:0,0:0:0:0:
92,336,95789,1,0,0:0:0:0:
67,307,95907,2,8,B|36:296|29:259|51:235,1,90,2|0,0:0|0:0,0:0:0:0:
84,216,96260,2,2,B|72:128,1,90,2|4,0:0|0:0,0:0:0:0:
120,72,96730,5,0,0:0:0:0:
152,56,96847,1,2,0:0:0:0:
212,96,97083,1,0,0:0:0:0:
244,108,97200,1,0,0:0:0:0:
280,108,97318,1,0,0:0:0:0:
312,88,97435,2,8,B|323:56|360:49|384:71,1,90,2|0,0:0|0:0,0:0:0:0:
408,100,97788,2,2,B|412:152|452:176,1,90
472,204,98141,1,0,0:0:0:0:
480,240,98258,1,2,0:0:0:0:
464,272,98376,5,4,0:0:0:0:
396,300,98611,1,8,0:0:0:0:
328,272,98846,1,8,0:0:0:0:
296,208,99081,1,0,0:0:0:0:
292,136,99316,2,0,B|292:48,1,90,0|2,0:0|0:0,0:0:0:0:
220,46,99786,2,0,B|220:136,1,90,0|2,0:0|0:0,0:0:0:0:
220,208,100257,1,0,0:0:0:0:
184,272,100492,1,0,0:0:0:0:
152,288,100609,1,0,0:0:0:0:
116,300,100727,1,8,0:0:0:0:
48,272,100962,1,0,0:0:0:0:
88,212,101197,6,2,B|60:172|79:126,1,90,2|0,0:0|0:0,0:0:0:0:
28,75,101667,2,8,B|51:11|126:-3|175:41,1,180,2|2,0:0|0:0,0:0:0:0:
208,108,102372,1,0,0:0:0:0:
236,128,102490,1,0,0:0:0:0:
272,128,102608,1,2,0:0:0:0:
340,100,102843,1,0,0:0:0:0:
404,136,103078,2,0,B|440:168|420:218,1,90,0|2,0:0|0:0,0:0:0:0:
356,188,103548,2,8,B|311:237|325:312|389:335,1,180,2|2,0:0|0:0,0:0:0:0:
264,352,104371,5,0,0:0:0:0:
232,340,104488,1,2,0:0:0:0:
192,280,104724,1,0,0:0:0:0:
144,228,104959,5,2,0:0:0:0:
368,156,105194,1,2,0:0:0:0:
292,304,105429,1,2,0:0:0:0:
220,80,105664,2,2,B|208:56,8,22.5,2|2|2|2|2|2|2|0|4,0:0|0:0|0:0|0:0|0:0|0:0|0:0|0:0|0:0,0:0:0:0:
72,52,113423,6,2,B|32:76|24:136|52:172,1,135,2|0,0:0|0:0,0:0:0:0:
84,184,113893,2,2,B|112:228|88:272,1,90,2|0,0:0|0:0,0:0:0:0:
168,352,114363,2,2,B|145:310|173:266,1,90,2|0,0:0|0:0,0:0:0:0:
244,268,114833,2,0,B|288:300|332:296,1,90,2|0,0:0|0:0,0:0:0:0:
348,368,115304,2,2,B|312:321|322:242|369:204,1,180,2|0,0:0|0:0,0:0:0:0:
436,176,116009,1,2,0:0:0:0:
388,124,116244,6,2,B|320:139|256:87|253:36,1,180
184,60,116949,1,0,0:0:0:0:
316,12,117184,2,0,B|328:64|384:56,1,90,2|0,0:0|0:0,0:0:0:0:
512,124,117655,2,0,B|500:72|444:80,1,90,0|2,0:0|0:0,0:0:0:0:
388,124,118125,6,2,B|320:108|256:160|253:211,1,180
308,256,118830,1,0,0:0:0:0:
344,316,119065,2,0,B|304:352|260:340,1,90,2|0,0:0|0:0,0:0:0:0:
212,288,119536,2,0,B|169:276|129:312,1,90,0|2,0:0|0:0,0:0:0:0:
64,284,120006,2,2,B|68:276|68:276|60:276|60:276|68:272|68:272|60:272|60:272|68:268|68:268|60:268|60:268|68:264|68:264|60:264|60:264|68:260|68:260|60:260|60:260|68:256|68:256|60:256|60:256|64:252|64:252|64:180,1,180
168,80,120711,5,0,0:0:0:0:
256,112,120829,1,4,0:0:0:0:
344,80,120946,1,0,0:0:0:0:
368,224,121181,5,0,0:0:0:0:
368,260,121299,1,0,0:0:0:0:
368,296,121416,1,2,0:0:0:0:
144,332,121651,5,0,0:0:0:0:
144,296,121769,1,0,0:0:0:0:
144,260,121887,1,0,0:0:0:0:
144,224,122004,1,2,0:0:0:0:
144,188,122122,1,0,0:0:0:0:
256,192,122357,1,2,0:0:0:0:
344,80,122592,5,2,0:0:0:0:
168,80,122827,1,4,0:0:0:0:
72,224,123062,5,0,0:0:0:0:
72,260,123180,1,0,0:0:0:0:
72,296,123297,1,2,0:0:0:0:
440,332,123532,5,0,0:0:0:0:
440,296,123650,1,0,0:0:0:0:
440,260,123767,1,0,0:0:0:0:
440,224,123885,1,2,0:0:0:0:
440,188,124003,1,0,0:0:0:0:
440,152,124120,1,0,0:0:0:0:
440,116,124238,1,0,0:0:0:0:
440,80,124355,1,2,0:0:0:0:
440,44,124473,1,0,0:0:0:0:
256,16,124708,5,4,0:0:0:0:
112,16,124943,1,0,0:0:0:0:
184,140,125178,1,2,0:0:0:0:
112,268,125413,6,2,B|84:308|112:352,1,90,0|0,0:0|0:0,0:0:0:0:
256,268,125648,2,2,B|284:308|256:352,1,90,2|0,0:0|0:0,0:0:0:0:
184,340,125883,2,2,B|184:248,1,90,2|0,0:0|0:0,0:0:0:0:
132,196,126119,1,2,0:0:0:0:
232,196,126236,1,0,0:0:0:0:
184,140,126354,1,0,0:0:0:0:
472,108,126589,5,4,0:0:0:0:
472,276,126824,1,0,0:0:0:0:
391,65,127059,5,4,0:0:0:0:
391,318,127294,1,0,0:0:0:0:
392,144,127529,6,0,B|304:144,1,90,4|0,0:0|0:0,0:0:0:0:
302,240,127764,2,0,B|392:240,1,90,8|0,0:0|0:0,0:0:0:0:
304,67,127999,2,4,B|252:68|231:112,1,90,4|0,0:0|0:0,0:0:0:0:
304,316,128235,2,4,B|252:316|231:271,1,90,8|0,0:0|0:0,0:0:0:0:
188,192,128470,6,8,B|140:146|63:162|41:224,1,180,2|0,0:0|0:0,0:0:0:0:
88,276,128822,1,0,0:0:0:0:
132,336,128940,2,8,B|179:315|178:266,1,90,8|0,0:0|0:0,0:0:0:0:
60,60,129175,2,8,B|12:80|13:129,1,90,0|0,0:0|0:0,0:0:0:0:
140,92,129410,6,8,B|201:116|267:73|264:6,1,180,2|0,0:0|0:0,0:0:0:0:
192,16,129763,1,0,0:0:0:0:
332,40,129880,2,0,B|420:16,1,90,2|0,0:0|0:0,0:0:0:0:
383,164,130115,2,0,B|308:116,1,90,8|0,0:0|0:0,0:0:0:0:
244,160,130351,6,8,B|220:221|263:287|330:284,1,180,4|0,0:0|0:0,0:0:0:0:
396,256,130703,1,0,0:0:0:0:
304,352,130821,2,2,B|348:368|388:328,1,90,2|0,0:0|0:0,0:0:0:0:
465,142,131056,2,2,B|421:126|381:166,1,90,8|0,0:0|0:0,0:0:0:0:
488,340,131291,2,2,B|504:296|464:256,1,90,2|0,0:0|0:0,0:0:0:0:
280,152,131526,2,2,B|264:196|304:236,1,90,8|0,0:0|0:0,0:0:0:0:
244,280,131761,5,2,0:0:0:0:
192,232,131879,1,0,0:0:0:0:
9,248,131996,1,8,0:0:0:0:
76,227,132114,1,0,0:0:0:0:
155,62,132231,6,8,B|153:124|216:173|279:152,1,180,4|0,0:0|0:0,0:0:0:0:
284,80,132584,1,0,0:0:0:0:
408,32,132702,2,2,B|364:44|321:20,1,90,2|0,0:0|0:0,0:0:0:0:
384,120,132937,2,2,B|428:108|470:131,1,90,8|0,0:0|0:0,0:0:0:0:
416,204,133172,6,0,B|437:267|388:330|326:328,1,180,2|0,0:0|0:0,0:0:0:0:
272,284,133525,1,0,0:0:0:0:
216,240,133642,2,0,B|153:238|104:301|126:364,1,180,2|0,0:0|0:0,0:0:0:0:
196,352,133995,1,0,0:0:0:0:
52,356,134112,6,4,B|42:307|64:268,1,90,4|0,0:0|0:0,0:0:0:0:
16,136,134347,2,4,B|26:185|4:224,1,90,8|0,0:0|0:0,0:0:0:0:
72,92,134583,5,2,0:0:0:0:
104,28,134700,1,0,0:0:0:0:
160,76,134818,2,0,B|200:108|244:93,1,90,8|0,0:0|0:0,0:0:0:0:
295,144,135053,2,0,B|357:145|406:82|384:19,1,180,2|0,0:0|0:0,0:0:0:0:
316,40,135405,1,0,0:0:0:0:
464,64,135523,2,2,B|512:148,1,90,2|0,0:0|0:0,0:0:0:0:
468,244,135758,2,2,B|423:165,1,90,8|0,0:0|0:0,0:0:0:0:
348,216,135993,6,0,B|322:272|362:342|429:346,1,180,6|0,0:0|0:0,0:0:0:0:
232,340,136346,2,2,B|320:372,1,90,0|2,0:0|0:0,0:0:0:0:
268,276,136581,1,0,0:0:0:0:
200,256,136699,1,0,0:0:0:0:
160,316,136816,2,0,B|103:341|33:301|29:234,1,180,2|0,0:0|0:0,0:0:0:0:
100,58,137169,6,2,B|67:149,1,90,2|0,0:0|0:0,0:0:0:0:
128,236,137404,2,2,B|158:151,1,90,8|0,0:0|0:0,0:0:0:0:
260,108,137639,2,2,B|227:199,1,90,2|0,0:0|0:0,0:0:0:0:
336,107,137874,6,4,B|384:88|376:36,1,90,4|0,0:0|0:0,0:0:0:0:
464,88,138109,2,4,B|416:107|423:159,1,90,8|0,0:0|0:0,0:0:0:0:
308,44,138344,1,2,0:0:0:0:
308,44,138462,1,0,0:0:0:0:
448,16,138579,1,8,0:0:0:0:
448,16,138697,1,0,0:0:0:0:
500,152,138815,6,0,B|525:208|485:278|418:282,1,180,6|0,0:0|0:0,0:0:0:0:
376,224,139167,1,0,0:0:0:0:
372,340,139285,2,2,B|452:380,1,90,2|0,0:0|0:0,0:0:0:0:
328,280,139520,2,2,B|248:240,1,90,8|0,0:0|0:0,0:0:0:0:
200,292,139755,6,0,B|144:267|74:307|70:374,1,180,6|0,0:0|0:0,0:0:0:0:
140,384,140108,1,0,0:0:0:0:
16,304,140225,2,2,B|44:220,1,90,2|0,0:0|0:0,0:0:0:0:
148,132,140460,2,2,B|120:216,1,90,8|0,0:0|0:0,0:0:0:0:
60,140,140695,6,0,B|35:84|75:14|142:10,1,180,6|0,0:0|0:0,0:0:0:0:
188,68,141048,1,0,0:0:0:0:
328,30,141166,2,2,B|240:16,1,90,2|0,0:0|0:0,0:0:0:0:
408,89,141401,2,2,B|320:104,1,90,8|0,0:0|0:0,0:0:0:0:
292,172,141636,6,0,B|296:239|366:279|422:254,1,180,6|0,0:0|0:0,0:0:0:0:
444,324,141988,1,0,0:0:0:0:
432,184,142106,2,2,B|516:216,1,90,2|0,0:0|0:0,0:0:0:0:
508,36,142341,2,2,B|476:120,1,90,8|0,0:0|0:0,0:0:0:0:
408,88,142576,6,0,B|403:20|333:-19|277:5,1,180,6|0,0:0|0:0,0:0:0:0:
268,76,142929,1,0,0:0:0:0:
212,32,143046,2,2,B|120:20,1,90,2|0,0:0|0:0,0:0:0:0:
110,92,143282,2,2,B|200:104,1,90,0|0,0:0|0:0,0:0:0:0:
256,148,143517,1,4,0:0:0:0:
404,116,150570,5,2,0:0:0:0:
404,136,150629,1,0,0:0:0:0:
400,152,150688,1,0,0:0:0:0:
388,164,150746,1,0,0:0:0:0:
372,172,150805,2,0,B|348:172,7,22.5,2|0|2|0|2|0|2|0,0:0|0:0|0:0|0:0|0:0|0:0|0:0|0:0,0:0:0:0:
340,172,151040,6,0,B|273:168|233:98|258:42,1,180,6|0,0:0|0:0,0:0:0:0:
328,64,151393,2,0,B|323:131|253:171|197:145,1,180,2|0,0:0|0:0,0:0:0:0:
148,96,151746,1,0,0:0:0:0:
140,80,151804,1,0,0:0:0:0:
124,72,151863,1,0,0:0:0:0:
108,68,151922,1,0,0:0:0:0:
92,72,151981,6,0,B|47:122|68:200|126:221,1,180,2|0,0:0|0:0,0:0:0:0:
12,232,152333,2,0,B|69:253|90:331|46:381,1,180,2|0,0:0|0:0,0:0:0:0:
204,324,152686,2,0,B|184:376|132:368,1,90
136,292,152921,6,0,B|152:236|248:224|280:300,1,180,2|0,0:0|0:0,0:0:0:0:
204,324,153274,2,2,B|380:252,1,180,2|0,0:0|0:0,0:0:0:0:
408,316,153626,2,0,B|440:364|488:348,1,90
472,272,153862,6,0,B|516:221|495:143|437:122,1,180,2|0,0:0|0:0,0:0:0:0:
488,71,154214,2,0,B|466:128|388:149|338:105,1,180,2|0,0:0|0:0,0:0:0:0:
376,44,154567,2,0,B|284:4,1,90
320,180,154802,6,0,B|315:247|245:287|189:261,1,180,2|0,0:0|0:0,0:0:0:0:
136,168,155155,2,0,B|140:100|210:60|266:86,1,180,2|0,0:0|0:0,0:0:0:0:
252,156,155507,1,0,0:0:0:0:
236,168,155566,1,0,0:0:0:0:
220,180,155625,1,0,0:0:0:0:
204,192,155684,1,0,0:0:0:0:
188,204,155742,2,2,B|36:312,1,180,2|0,0:0|0:0,0:0:0:0:
92,359,156095,2,2,B|112:344,4,22.5
168,304,156330,1,0,0:0:0:0:
228,264,156448,1,2,0:0:0:0:
348,344,156683,6,0,B|398:388|476:367|497:309,1,180,2|0,0:0|0:0,0:0:0:0:
408,192,157036,2,2,B|380:232|408:280,1,90,2|0,0:0|0:0,0:0:0:0:
472,240,157271,1,0,0:0:0:0:
476,168,157388,1,2,0:0:0:0:
420,116,157506,1,0,0:0:0:0:
488,88,157623,6,0,B|483:20|413:-19|357:6,1,180,2|0,0:0|0:0,0:0:0:0:
306,57,157976,2,0,B|301:124|231:164|175:138,1,180,2|0,0:0|0:0,0:0:0:0:
124,87,158329,2,0,B|56:151,1,90
36,80,158564,6,0,B|80:130|59:208|1:229,1,180,6|0,0:0|0:0,0:0:0:0:
32,296,158916,2,0,B|82:251|160:272|182:330,1,180,6|0,0:0|0:0,0:0:0:0:
116,360,159269,2,0,B|24:384,1,90,2|0,0:0|0:0,0:0:0:0:
236,280,159504,6,0,B|292:305|362:265|366:198,1,180,6|0,0:0|0:0,0:0:0:0:
312,152,159857,1,0,0:0:0:0:
301,137,159916,1,0,0:0:0:0:
297,119,159974,1,0,0:0:0:0:
298,101,160033,1,0,0:0:0:0:
303,83,160092,1,0,0:0:0:0:
314,68,160151,1,0,0:0:0:0:
330,62,160209,2,2,B|420:85,1,90,2|0,0:0|0:0,0:0:0:0:
416,11,160445,6,0,B|390:67|430:137|497:141,1,180,6|0,0:0|0:0,0:0:0:0:
497,212,160797,2,0,B|522:268|482:338|415:342,1,180,2|0,0:0|0:0,0:0:0:0:
344,320,161150,1,0,0:0:0:0:
329,331,161209,1,0,0:0:0:0:
311,335,161267,1,0,0:0:0:0:
293,334,161326,1,0,0:0:0:0:
276,328,161385,2,0,B|218:305|197:228|241:177,1,180,2|0,0:0|0:0,0:0:0:0:
296,88,161738,2,0,B|353:110|374:187|330:238,1,180,2|0,0:0|0:0,0:0:0:0:
120,248,162090,2,0,B|80:336,1,90
48,200,162325,6,0,B|22:143|62:73|129:69,1,180,2|0,0:0|0:0,0:0:0:0:
120,249,162678,2,0,B|186:244|226:174|201:118,1,180,2|0,0:0|0:0,0:0:0:0:
200,44,163031,1,0,0:0:0:0:
216,36,163090,1,0,0:0:0:0:
232,32,163148,1,0,0:0:0:0:
248,32,163207,1,0,0:0:0:0:
264,40,163266,6,0,B|268:106|338:146|394:121,1,180,2|0,0:0|0:0,0:0:0:0:
440,68,163619,2,2,B|320:204,1,180
372,252,163971,2,0,B|400:300|446:289,1,90
300,272,164206,6,0,B|236:249|172:298|173:359,1,180,2|0,0:0|0:0,0:0:0:0:
245,362,164559,2,0,B|181:384|117:335|118:274,1,180,2|0,0:0|0:0,0:0:0:0:
170,223,164912,2,0,B|209:195|255:193,1,90
96,208,165147,6,0,B|73:144|122:80|183:81,1,180,2|0,0:0|0:0,0:0:0:0:
156,16,165499,2,0,B|154:77|219:126|282:103,1,180,2|2,0:0|0:0,0:0:0:0:
333,52,165852,1,8,0:0:0:0:
256,296,166087,5,4,0:0:0:0:
