osu file format v12

[General]
AudioFilename: LapFox Trax - Nice People - 01 I Love My Internet Friends.mp3
AudioLeadIn: 0
PreviewTime: 68282
Countdown: 0
SampleSet: None
StackLeniency: 0.7
Mode: 0
LetterboxInBreaks: 0

[Editor]
DistanceSpacing: 0.8
BeatDivisor: 4
GridSize: 8

[Metadata]
Title:I Love My Internet Friends
TitleUnicode:
Artist:Renard
ArtistUnicode:
Creator:Blue Dragon
Version:DoKo
Source:
Tags:lapfox nice people
BeatmapID:260342
BeatmapSetID:97354

[Difficulty]
HPDrainRate:7
CircleSize:4
OverallDifficulty:7
ApproachRate:9
SliderMultiplier:1.8
SliderTickRate:1

[Events]
//Background and Video events
0,0,"cover.jpg",0,0
//Break Periods
2,34626,37588
2,83529,90252
2,106099,112823
2,143717,149970
//Storyboard Layer 0 (Background)
//Storyboard Layer 1 (Fail)
//Storyboard Layer 2 (Pass)
//Storyboard Layer 3 (Foreground)
//Storyboard Sound Samples
//Background Colour Transformations
3,100,163,162,255

[TimingPoints]
8094,235.109717868339,4,1,0,40,1,0
8799,-100,4,2,0,50,0,0
9034,-100,4,1,0,40,0,0
9739,-100,4,2,0,50,0,0
9974,-100,4,1,0,40,0,0
10680,-100,4,2,0,50,0,0
10915,-100,4,1,0,40,0,0
12561,-100,4,2,0,50,0,0
12796,-100,4,1,0,40,0,0
13501,-100,4,2,0,50,0,0
13736,-100,4,1,0,40,0,0
15382,-100,4,2,0,50,0,0
15617,-100,4,1,0,40,0,0
16322,-100,4,2,0,50,0,0
16557,-100,4,1,0,40,0,0
17263,-100,4,2,0,50,0,0
17498,-100,4,1,0,40,0,0
34426,-100,4,1,0,25,0,0
38188,-100,4,2,0,75,0,0
44771,-100,4,1,0,75,0,0
45711,-100,4,1,0,55,0,0
61228,-133.333333333333,4,2,0,75,0,0
67341,-133.333333333333,4,1,0,45,0,0
68282,-100,4,1,0,55,0,1
82388,-100,4,1,0,55,0,0
90852,-200,4,2,0,55,0,0
120711,-133.333333333333,4,2,0,75,0,0
128470,-100,4,2,0,85,0,0
150570,-100,4,2,0,100,0,0
151040,-100,4,1,0,55,0,0

[Colours]
Combo1 : 179,77,79
Combo2 : 206,0,0
Combo3 : 210,191,191

[HitObjects]
148,120,8093,2,0,B|136:96,4,22.5
200,176,8329,1,8,0:0:0:0:
264,208,8446,2,0,B|320:224|368:184,1,90
400,72,8681,2,0,B|344:56|296:96,1,90,8|0,0:0|0:0,0:0:0:0:
256,128,8916,1,0,0:0:0:0:
200,248,9034,6,0,B|232:288|288:280,1,90,0|0,0:0|0:0,0:0:0:0:
432,160,9269,2,0,B|392:144|344:160,2,90,8|0|0,0:0|0:0|0:0,0:0:0:0:
488,208,9622,1,8,0:0:0:0:
432,256,9739,2,0,B|368:328|264:304,1,180
200,272,10092,5,0,0:0:0:0:
144,232,10209,2,0,B|96:216|56:232,1,90,8|0,0:0|0:0,0:0:0:0:
232,144,10445,2,0,B|280:128|320:144,2,90,0|8|0,0:0|0:0|0:0,0:0:0:0:
160,136,10797,1,0,0:0:0:0:
104,88,10915,6,0,B|160:16|160:16|248:16,2,180,0|8|0,0:0|0:0|0:0,0:0:0:0:
263,368,11620,2,0,B|352:368|352:368|408:296,1,180,8|0,0:0|0:0,0:0:0:0:
456,240,11973,6,0,B|480:200|464:152,1,90,0|8,0:0|0:0,0:0:0:0:
336,88,12208,2,0,B|312:128|328:176,1,90
352,256,12443,2,0,B|376:304|360:344,2,90,8|0|0,0:0|0:0|0:0,0:0:0:0:
208,232,12796,6,0,B|176:192|184:136,1,90
272,48,13031,2,0,B|312:80|304:128,1,90,8|0,0:0|0:0,0:0:0:0:
280,200,13266,1,0,0:0:0:0:
320,264,13383,1,8,0:0:0:0:
280,328,13501,1,0,0:0:0:0:
208,304,13619,1,0,0:0:0:0:
144,328,13736,6,0,B|56:312,1,90
24,192,13971,2,0,B|112:192,1,90,8|0,0:0|0:0,0:0:0:0:
144,56,14206,2,0,B|56:72,2,90,0|8|0,0:0|0:0|0:0,0:0:0:0:
216,40,14559,1,0,0:0:0:0:
280,64,14677,6,0,B|320:88|328:136,1,90
200,256,14912,2,0,B|160:232|152:184,1,90,8|0,0:0|0:0,0:0:0:0:
272,280,15147,1,0,0:0:0:0:
344,272,15264,1,8,0:0:0:0:
408,240,15382,1,0,0:0:0:0:
448,176,15499,1,0,0:0:0:0:
440,104,15617,6,0,B|416:64|416:64|368:64,1,90
344,176,15852,2,0,B|312:208|312:208|264:208,1,90,8|0,0:0|0:0,0:0:0:0:
200,184,16087,1,0,0:0:0:0:
256,136,16205,1,8,0:0:0:0:
200,96,16322,1,0,0:0:0:0:
144,136,16440,1,0,0:0:0:0:
88,184,16557,6,0,B|64:224|88:272,1,90
320,184,16793,2,0,B|344:144|320:96,1,90,8|0,0:0|0:0,0:0:0:0:
208,304,17028,2,0,B|248:328|296:320,1,90,0|8,0:0|0:0,0:0:0:0:
368,304,17263,1,0,0:0:0:0:
432,264,17380,1,0,0:0:0:0:
464,200,17498,6,0,B|496:112|456:24,2,180,0|8|0,0:0|0:0|0:0,0:0:0:0:
256,192,18203,1,8,0:0:0:0:
104,32,18438,6,0,B|56:40|32:80,1,90
120,280,18673,2,0,B|168:272|192:232,1,90,8|0,0:0|0:0,0:0:0:0:
216,40,18909,2,0,B|176:64|152:112,1,90,0|8,0:0|0:0,0:0:0:0:
296,336,19144,2,0,B|336:312|360:264,1,90
392,208,19379,6,0,B|432:184|432:184|432:48,2,180,0|8|0,0:0|0:0|0:0,0:0:0:0:
256,328,20084,1,8,0:0:0:0:
120,176,20319,2,0,B|80:200|80:200|80:336,2,180,0|8|0,0:0|0:0|0:0,0:0:0:0:
256,56,21025,1,8,0:0:0:0:
256,192,21260,12,0,22905,0:0:0:0:
208,56,23141,6,0,B|168:80|152:128|152:128|200:128|256:264|256:264|312:128|360:128|360:128|344:80|304:56,1,540,0|0,0:0|0:0,0:0:0:0:
120,144,24081,2,0,B|80:176|32:144|32:144|32:232,1,180,0|0,0:0|0:0,0:0:0:0:
392,240,24551,2,0,B|432:208|480:240|480:240|480:152,2,180
256,296,25257,5,0,0:0:0:0:
160,192,25492,1,0,0:0:0:0:
256,80,25727,1,0,0:0:0:0:
344,192,25962,1,0,0:0:0:0:
424,72,26197,6,0,B|344:32,1,90
168,31,26432,2,0,B|88:72,1,90
256,160,26667,1,0,0:0:0:0:
256,160,26902,6,0,B|200:232|312:264|256:328,2,180
168,192,27608,5,0,0:0:0:0:
312,200,27843,2,0,B|368:128|256:96|312:32,2,180
96,192,28548,5,0,0:0:0:0:
408,160,28783,2,0,B|352:232|464:264|408:328,2,180
24,192,29488,5,0,0:0:0:0:
464,200,29724,2,0,B|520:128|408:96|464:32,2,180
256,192,30429,5,0,0:0:0:0:
256,192,30664,8,4,34426,0:0:0:0:
216,48,38188,6,0,B|128:48|128:48|96:88|128:136,1,180,0|8,0:0|0:0,0:0:0:0:
296,336,38658,2,0,B|384:336|384:336|416:296|384:248,1,180,0|8,0:0|0:0,0:0:0:0:
480,40,39128,1,0,0:0:0:0:
216,336,39481,1,0,0:0:0:0:
48,336,39716,1,8,0:0:0:0:
48,336,39833,1,8,0:0:0:0:
296,336,40068,6,0,B|384:336|384:336|416:296|384:248,1,180,0|8,0:0|0:0,0:0:0:0:
216,48,40538,2,0,B|128:48|128:48|96:88|128:136,1,180,0|8,0:0|0:0,0:0:0:0:
32,344,41008,1,0,0:0:0:0:
296,48,41361,1,0,0:0:0:0:
464,48,41596,1,8,0:0:0:0:
464,48,41713,1,8,0:0:0:0:
160,96,41949,6,0,B|112:80|128:8|104:56|104:56|88:8|32:64,1,180,0|8,0:0|0:0,0:0:0:0:
352,96,42420,2,0,B|400:80|384:8|408:56|408:56|424:8|480:64,1,180,0|8,0:0|0:0,0:0:0:0:
256,360,42890,1,0,0:0:0:0:
48,192,43242,1,0,0:0:0:0:
256,192,43478,1,8,0:0:0:0:
256,192,43595,1,8,0:0:0:0:
256,48,43830,5,8,0:0:0:0:
256,336,44300,1,8,0:0:0:0:
176,152,44771,2,0,B|256:80|336:152,3,180,0|2|0|2,0:0|0:0|0:0|0:0,0:0:0:0:
376,288,45711,6,0,B|448:232|448:232|424:216|448:192|448:144,1,180,8|0,0:0|0:0,0:0:0:0:
136,96,46064,2,0,B|64:152|64:152|88:168|64:192|64:240,1,180,8|0,0:0|0:0,0:0:0:0:
296,168,46416,6,0,B|336:144|352:96,1,90,8|0,0:0|0:0,0:0:0:0:
216,168,46651,2,0,B|176:144|160:96,1,90,8|0,0:0|0:0,0:0:0:0:
256,104,46887,2,0,B|256:64,6,30
256,232,47239,5,8,0:0:0:0:
216,296,47357,1,8,0:0:0:0:
152,328,47474,1,0,0:0:0:0:
80,344,47592,6,0,B|24:312|24:312|96:280|56:208,1,180,8|0,0:0|0:0,0:0:0:0:
80,40,47945,2,0,B|24:72|24:72|96:104|56:176,1,180,8|0,0:0|0:0,0:0:0:0:
128,192,48297,6,0,B|216:192,1,90,8|0,0:0|0:0,0:0:0:0:
288,176,48532,6,0,B|320:144|336:112|312:64|264:56|232:80,1,180,8|0,0:0|0:0,0:0:0:0:
392,184,48885,2,0,B|360:216|344:248|368:296|416:304|448:280,1,180,8|8,0:0|0:0,0:0:0:0:
480,216,49238,5,8,0:0:0:0:
480,144,49355,1,0,0:0:0:0:
368,32,49473,6,0,B|312:104|312:104|320:88|296:40|256:48,1,180,8|0,0:0|0:0,0:0:0:0:
144,352,49825,2,0,B|200:280|200:280|192:296|216:344|256:336,1,180,8|0,0:0|0:0,0:0:0:0:
328,344,50178,5,0,0:0:0:0:
360,336,50237,1,0,0:0:0:0:
392,320,50296,1,0,0:0:0:0:
416,296,50354,1,0,0:0:0:0:
440,264,50413,6,0,B|456:224|472:176|416:136|368:168|368:200,1,180,8|0,0:0|0:0,0:0:0:0:
368,200,50766,2,0,B|368:229|320:261|264:221|280:173|296:133,1,180,8|8,0:0|0:0,0:0:0:0:
295,134,51119,2,8,B|304:88|264:56,1,90,8|0,0:0|0:0,0:0:0:0:
128,64,51354,6,0,B|104:72|144:112|144:112|64:104|144:200,1,180,8|0,0:0|0:0,0:0:0:0:
272,328,51706,2,0,B|296:320|256:280|256:280|336:288|256:192,1,180,8|0,0:0|0:0,0:0:0:0:
224,136,52059,5,8,0:0:0:0:
224,136,52177,1,0,0:0:0:0:
224,136,52294,6,0,B|248:96|296:80|336:136|408:112,1,180,8|0,0:0|0:0,0:0:0:0:
288,248,52647,2,8,B|264:288|216:304|176:248|104:272,1,180
256,192,52999,5,8,0:0:0:0:
360,88,53235,6,0,B|392:48|440:40,2,90,8|0|0,0:0|0:0|0:0,0:0:0:0:
328,152,53587,1,8,0:0:0:0:
384,192,53705,1,0,0:0:0:0:
424,248,53822,1,0,0:0:0:0:
424,248,53940,2,0,B|440:288|400:336,1,90,8|0,0:0|0:0,0:0:0:0:
336,360,54175,5,0,0:0:0:0:
336,360,54234,1,0,0:0:0:0:
336,360,54293,1,2,0:0:0:0:
480,48,54528,1,0,0:0:0:0:
336,360,54763,5,0,0:0:0:0:
272,328,54880,1,2,0:0:0:0:
200,328,54998,1,0,0:0:0:0:
128,312,55115,6,0,B|88:288|80:232,1,90,8|0,0:0|0:0,0:0:0:0:
152,232,55351,1,0,0:0:0:0:
152,232,55468,2,0,B|145:182|105:158,1,90,8|0,0:0|0:0,0:0:0:0:
40,128,55703,1,0,0:0:0:0:
96,88,55821,6,0,B|128:56|176:48|224:64|256:104,1,180,8|8,0:0|0:0,0:0:0:0:
312,144,56173,1,0,0:0:0:0:
384,168,56291,5,2,0:0:0:0:
448,208,56409,1,0,0:0:0:0:
384,256,56526,1,2,0:0:0:0:
304,264,56644,1,2,0:0:0:0:
296,256,56702,1,0,0:0:0:0:
288,248,56761,1,0,0:0:0:0:
280,240,56820,1,0,0:0:0:0:
272,232,56879,1,0,0:0:0:0:
264,224,56938,1,0,0:0:0:0:
256,224,56996,6,0,B|208:216|216:288|120:296|96:240,1,180,8|0,0:0|0:0,0:0:0:0:
256,160,57349,2,0,B|304:168|296:96|392:88|416:144,1,180,8|0,0:0|0:0,0:0:0:0:
360,192,57702,1,8,0:0:0:0:
80,48,57937,6,0,B|48:80|128:104|128:104|48:128|80:160,1,180,8|0,0:0|0:0,0:0:0:0:
176,336,58289,2,0,B|208:304|128:280|128:280|208:256|176:224,1,180,8|0,0:0|0:0,0:0:0:0:
176,152,58642,5,8,0:0:0:0:
168,120,58701,1,0,0:0:0:0:
176,88,58760,1,0,0:0:0:0:
200,64,58818,1,0,0:0:0:0:
232,48,58877,6,0,B|280:40|328:48,1,90,8|0,0:0|0:0,0:0:0:0:
384,88,59112,1,0,0:0:0:0:
432,144,59230,2,0,B|384:176|336:144,2,90,8|0|0,0:0|0:0|0:0,0:0:0:0:
464,208,59583,5,8,0:0:0:0:
48,208,59818,1,8,0:0:0:0:
256,32,60170,6,8,B|256:224,1,180
256,288,60523,1,8,0:0:0:0:
256,288,60758,1,4,0:0:0:0:
184,88,61228,6,0,B|120:56|120:56|56:56,1,134.999995976687
0,56,61581,2,0,B|0:128,1,67.4999979883433
512,56,61934,2,0,B|512:128,1,67.4999979883433
512,176,62169,5,2,0:0:0:0:
256,368,62404,1,2,0:0:0:0:
0,176,62639,1,2,0:0:0:0:
256,136,62874,6,0,B|256:64,1,67.4999979883433
256,16,63109,1,0,0:0:0:0:
256,248,63344,2,0,B|256:320,1,67.4999979883433
256,368,63579,1,0,0:0:0:0:
168,192,63815,1,0,0:0:0:0:
112,192,63932,1,0,0:0:0:0:
56,192,64050,5,2,0:0:0:0:
256,64,64285,1,2,0:0:0:0:
456,192,64520,1,2,0:0:0:0:
112,72,64755,5,0,0:0:0:0:
152,112,64872,1,0,0:0:0:0:
192,152,64990,1,0,0:0:0:0:
400,312,65225,1,0,0:0:0:0:
360,272,65342,1,0,0:0:0:0:
320,232,65460,1,0,0:0:0:0:
400,72,65695,1,0,0:0:0:0:
360,112,65812,1,0,0:0:0:0:
320,152,65930,5,2,0:0:0:0:
112,312,66166,1,2,0:0:0:0:
256,344,66401,2,0,B|256:376,22,22.4999993294478,2|0|0|0|0|0|0|0|0|0|0|0|0|0|0|0|0|0|0|0|0|0|0,0:0|0:0|0:0|0:0|0:0|0:0|0:0|0:0|0:0|0:0|0:0|0:0|0:0|0:0|0:0|0:0|0:0|0:0|0:0|0:0|0:0|0:0|0:0,0:0:0:0:
256,312,67341,6,0,B|304:240,1,67.4999979883433
256,72,67576,2,0,B|208:144,1,67.4999979883433,8|0,0:0|0:0,0:0:0:0:
176,272,67811,2,0,B|216:216,1,67.4999979883433
336,112,68046,2,0,B|296:168,1,67.4999979883433,8|0,0:0|0:0,0:0:0:0:
256,40,68282,6,0,B|168:40,1,90,0|0,0:0|0:0,0:0:0:0:
256,344,68517,2,0,B|344:344,1,90
380,104,68752,2,0,B|330:32,1,90
131,279,68987,2,0,B|181:351,1,90
398,243,69222,6,0,B|428:161,1,90
113,140,69457,2,0,B|83:222,1,90
295,338,69692,2,0,B|380:316,1,90
216,45,69927,2,0,B|131:67,1,90
158,308,70162,6,0,B|225:365,1,90
353,75,70397,2,0,B|286:18,1,90
407,205,70633,2,0,B|415:117,1,90
104,178,70868,2,0,B|96:266,1,90
332,323,71103,6,0,B|408:279,1,90
179,60,71338,2,0,B|103:104,1,90
191,329,71573,2,0,B|271:366,1,90
320,54,71808,2,0,B|240:17,1,90
416,256,72043,5,0,0:0:0:0:
96,128,72278,1,0,0:0:0:0:
373,317,72514,1,0,0:0:0:0:
138,66,72749,1,0,0:0:0:0:
309,355,72984,5,0,0:0:0:0:
202,28,73219,1,0,0:0:0:0:
235,363,73454,1,0,0:0:0:0:
276,20,73689,1,0,0:0:0:0:
320,192,73924,6,0,B|352:168|352:168|368:192|368:192|376:176|376:176|384:184|424:200|472:176|464:176,1,180
192,192,74394,2,0,B|160:216|160:216|144:192|144:192|136:208|136:208|128:200|88:184|40:208|48:208,1,180
344,88,74865,6,0,B|344:32|344:32|440:72|448:16,1,180
168,296,75335,2,0,B|168:352|168:352|72:312|64:368,1,180
320,192,75805,6,0,B|408:192,1,90
192,192,76040,2,0,B|104:192,1,90
314,219,76275,2,0,B|393:256,1,90
197,164,76510,2,0,B|118:127,1,90
297,241,76746,6,0,B|353:308,1,90
214,142,76981,2,0,B|158:75,1,90
272,253,77216,2,0,B|295:338,1,90
239,130,77451,2,0,B|216:45,1,90
216,340,77686,6,0,B|239:253,1,90
295,43,77921,2,0,B|272:130,1,90
157,309,78156,2,0,B|214:241,1,90
354,74,78391,2,0,B|297:142,1,90
116,257,78627,6,0,B|197:219,1,90
395,126,78862,2,0,B|314:164,1,90
102,192,79097,2,0,B|192:192,1,90
410,192,79332,2,0,B|320:192,1,90
256,40,79567,5,0,0:0:0:0:
48,192,79802,1,0,0:0:0:0:
256,344,80037,1,0,0:0:0:0:
464,192,80272,1,0,0:0:0:0:
48,104,80507,5,0,0:0:0:0:
464,280,80742,1,0,0:0:0:0:
48,24,80978,1,0,0:0:0:0:
464,360,81213,1,0,0:0:0:0:
48,280,81448,5,0,0:0:0:0:
464,104,81683,1,0,0:0:0:0:
48,360,81919,1,0,0:0:0:0:
464,24,82154,1,0,0:0:0:0:
216,192,82388,6,0,B|192:104|320:104|296:192,2,180
256,360,83329,1,4,0:0:0:0:
264,112,90852,6,0,B|232:80|192:144|136:112,2,135,0|2|0,0:0|0:0|0:0,0:0:0:0:
344,136,91793,1,2,0:0:0:0:
368,168,91910,1,0,0:0:0:0:
376,208,92028,1,0,0:0:0:0:
368,248,92145,1,2,0:0:0:0:
312,304,92380,2,0,B|336:360,2,45
272,288,92733,6,0,B|224:272,1,45,2|0,0:0|0:0,0:0:0:0:
192,256,92968,1,2,0:0:0:0:
160,232,93086,2,0,B|120:200|104:152|128:104,1,135,2|0,0:0|0:0,0:0:0:0:
168,40,93673,1,2,0:0:0:0:
248,40,93909,1,2,0:0:0:0:
248,40,94026,2,0,B|328:48|360:120,1,135,2|0,0:0|0:0,0:0:0:0:
280,128,94614,6,0,B|320:176|320:208|304:256,1,135
232,352,95319,1,2,0:0:0:0:
152,352,95554,1,2,0:0:0:0:
136,320,95672,1,0,0:0:0:0:
120,288,95789,1,0,0:0:0:0:
104,248,95907,2,0,B|104:192,2,45,2|0|2,0:0|0:0|0:0,0:0:0:0:
64,248,96260,6,0,B|16:232|16:176,1,90,2|0,0:0|0:0,0:0:0:0:
16,96,96730,1,0,0:0:0:0:
16,96,96847,1,2,0:0:0:0:
256,40,97435,1,2,0:0:0:0:
256,120,97670,1,0,0:0:0:0:
256,160,97788,1,2,0:0:0:0:
256,240,98023,1,2,0:0:0:0:
288,272,98140,1,0,0:0:0:0:
328,280,98258,1,2,0:0:0:0:
368,272,98376,6,0,B|416:248|432:200,2,90,0|2|0,0:0|0:0|0:0,0:0:0:0:
336,200,99081,2,0,B|336:152,2,45,2|0|2,0:0|0:0|0:0,0:0:0:0:
256,200,99551,2,0,B|168:200,1,90,0|2,0:0|0:0,0:0:0:0:
88,200,100021,1,0,0:0:0:0:
24,152,100257,6,0,B|16:104|64:56|128:88,1,135,2|0,0:0|0:0,0:0:0:0:
152,96,100727,2,0,B|224:112|256:32,1,135,2|0,0:0|0:0,0:0:0:0:
296,32,101197,1,2,0:0:0:0:
368,64,101432,1,0,0:0:0:0:
296,104,101667,1,2,0:0:0:0:
296,104,102137,6,0,B|256:136|272:192,1,90,2|0,0:0|0:0,0:0:0:0:
352,168,102608,2,0,B|392:200|376:256,2,90,0|2|0,0:0|0:0|0:0,0:0:0:0:
304,232,103313,1,0,0:0:0:0:
248,288,103548,2,0,B|152:336|80:256,1,180,2|2,0:0|0:0,0:0:0:0:
112,104,104488,2,0,B|208:56|280:136,1,180,2|2,0:0|0:0,0:0:0:0:
336,184,105194,5,0,0:0:0:0:
368,256,105429,1,0,0:0:0:0:
440,288,105664,2,4,B|440:384,1,90
216,64,113423,6,0,B|176:96|192:152|192:152|112:216,1,180,2|0,0:0|0:0,0:0:0:0:
296,64,114363,2,0,B|336:96|320:152|320:152|400:216,1,180,2|0,0:0|0:0,0:0:0:0:
72,344,115304,2,0,B|0:248|128:176|72:88,1,270
440,40,116244,2,0,B|512:136|384:208|440:296,1,270
200,320,117184,6,0,B|144:240|144:240|176:200|176:160,1,180,2|0,0:0|0:0,0:0:0:0:
312,64,118125,2,0,B|368:144|368:144|336:184|336:224,1,180,2|0,0:0|0:0,0:0:0:0:
216,48,119065,2,0,B|128:24|128:24|96:16|24:16|24:128|96:128,1,270
296,336,120006,2,0,B|384:360|384:360|416:368|488:368|488:256|416:256,1,270,0|8,0:0|0:0,0:0:0:0:
384,232,120829,5,8,0:0:0:0:
336,208,120946,6,0,B|272:184|264:96,1,134.999995976687,4|0,0:0|0:0,0:0:0:0:
176,176,121416,2,0,B|240:200|248:288,1,134.999995976687
368,112,121887,2,0,B|336:48|336:48|392:16,1,134.999995976687
144,272,122357,2,0,B|176:336|176:336|120:368,1,134.999995976687
416,256,122827,5,4,0:0:0:0:
96,128,123062,1,0,0:0:0:0:
312,328,123297,1,0,0:0:0:0:
200,56,123532,1,0,0:0:0:0:
96,256,123767,5,4,0:0:0:0:
416,128,124002,1,0,0:0:0:0:
200,328,124237,1,4,0:0:0:0:
312,56,124472,1,0,0:0:0:0:
256,192,124708,6,0,B|256:328,1,134.999995976687,4|0,0:0|0:0,0:0:0:0:
256,192,125178,2,0,B|160:96,1,134.999995976687
256,192,125648,2,0,B|352:96,1,134.999995976687
480,192,126119,5,0,0:0:0:0:
32,192,126354,1,0,0:0:0:0:
256,352,126589,1,4,0:0:0:0:
208,48,127059,6,0,B|144:72|144:72|112:136,1,134.999995976687
304,48,127529,2,4,B|368:72|368:72|400:136,1,134.999995976687
256,200,127999,1,4,0:0:0:0:
256,208,128235,1,0,0:0:0:0:
256,216,128470,5,0,0:0:0:0:
232,280,128587,1,0,0:0:0:0:
168,304,128705,1,0,0:0:0:0:
96,296,128822,1,0,0:0:0:0:
40,248,128940,6,0,B|8:160,1,90,8|0,0:0|0:0,0:0:0:0:
224,24,129175,2,0,B|256:112,1,90
120,224,129410,2,0,B|120:136,1,90
392,160,129645,2,0,B|392:248,1,90
257,108,129880,2,0,B|288:24,1,90,8|0,0:0|0:0,0:0:0:0:
502,163,130115,2,0,B|472:248,1,90
416,296,130351,6,0,B|256:384|256:384|96:296,1,360,0|8,0:0|0:0,0:0:0:0:
64,240,130938,1,0,0:0:0:0:
48,168,131056,1,0,0:0:0:0:
72,104,131173,1,0,0:0:0:0:
128,56,131291,6,0,B|216:24,1,90
384,328,131526,2,0,B|296:360,1,90
96,280,131761,2,0,B|64:192,1,90,8|0,0:0|0:0,0:0:0:0:
416,104,131996,2,0,B|448:192,1,90
256,48,132231,6,0,B|392:152|88:248|256:352,2,360,0|8|0,0:0|0:0|0:0,0:0:0:0:
184,32,133289,1,0,0:0:0:0:
120,56,133407,6,0,B|48:112,1,90
88,176,133642,2,0,B|160:120,1,90,8|0,0:0|0:0,0:0:0:0:
224,88,133877,1,0,0:0:0:0:
216,160,133995,1,0,0:0:0:0:
280,136,134112,6,0,B|376:136|440:64,1,180
232,248,134583,2,0,B|136:248|72:320,1,180,8|0,0:0|0:0,0:0:0:0:
352,248,135053,6,0,B|352:336,1,90
160,136,135288,2,0,B|160:48,1,90
400,288,135523,2,0,B|400:376,1,90,8|0,0:0|0:0,0:0:0:0:
112,96,135758,2,0,B|112:8,1,90
312,152,135993,5,0,0:0:0:0:
384,136,136111,1,0,0:0:0:0:
440,88,136228,2,0,B|496:16,2,90,0|0|8,0:0|0:0|0:0,0:0:0:0:
456,160,136581,1,0,0:0:0:0:
456,160,136699,6,0,B|464:200|440:248,1,90
56,224,136934,2,0,B|48:184|72:136,1,90
296,336,137169,2,0,B|256:368|256:368|216:368,1,90
216,48,137404,2,0,B|256:16|256:16|296:16,1,90,8|0,0:0|0:0,0:0:0:0:
256,192,137639,1,0,0:0:0:0:
256,192,137757,1,0,0:0:0:0:
160,296,137874,6,0,B|112:296|112:296|80:320,1,90
352,88,138109,2,0,B|400:88|400:88|432:64,1,90
144,136,138344,2,0,B|96:56,1,90,8|0,0:0|0:0,0:0:0:0:
368,248,138579,2,0,B|416:328,1,90
256,120,138815,5,0,0:0:0:0:
184,192,138932,1,0,0:0:0:0:
256,264,139050,1,0,0:0:0:0:
328,192,139167,1,0,0:0:0:0:
256,120,139285,6,0,B|256:32,1,90,8|0,0:0|0:0,0:0:0:0:
256,264,139520,2,0,B|256:352,1,90
104,144,139755,6,0,B|80:112|80:56,1,90
168,272,139990,2,0,B|144:304|144:360,1,90
344,272,140225,2,0,B|368:304|368:360,1,90,8|0,0:0|0:0,0:0:0:0:
408,144,140460,2,0,B|432:112|432:56,1,90
368,16,140695,5,0,0:0:0:0:
296,16,140813,1,0,0:0:0:0:
256,80,140930,1,0,0:0:0:0:
216,16,141048,1,0,0:0:0:0:
144,16,141166,1,8,0:0:0:0:
80,48,141283,1,0,0:0:0:0:
40,112,141401,6,0,B|24:208,1,90
472,112,141636,2,0,B|488:208,1,90
136,152,141871,2,0,B|88:232,1,90
376,152,142106,2,0,B|424:232,1,90,8|0,0:0|0:0,0:0:0:0:
176,256,142341,2,0,B|152:344,1,90
336,256,142576,2,0,B|360:344,1,90
176,128,142811,6,0,B|152:40,1,90
336,128,143046,2,0,B|360:40,1,90,8|0,0:0|0:0,0:0:0:0:
256,280,143282,2,0,B|256:376,2,90,0|0|4,0:0|0:0|0:0,0:0:0:0:
256,40,150570,6,0,B|240:64,5,30
256,40,150805,2,0,B|272:64,5,30
256,40,151040,6,0,B|168:48|128:152,1,180,8|0,0:0|0:0,0:0:0:0:
256,344,151393,2,0,B|344:336|384:232,1,180,8|0,0:0|0:0,0:0:0:0:
312,208,151746,6,0,B|336:160|384:152,1,90,8|0,0:0|0:0,0:0:0:0:
448,128,151981,1,8,0:0:0:0:
408,64,152098,1,0,0:0:0:0:
336,48,152216,2,0,B|320:72,3,30
272,128,152451,2,0,B|248:168|200:184,1,90,2|0,0:0|0:0,0:0:0:0:
152,48,152686,2,0,B|107:62|83:102,1,90,2|0,0:0|0:0,0:0:0:0:
64,176,152921,6,0,B|32:264|32:264|32:352,1,180,8|0,0:0|0:0,0:0:0:0:
448,208,153274,2,0,B|480:120|480:120|480:32,1,180,8|0,0:0|0:0,0:0:0:0:
408,32,153626,6,0,B|320:48,1,90,8|0,0:0|0:0,0:0:0:0:
248,56,153862,1,8,0:0:0:0:
248,56,153979,1,0,0:0:0:0:
200,112,154097,2,0,B|240:144|288:120,1,90,2|0,0:0|0:0,0:0:0:0:
312,272,154332,2,0,B|272:240|224:264,1,90,2|0,0:0|0:0,0:0:0:0:
400,192,154567,2,0,B|488:192,1,90,2|0,0:0|0:0,0:0:0:0:
168,192,154802,6,0,B|80:192|32:88,1,180,8|0,0:0|0:0,0:0:0:0:
168,112,155155,2,0,B|256:112|304:216,1,180,8|0,0:0|0:0,0:0:0:0:
336,280,155507,1,0,0:0:0:0:
352,312,155566,1,0,0:0:0:0:
360,344,155625,1,0,0:0:0:0:
432,344,155742,6,0,B|472:264,1,90,8|0,0:0|0:0,0:0:0:0:
408,32,155978,2,0,B|384:80|384:80|344:80,1,90,2|0,0:0|0:0,0:0:0:0:
104,352,156213,2,0,B|128:304|128:304|168:304,1,90,2|0,0:0|0:0,0:0:0:0:
80,40,156448,2,0,B|40:120,1,90,2|0,0:0|0:0,0:0:0:0:
176,192,156683,6,0,B|256:120|336:192,1,180,8|0,0:0|0:0,0:0:0:0:
280,272,157036,2,0,B|208:192|280:112,1,180,8|0,0:0|0:0,0:0:0:0:
328,56,157388,1,8,0:0:0:0:
400,32,157506,1,0,0:0:0:0:
472,48,157623,6,0,B|480:96|456:136,1,90,8|0,0:0|0:0,0:0:0:0:
400,184,157858,1,2,0:0:0:0:
400,184,157976,1,0,0:0:0:0:
456,232,158094,2,0,B|464:280|464:280|456:320,2,90,10|0|8,0:0|0:0|0:0,0:0:0:0:
400,184,158446,1,0,0:0:0:0:
344,232,158564,6,0,B|304:264|304:264|240:224|176:280,1,180,8|0,0:0|0:0,0:0:0:0:
32,184,158916,2,0,B|72:152|72:152|136:192|200:136,1,180,8|0,0:0|0:0,0:0:0:0:
248,96,159269,5,2,0:0:0:0:
304,48,159387,1,0,0:0:0:0:
376,56,159504,1,2,0:0:0:0:
376,56,159563,1,0,0:0:0:0:
376,56,159622,1,0,0:0:0:0:
376,56,159857,6,0,B|456:104|456:104|424:136|424:184,1,180,2|0,0:0|0:0,0:0:0:0:
432,256,160209,1,2,0:0:0:0:
448,328,160327,1,0,0:0:0:0:
384,352,160445,6,0,B|296:360|256:312|256:312|256:264,1,180,8|0,0:0|0:0,0:0:0:0:
56,352,160797,2,0,B|144:360|184:312|184:312|184:264,1,180,8|0,0:0|0:0,0:0:0:0:
184,200,161150,1,8,0:0:0:0:
152,136,161267,1,0,0:0:0:0:
104,88,161385,6,0,B|64:64|16:64,2,90,8|0|2,0:0|0:0|0:0,0:0:0:0:
168,64,161738,1,0,0:0:0:0:
232,32,161855,1,2,0:0:0:0:
264,24,161914,1,0,0:0:0:0:
296,16,161973,1,0,0:0:0:0:
336,16,162032,1,0,0:0:0:0:
368,16,162090,1,2,0:0:0:0:
440,16,162208,1,0,0:0:0:0:
400,80,162325,6,0,B|384:144|384:144|416:176|416:176|384:208|416:248,1,180,8|0,0:0|0:0,0:0:0:0:
272,352,162678,2,0,B|288:288|288:288|256:256|256:256|288:224|256:184,1,180,8|0,0:0|0:0,0:0:0:0:
184,264,163031,1,8,0:0:0:0:
184,264,163148,1,0,0:0:0:0:
24,176,163266,6,0,B|64:144|64:144|104:176|104:176|184:176,1,180,8|0,0:0|0:0,0:0:0:0:
488,208,163619,2,0,B|448:240|448:240|408:208|408:208|328:208,1,180,8|0,0:0|0:0,0:0:0:0:
330,208,163971,1,8,0:0:0:0:
330,208,164089,1,0,0:0:0:0:
304,96,164206,6,0,B|304:56|304:56|280:72|232:72|208:56|208:56|208:96,1,180,8|0,0:0|0:0,0:0:0:0:
208,288,164559,2,0,B|208:328|208:328|232:312|280:312|304:328|304:328|304:288,1,180,8|0,0:0|0:0,0:0:0:0:
256,192,164912,1,8,0:0:0:0:
256,192,165029,1,0,0:0:0:0:
136,144,165147,6,0,B|96:120|96:56|96:56|56:80|24:48,1,180,8|0,0:0|0:0,0:0:0:0:
376,144,165499,2,0,B|416:120|416:56|416:56|456:80|488:48,1,180,8|0,0:0|0:0,0:0:0:0:
256,32,165852,1,8,0:0:0:0:
256,384,166087,1,4,0:0:0:0:
