osu file format v13

[General]
AudioFilename: 1.Renard - Feel Better.mp3
AudioLeadIn: 1500
PreviewTime: 518
Countdown: 0
SampleSet: Soft
StackLeniency: 0.7
Mode: 0
LetterboxInBreaks: 0
WidescreenStoryboard: 0

[Editor]
Bookmarks: 15324
DistanceSpacing: 1
BeatDivisor: 1
GridSize: 4
TimelineZoom: 1

[Metadata]
Title:Feel Better
TitleUnicode:Feel Better
Artist:Renard
ArtistUnicode:Renard
Creator:Quashqai
Version:Normal
Source:
Tags:breakcore drum lapfox trax queenston vulpvibe records dnb blue dragon nogard priti foreverends broken core songs about love
BeatmapID:449559
BeatmapSetID:187298

[Difficulty]
HPDrainRate:4
CircleSize:3.5
OverallDifficulty:4
ApproachRate:5
SliderMultiplier:0.6
SliderTickRate:1

[Events]
//Background and Video events
0,0,"meow.png",0,0
//Break Periods
2,44917,47181
//Storyboard Layer 0 (Background)
//Storyboard Layer 1 (Fail)
//Storyboard Layer 2 (Pass)
//Storyboard Layer 3 (Foreground)
//Storyboard Sound Samples
//Background Colour Transformations
3,100,163,162,255

[TimingPoints]
748,229.007633587786,4,2,0,40,1,0
30060,-100,4,2,0,10,0,1
30175,-100,4,2,0,75,0,1
44717,-100,4,2,0,75,0,0
48375,-100,4,2,0,40,0,0
63038,-100,4,2,0,5,0,0

[Colours]
Combo1 : 171,171,171
Combo2 : 132,145,179
Combo3 : 197,164,154

[HitObjects]
60,256,748,6,0,B|20:200|48:144|48:144|100:112,1,180,2|2,0:0|0:0,0:0:0:0:
268,44,2122,1,2,0:0:0:0:
256,164,2580,2,0,P|322:154|385:60,2,180,2|0|0,0:0|0:0|0:0,0:0:0:0:
248,284,4412,6,0,B|176:280|148:216|148:216|97:185,1,180,2|2,0:0|0:0,0:0:0:0:
236,68,5786,1,2,0:0:0:0:
352,60,6244,2,0,P|338:133|235:184,2,180,2|0|0,0:0|0:0|0:0,0:0:0:0:
460,112,8076,5,2,0:0:0:0:
424,288,8763,1,2,0:0:0:0:
293,158,9450,1,2,0:0:0:0:
332,44,9908,2,0,B|255:22|193:74|182:113|182:113|144:102|66:126|45:203,1,360,2|0,0:0|0:0,0:0:0:0:
156,244,11740,6,0,B|168:272|196:288|196:288|268:288,1,120,2|0,0:0|0:0,0:0:0:0:
292,240,12427,2,0,P|300:280|420:304,1,180,2|2,0:0|0:0,0:0:0:0:
396,188,13572,1,2,0:0:0:0:
148,124,15404,5,2,0:0:0:0:
104,236,15862,1,2,0:0:0:0:
152,272,16091,2,0,P|224:268|276:308,1,120,0|0,0:3|0:0,0:0:0:0:
320,312,16778,2,0,P|376:328|412:312,1,60,8|0,0:0|0:0,0:0:0:0:
424,296,17236,6,0,B|395:235|395:235|403:187|403:187|363:107,1,180,2|8,0:0|0:0,0:0:0:0:
336,84,18152,1,2,0:0:0:0:
276,88,18381,2,4,B|248:28,2,60,4|4|4,0:0|0:0|0:0,0:0:0:0:
240,140,19068,5,2,0:0:0:0:
120,128,19526,1,0,0:0:0:0:
136,248,19984,2,8,B|165:330|165:330|256:360,1,180,0|4,0:0|0:0,0:0:0:0:
296,320,20900,6,0,B|329:297|339:279|339:279|359:284|399:276,1,120,2|2,0:0|0:0,0:0:0:0:
450,238,21587,1,2,0:0:0:0:
456,180,21816,2,0,P|444:128|340:68,1,180,2|2,0:0|0:0,0:0:0:0:
280,80,22732,6,0,L|244:152,1,60,0|2,0:0|0:0,0:0:0:0:
208,172,23190,2,0,P|160:188|80:164,2,120,0|2|2,0:0|0:0|0:0,0:0:0:0:
244,288,24564,2,0,P|276:268|312:268,1,60,2|8,0:0|0:0,0:0:0:0:
348,232,25022,2,0,P|384:268|412:280,1,60,2|2,0:0|0:0,0:0:0:0:
432,312,25480,2,0,B|484:284|476:224,2,90,2|2|2,0:2|0:0|0:0,0:0:0:0:
380,344,26396,6,0,B|326:357|326:357|254:357|254:357|196:340,1,180,2|2,0:0|0:0,0:0:0:0:
148,328,27312,2,0,P|104:308|76:316,1,60,2|0,0:0|0:0,0:0:0:0:
76,252,27770,2,0,P|116:240|136:216,1,60,0|2,0:0|0:0,0:0:0:0:
184,248,28228,6,0,L|252:252,1,60,4|0,0:0|0:0,0:0:0:0:
292,216,28686,2,0,L|368:220,2,60,0|2|2,0:0|0:0|0:0,0:0:0:0:
248,176,29373,2,0,P|208:156|192:92,1,60,2|0,0:0|0:0,0:0:0:0:
132,236,30060,6,4,B|112:296,2,60,2|2|2,0:0|0:0|0:0,0:0:0:0:
88,196,30747,2,0,P|72:148|108:80,1,120,2|2,0:0|0:0,0:0:0:0:
156,60,31435,1,2,0:0:0:0:
248,136,31893,5,2,0:0:0:0:
300,168,32122,2,0,P|360:184|416:148,1,120,2|2,0:0|0:0,0:0:0:0:
460,128,32809,2,0,L|508:220,2,90,2|2|2,0:0|0:0|0:0,0:0:0:0:
428,80,33725,6,0,P|424:52|452:16,2,60,2|2|2,0:0|0:0|0:0,0:0:0:0:
380,116,34412,2,0,P|332:72|276:60,1,120,0|2,0:0|0:0,0:0:0:0:
228,88,35099,1,2,0:0:0:0:
140,168,35557,6,8,B|92:164|44:204,2,90,2|0|0,0:0|0:0|0:0,0:0:0:0:
164,224,36473,2,0,B|159:281|219:329|295:297,1,180,2|4,0:0|0:0,0:0:0:0:
344,268,37389,6,0,P|352:296|352:328,2,60,2|4|2,0:0|0:0|0:0,0:0:0:0:
400,252,38076,2,0,P|448:240|488:164,1,120,0|0,0:0|0:0,0:0:0:0:
460,132,38763,1,4,0:0:0:0:
368,48,39221,5,2,0:0:0:0:
296,144,39679,1,2,0:0:0:0:
204,68,40137,2,0,B|148:48|148:48|80:48,1,120,0|2,0:0|0:0,0:0:0:0:
52,96,40824,5,4,0:0:0:0:
48,156,41053,2,0,B|0:196,2,60,2|2|2,0:0|0:0|0:0,0:0:0:0:
88,200,41740,2,0,B|88:256|88:256|108:320|176:332,1,180,4|2,0:0|0:0,0:0:0:0:
280,276,42885,5,2,0:0:0:0:
336,296,43114,2,0,P|392:280|424:208,1,120,2|2,0:0|0:0,0:0:0:0:
380,188,43801,2,0,P|352:132|380:76,1,120,0|4,0:0|0:0,0:0:0:0:
420,44,44488,2,0,P|448:48|488:36,1,60,2|0,0:0|0:0,0:0:0:0:
100,236,48381,6,0,B|116:296|76:348|76:348|16:364,2,180,2|2|2,0:0|0:0|0:0,0:0:0:0:
188,156,50213,1,2,0:0:0:0:
348,72,50900,1,0,0:0:0:0:
472,200,51587,1,0,0:0:0:0:
424,308,52045,6,0,P|372:276|360:160,2,180,2|2|2,0:0|0:0|0:0,0:0:0:0:
472,200,53877,1,2,0:0:0:0:
352,64,54564,1,0,0:0:0:0:
192,148,55251,1,0,0:0:0:0:
104,232,55709,6,0,B|88:292|132:344,1,120,2|0,0:0|0:0,0:0:0:0:
192,332,56396,2,0,B|248:304|312:316,1,120,2|0,0:0|0:0,0:0:0:0:
364,340,57083,1,2,0:0:0:0:
436,248,57541,2,0,B|412:208|432:164|432:164|388:120|408:68,2,180,2|0|0,0:0|0:0|0:0,0:0:0:0:
316,248,59373,6,0,B|244:272,2,60,2|0|0,0:0|0:0|0:0,0:0:0:0:
352,200,60060,2,0,P|308:172|216:176,1,120,2|0,0:0|0:0,0:0:0:0:
188,192,60747,2,0,P|144:200|64:168,1,120,2|2,0:0|0:0,0:0:0:0:
256,192,61435,12,0,63038,0:0:0:0:
