osu file format v13

[General]
AudioFilename: 1.Renard - Feel Better.mp3
AudioLeadIn: 1500
PreviewTime: 518
Countdown: 0
SampleSet: Soft
StackLeniency: 0.7
Mode: 0
LetterboxInBreaks: 0
WidescreenStoryboard: 1

[Editor]
Bookmarks: 15324
DistanceSpacing: 1
BeatDivisor: 2
GridSize: 4
TimelineZoom: 1

[Metadata]
Title:Feel Better
TitleUnicode:Feel Better
Artist:Renard
ArtistUnicode:Renard
Creator:Quashqai
Version:Advanced
Source:
Tags:breakcore drum lapfox trax queenston vulpvibe records dnb blue dragon nogard priti foreverends broken core songs about love
BeatmapID:546095
BeatmapSetID:187298

[Difficulty]
HPDrainRate:5
CircleSize:3.5
OverallDifficulty:5
ApproachRate:6
SliderMultiplier:0.8
SliderTickRate:1

[Events]
//Background and Video events
0,0,"meow.png",0,0
//Break Periods
2,44917,47331
//Storyboard Layer 0 (Background)
//Storyboard Layer 1 (Fail)
//Storyboard Layer 2 (Pass)
//Storyboard Layer 3 (Foreground)
//Storyboard Sound Samples
//Background Colour Transformations
3,100,163,162,255

[TimingPoints]
748,229.007633587786,4,2,0,40,1,0
30060,-100,4,2,0,10,0,1
30175,-100,4,2,0,45,0,1
44717,-100,4,2,0,75,0,0
48381,-100,4,2,0,40,0,0
63038,-100,4,2,0,5,0,0

[Colours]
Combo1 : 171,171,171
Combo2 : 132,145,179
Combo3 : 197,164,154

[HitObjects]
92,336,748,6,0,B|72:288|72:288|84:240|84:240|60:172,1,160,2|0,0:0|0:0,0:0:0:0:
32,112,1435,1,2,0:0:0:0:
180,52,1893,1,0,0:0:0:0:
180,52,2122,1,2,0:0:0:0:
276,180,2580,6,0,P|316:212|372:212,2,80,2|0|2,0:0|0:0|0:0,0:0:0:0:
196,172,3267,2,0,L|184:340,1,160,0|2,0:0|0:0,0:0:0:0:
264,340,3954,2,0,P|292:320|352:320,1,80,0|0,0:0|0:0,0:0:0:0:
412,340,4412,6,0,P|464:308|488:204,1,160,2|0,0:0|0:0,0:0:0:0:
440,156,5099,1,2,0:0:0:0:
320,48,5557,1,0,0:0:0:0:
320,48,5786,1,2,0:0:0:0:
192,144,6244,6,0,P|160:152|108:144,2,80,2|0|2,0:0|0:0|0:0,0:0:0:0:
268,116,6931,2,0,P|304:148|320:264,1,160,0|2,0:0|0:0,0:0:0:0:
244,268,7618,2,0,P|204:270|174:295,1,80,0|0,0:0|0:0,0:0:0:0:
108,344,8076,6,0,P|68:304|64:192,1,160,2|0,0:0|0:0,0:0:0:0:
114,146,8763,1,2,0:0:0:0:
240,48,9221,1,0,0:0:0:0:
240,48,9450,1,2,0:0:0:0:
328,184,9908,6,0,P|296:140|304:96,2,80,2|0|2,0:0|0:0|0:0,0:0:0:0:
408,184,10595,2,0,P|384:244|288:252,1,160,0|2,0:0|0:0,0:0:0:0:
234,207,11282,2,0,P|190:195|150:207,1,80,0|0,0:0|0:0,0:0:0:0:
192,276,11740,6,0,L|204:100,1,160,2|0,0:0|0:0,0:0:0:0:
156,52,12427,2,0,P|208:36|284:108,1,160,2|0,0:0|0:0,0:0:0:0:
360,80,13114,2,0,B|380:132|380:132|371:182|371:182|391:233,1,160,2|2,0:0|0:0,0:0:0:0:
388,336,15404,6,0,P|352:312|304:316,1,80,2|2,0:0|0:0,0:0:0:0:
240,288,15862,2,0,P|196:312|148:304,1,80,2|0,0:0|0:3,0:0:0:0:
132,292,16206,1,0,0:0:0:0:
60,334,16435,2,0,P|48:290|72:234,1,80,0|2,0:0|0:0,0:0:0:0:
8,192,16893,2,0,P|-8:168|-8:136,1,40,0|0,0:0|0:0,0:0:0:0:
68,140,17236,6,0,P|120:136|176:80,1,120,2|0,0:0|0:0,0:0:0:0:
192,60,17694,2,0,P|236:80|280:72,1,80,2|8,0:0|0:0,0:0:0:0:
336,116,18152,2,0,P|380:92|456:116,2,120,2|0|4,0:0|0:0|0:0,0:0:0:0:
396,171,19068,6,0,P|400:227|376:271,1,80,2|0,0:0|0:0,0:0:0:0:
324,284,19526,2,0,L|224:276,1,80,0|0,0:0|0:0,0:0:0:0:
204,274,19870,1,2,0:0:0:0:
152,332,20099,2,0,P|124:276|143:231,1,80,2|2,0:0|0:0,0:0:0:0:
76,200,20557,2,0,P|48:188|28:156,1,40,4|0,0:0|0:0,0:0:0:0:
100,124,20900,6,0,P|160:104|220:124,1,120,2|0,0:0|0:0,0:0:0:0:
244,144,21358,2,0,P|280:152|340:140,1,80,2|2,0:0|0:0,0:0:0:0:
388,102,21816,2,0,P|400:158|360:218,2,120,2|0|2,0:0|0:0|0:0,0:0:0:0:
324,52,22732,5,0,0:0:0:0:
244,56,22961,1,2,0:0:0:0:
172,88,23190,2,0,P|136:96|88:80,1,80,0|0,0:0|0:0,0:0:0:0:
72,52,23534,1,0,0:0:0:0:
24,116,23763,2,0,P|20:168|48:216,1,80,2|2,0:0|0:0,0:0:0:0:
80,256,24221,2,0,P|48:272|12:260,1,40,0|8,0:0|0:0,0:0:0:0:
8,344,24564,6,0,B|64:360|64:360|160:344,1,120,2|0,0:0|0:0,0:0:0:0:
164,340,25022,2,0,L|216:328,1,40,2|2,0:0|0:0,0:0:0:0:
216,292,25251,2,0,L|268:280,1,40,2|2,0:0|0:0,0:0:0:0:
292,272,25480,2,0,P|340:296|424:276,2,120,2|2|2,0:2|0:0|0:0,0:0:0:0:
260,200,26396,6,0,B|252:164|252:164|280:72,2,120,2|2|2,0:0|0:0|0:0,0:0:0:0:
180,208,27312,2,0,B|172:152|172:152|196:84,2,120,2|2|2,0:0|0:0|0:0,0:0:0:0:
240,264,28228,2,0,B|288:280|312:328|312:328|344:312|384:308,2,160,4|0|2,0:0|0:0|0:0,0:0:0:0:
164,284,29373,2,0,P|124:292|72:272,2,80,2|6|0,0:0|0:0|0:0,0:0:0:0:
128,212,30060,6,0,P|108:196|92:132,2,80,2|2|2,0:0|0:0|0:0,0:0:0:0:
204,188,30747,2,0,P|244:172|332:248,1,160,2|2,0:0|0:0,0:0:0:0:
252,252,31435,1,2,0:0:0:0:
252,252,31664,1,2,0:0:0:0:
212,328,31893,6,0,P|144:316|84:336,2,120,2|0|2,0:0|0:0|0:0,0:0:0:0:
254,334,32694,1,0,0:0:0:0:
296,328,32809,2,0,P|364:340|440:288,1,160,2|0,0:0|0:0,0:0:0:0:
428,212,33496,1,2,0:0:0:0:
428,212,33610,1,2,0:0:0:0:
428,212,33725,6,0,B|412:176|412:176|420:124,2,80,2|2|2,0:0|0:0|0:0,0:0:0:0:
352,248,34412,2,0,B|320:176|320:176|336:84,1,160,0|2,0:0|0:0,0:0:0:0:
268,48,35099,2,0,P|224:44|176:64,1,80,0|4,0:0|0:0,0:0:0:0:
132,108,35557,6,0,P|96:96|48:16,2,120,2|0|0,0:0|0:0|0:0,0:0:0:0:
160,136,36358,1,0,0:0:0:0:
172,176,36473,2,0,B|160:228|160:228|172:280|172:280|156:336,1,160,2|2,0:0|0:0,0:0:0:0:
240,340,37160,1,4,0:0:0:0:
305,295,37389,6,0,P|337:299|385:335,2,80,2|4|2,0:0|0:0|0:0,0:0:0:0:
296,216,38076,1,0,0:0:0:0:
296,216,38190,2,0,P|276:180|312:64,1,160,0|0,0:0|0:0,0:0:0:0:
432,36,38877,2,0,L|424:108,1,40,0|4,0:0|0:0,0:0:0:0:
416,156,39221,5,2,0:0:0:0:
416,156,39450,1,2,0:0:0:0:
404,240,39679,2,0,L|392:324,1,80,2|2,0:0|0:0,0:0:0:0:
356,336,40022,1,0,0:0:0:0:
316,336,40137,2,0,P|264:304|212:308,1,80,0|0,0:0|0:0,0:0:0:0:
172,328,40595,1,2,0:0:0:0:
92,300,40824,1,4,0:0:0:0:
68,224,41053,6,0,B|60:176|60:176|76:124,1,80,2|2,0:0|0:0,0:0:0:0:
136,76,41511,1,2,0:0:0:0:
200,144,41740,2,0,P|228:176|344:164,1,160,4|0,0:0|0:0,0:0:0:0:
408,104,42427,1,2,0:0:0:0:
456,188,42656,1,2,0:0:0:0:
388,256,42885,6,0,P|344:280|316:320,1,80,2|2,0:0|0:0,0:0:0:0:
236,264,43343,2,0,P|196:252|152:216,1,80,0|2,0:0|0:0,0:0:0:0:
68,232,43801,2,0,P|48:292|64:352,2,120,0|2|2,0:0|0:0|0:0,0:0:0:0:
116,148,44717,1,0,0:0:0:0:
112,144,48381,6,0,B|184:172|184:172|212:124|288:136,1,160,2|0,0:0|0:0,0:0:0:0:
252,216,49068,1,2,0:0:0:0:
344,88,49526,1,0,0:0:0:0:
344,88,49755,1,2,0:0:0:0:
428,224,50213,6,0,L|516:208,2,80,2|0|2,0:0|0:0|0:0,0:0:0:0:
352,244,50900,2,0,P|320:300|212:304,1,160,0|2,0:0|0:0,0:0:0:0:
156,284,51587,2,0,P|100:272|60:288,1,80,0|0,0:0|0:0,0:0:0:0:
28,216,52045,6,0,B|56:180|40:128|40:128|64:104|108:100,1,160,2|0,0:0|0:0,0:0:0:0:
164,148,52732,1,2,0:0:0:0:
240,8,53190,1,0,0:0:0:0:
240,8,53419,1,2,0:0:0:0:
344,128,53877,6,0,L|356:208,1,80,2|0,0:0|0:0,0:0:0:0:
304,268,54335,1,2,0:0:0:0:
304,268,54564,2,0,P|348:288|436:224,1,160,0|2,0:0|0:0,0:0:0:0:
428,152,55251,2,0,L|416:72,1,80,0|0,0:0|0:0,0:0:0:0:
344,36,55709,6,0,P|308:64|192:56,1,160,2|0,0:0|0:0,0:0:0:0:
129,19,56396,1,2,0:0:0:0:
68,168,56854,1,0,0:0:0:0:
68,168,57083,1,2,0:0:0:0:
212,232,57541,6,0,P|256:236|296:280,2,80,2|0|2,0:0|0:0|0:0,0:0:0:0:
224,312,58228,2,0,P|272:336|360:284,1,160,0|2,0:0|0:0,0:0:0:0:
348,208,58915,2,0,P|332:164|344:112,1,80,0|0,0:0|0:0,0:0:0:0:
300,44,59373,5,2,0:0:0:0:
244,100,59602,2,0,P|200:116|140:108,1,80,0|0,0:0|0:0,0:0:0:0:
88,104,60060,2,0,P|132:116|176:236,1,160,2|0,0:0|0:0,0:0:0:0:
164,288,60747,1,2,0:0:0:0:
276,176,61206,1,2,0:0:0:0:
256,192,61320,12,0,63038,0:0:0:0:
