osu file format v14

[General]
AudioFilename: Renard - ENDLESS QUEER.mp3
AudioLeadIn: 0
PreviewTime: 47901
Countdown: 0
SampleSet: Normal
StackLeniency: 0.3
Mode: 0
LetterboxInBreaks: 0
WidescreenStoryboard: 1

[Editor]
Bookmarks: 16068,37401,58734,69401,80067
DistanceSpacing: 1.4
BeatDivisor: 4
GridSize: 4
TimelineZoom: 1

[Metadata]
Title:ENDLESS QUEER
TitleUnicode:ENDLESS QUEER
Artist:Renard
ArtistUnicode:Renard
Creator:Snaggletooth
Version:Collab Normal
Source:
Tags:LAPFOX TRAX FULL TECHNO JACKASS Breakcore Queenston David Remmler Truxton Negaren Hardcore rave fart fartsounds Blue Dragon BD Desperate-kun Nao Come[Back]Home cbh Mao Zetera Sharkie
BeatmapID:707786
BeatmapSetID:306028

[Difficulty]
HPDrainRate:4
CircleSize:3.5
OverallDifficulty:4.5
ApproachRate:5.5
SliderMultiplier:1.1
SliderTickRate:1

[Events]
//Background and Video events
0,0,"Untitled-1.jpg",0,0
//Break Periods
//Storyboard Layer 0 (Background)
//Storyboard Layer 1 (Fail)
//Storyboard Layer 2 (Pass)
//Storyboard Layer 3 (Foreground)
//Storyboard Sound Samples

[TimingPoints]
16068,333.333333333333,4,1,1,60,1,0
48067,-90.9090909090909,4,1,1,60,0,1
69401,-90.9090909090909,4,1,1,60,0,0

[Colours]
Combo1 : 255,70,163
Combo2 : 255,72,72
Combo3 : 255,167,79
Combo4 : 255,255,72
Combo5 : 79,255,79
Combo6 : 102,255,255
Combo7 : 164,72,255
Combo8 : 242,155,255
SliderBorder : 255,255,255

[HitObjects]
128,280,16068,6,0,L|136:164,1,110,4|8,0:0|0:0,0:0:0:0:
228,48,16734,2,0,P|284:52|344:24,1,110,0|8,0:0|0:0,0:0:0:0:
464,116,17401,2,0,B|456:176|456:176|468:272|468:272|456:348,1,220,0|0,0:0|0:0,0:0:0:0:
304,332,18401,2,0,L|244:340,1,55,8|0,0:0|0:0,0:0:0:0:
180,308,18734,6,0,P|184:248|152:208,1,110,0|8,0:0|0:0,0:0:0:0:
168,56,19401,2,0,L|292:48,1,110,0|8,0:0|0:0,0:0:0:0:
416,112,20068,2,0,B|388:176|452:228|452:228|356:276,1,220,0|0,0:0|0:0,0:0:0:0:
220,280,21068,1,8,0:0:0:0:
145,262,21234,1,0,0:0:0:0:
88,208,21401,6,0,P|84:152|108:100,1,110,4|8,0:0|0:0,0:0:0:0:
240,180,22068,2,0,L|368:168,1,110,0|8,0:0|0:0,0:0:0:0:
452,284,22734,2,0,L|324:296,1,110,0|8,0:0|0:0,0:0:0:0:
240,180,23401,1,0,0:0:0:0:
292,36,23734,1,8,0:0:0:0:
140,64,24068,6,0,P|96:104|84:164,1,110,0|8,0:0|0:0,0:0:0:0:
168,280,24734,2,0,B|208:276|208:276|288:288,1,110,0|8,0:0|0:0,0:0:0:0:
432,280,25401,2,0,L|424:168,1,110,0|8,0:0|0:0,0:0:0:0:
312,64,26068,1,0,0:0:0:0:
184,152,26401,1,8,0:0:0:0:
108,164,26568,1,0,0:0:0:0:
32,148,26734,6,0,P|40:88|12:32,2,110,4|8|0,0:0|0:0|0:0,0:0:0:0:
104,284,27734,1,8,0:0:0:0:
244,348,28068,2,0,L|364:340,1,110,0|8,0:0|0:0,0:0:0:0:
464,236,28734,1,0,0:0:0:0:
388,104,29068,1,8,0:0:0:0:
236,132,29401,6,0,P|180:140|116:104,1,110,0|8,0:0|0:0,0:0:0:0:
20,228,30068,2,0,L|40:340,1,110,0|8,0:0|0:0,0:0:0:0:
192,340,30734,2,0,P|225:336|256:344,1,55
392,288,31234,1,0,0:0:0:0:
448,236,31401,2,0,P|444:176|464:120,1,110,0|8,0:0|0:0,0:0:0:0:
332,44,32068,6,0,L|276:56,1,55,4|0,0:0|0:0,0:0:0:0:
236,120,32401,2,0,L|160:112,1,55,8|0,0:0|0:0,0:0:0:0:
116,156,32734,2,0,P|124:212|92:264,1,110,0|8,0:0|0:0,0:0:0:0:
228,340,33401,2,0,P|256:336|284:344,1,55
356,328,33734,2,0,L|352:272,1,55,8|0,0:0|0:0,0:0:0:0:
284,236,34068,2,0,P|316:204|384:204,1,110,0|8,0:0|0:0,0:0:0:0:
396,48,34734,6,0,L|260:40,1,110,0|8,0:0|0:0,0:0:0:0:
216,76,35234,1,0,0:0:0:0:
156,124,35401,2,0,P|140:200|156:244,1,110,0|8,0:0|0:0,0:0:0:0:
204,280,35901,1,0,0:0:0:0:
280,300,36067,2,0,L|360:296,1,55,0|0,0:0|0:0,0:0:0:0:
392,244,36401,2,0,P|384:212|396:176,1,55,8|0,0:0|0:0,0:0:0:0:
336,132,36734,2,0,L|184:140,1,110,0|8,0:0|0:0,0:0:0:0:
108,40,37401,6,0,L|36:47,1,55,4|0,0:0|0:0,0:0:0:0:
50,122,37734,2,0,L|5:169,1,55,0|0,0:0|0:0,0:0:0:0:
43,232,38067,1,2,0:0:0:0:
160,331,38401,1,2,0:0:0:0:
259,213,38734,2,0,L|256:151,1,55
324,121,39067,2,0,L|345:61,1,55,0|0,0:0|0:0,0:0:0:0:
418,56,39401,1,2,0:0:0:0:
481,196,39734,1,2,0:0:0:0:
369,301,40067,6,0,L|355:359,2,55,0|0|0,0:0|0:0|0:0,0:0:0:0:
336,230,40567,1,0,0:0:0:0:
259,213,40734,2,0,P|205:226|166:271,1,110,2|2,0:0|0:0,0:0:0:0:
47,359,41401,2,0,L|40:300,1,55,0|0,0:0|0:0,0:0:0:0:
71,233,41734,2,0,L|64:174,1,55,0|0,0:0|0:0,0:0:0:0:
95,107,42067,2,0,P|149:94|188:49,1,110,2|2,0:0|0:0,0:0:0:0:
336,24,42734,6,0,B|318:46|318:46|325:73|325:73|317:98|317:98|339:116|339:116|345:144|345:144|371:146|371:146|392:166|392:166|424:160,1,220,4|2,0:0|0:0,0:0:0:0:
495,294,43734,1,10,0:0:0:0:
353,353,44067,2,0,P|325:355|299:347,1,55,0|0,0:0|0:0,0:0:0:0:
232,308,44401,2,0,P|211:289|198:265,1,55,8|0,0:0|0:0,0:0:0:0:
186,189,44734,1,2,0:0:0:0:
256,52,45067,1,10,0:0:0:0:
104,23,45401,6,0,L|46:33,1,55,0|0,0:0|0:0,0:0:0:0:
66,107,45734,2,0,L|13:133,1,55,8|0,0:0|0:0,0:0:0:0:
51,200,46067,1,2,0:0:0:0:
4,347,46401,1,10,0:0:0:0:
158,353,46734,2,0,P|186:355|212:347,1,55,0|0,0:0|0:0,0:0:0:0:
280,308,47068,2,0,P|300:289|313:265,1,55,8|0,0:0|0:0,0:0:0:0:
326,189,47401,1,2,0:0:0:0:
256,52,47734,1,8,0:0:0:0:
408,23,48067,6,0,L|475:33,1,60.5000018463135,6|0,0:0|0:0,0:0:0:0:
496,112,48401,2,0,L|429:122,1,60.5000018463135,8|0,0:0|0:0,0:0:0:0:
411,202,48734,2,0,L|478:212,1,60.5000018463135,0|0,0:0|0:0,0:0:0:0:
499,291,49068,2,0,L|432:301,1,60.5000018463135,10|0,0:0|0:0,0:0:0:0:
367,345,49401,2,0,B|321:379|267:356|267:356|256:329,1,121.000003692627,2|8,0:0|0:0,0:0:0:0:
228,263,49901,1,0,0:0:0:0:
195,185,50067,2,0,B|189:170|189:170|135:147|89:181,1,121.000003692627,0|10,0:0|0:0,0:0:0:0:
42,345,50734,6,0,L|96:375,2,60.5000018463135,2|0|8,0:0|0:0|0:0,0:0:0:0:
65,263,51234,1,0,0:0:0:0:
89,181,51401,2,0,L|35:151,2,60.5000018463135,0|0|10,0:0|0:0|0:0,0:0:0:0:
142,20,52067,2,0,P|174:71|235:83,1,121.000003692627,2|8,0:0|0:0,0:0:0:0:
310,55,52567,1,0,0:0:0:0:
299,139,52734,2,0,B|291:229|291:229|306:216|321:216,1,121.000003692627,0|10,0:0|0:0,0:0:0:0:
480,167,53401,6,0,P|491:227|445:286,1,121.000003692627,6|8,0:0|0:0,0:0:0:0:
301,332,54067,2,0,L|174:322,1,121.000003692627,0|10,0:0|0:0,0:0:0:0:
96,312,54567,1,0,0:0:0:0:
44,244,54734,2,0,P|33:184|79:125,1,121.000003692627,2|8,0:0|0:0,0:0:0:0:
139,98,55234,1,0,0:0:0:0:
192,163,55401,2,0,P|203:223|157:282,2,121.000003692627,0|10|2,0:0|0:0|0:0,0:0:0:0:
329,62,56401,6,0,L|393:68,1,60.5000018463135,8|0,0:0|0:0,0:0:0:0:
472,82,56734,2,0,P|421:97|391:162,1,121.000003692627,0|10,0:0|0:0,0:0:0:0:
424,232,57234,1,0,0:0:0:0:
458,309,57401,2,0,B|456:331|437:346|437:346|356:358,1,121.000003692627,2|8,0:0|0:0,0:0:0:0:
281,325,57901,1,0,0:0:0:0:
202,293,58067,2,0,B|125:304|125:304|106:319|104:341,1,121.000003692627,2|8,0:0|0:0,0:0:0:0:
20,192,58734,6,0,L|32:104,1,60.5000018463135,6|0,0:0|0:0,0:0:0:0:
108,104,59067,2,0,L|132:172,1,60.5000018463135,8|0,0:0|0:0,0:0:0:0:
208,188,59401,2,0,L|220:100,1,60.5000018463135,0|0,0:0|0:0,0:0:0:0:
296,100,59734,2,0,L|320:168,1,60.5000018463135,10|0,0:0|0:0,0:0:0:0:
396,188,60067,2,0,L|420:44,1,121.000003692627,2|8,0:0|0:0,0:0:0:0:
344,28,60567,1,0,0:0:0:0:
296,100,60734,2,0,B|264:80|256:40|256:40|192:68,1,121.000003692627,0|10,0:0|0:0,0:0:0:0:
76,156,61401,6,0,P|76:196|88:224,1,60.5000018463135,2|0,0:0|0:0,0:0:0:0:
152,264,61734,2,0,P|192:272|224:268,1,60.5000018463135,8|0,0:0|0:0,0:0:0:0:
276,216,62067,2,0,P|272:176|332:108,1,121.000003692627,0|10,0:0|0:0,0:0:0:0:
404,104,62567,1,0,0:0:0:0:
464,164,62734,2,0,L|456:300,2,121.000003692627,2|8|0,0:0|0:0|0:0,0:0:0:0:
352,36,63734,1,10,0:0:0:0:
200,108,64067,6,0,P|160:120|88:72,1,121.000003692627,6|8,0:0|0:0,0:0:0:0:
64,252,64734,2,0,L|128:276,1,60.5000018463135,0|0,0:0|0:0,0:0:0:0:
176,340,65067,2,0,L|312:332,1,121.000003692627,10|2,0:0|0:0,0:0:0:0:
444,248,65734,1,8,0:0:0:0:
424,164,65901,1,0,0:0:0:0:
372,96,66067,2,0,L|236:104,1,121.000003692627,0|10,0:0|0:0,0:0:0:0:
104,188,66734,6,0,P|76:152|96:60,2,121.000003692627,2|8|0,0:0|0:0|0:0,0:0:0:0:
268,236,67734,2,0,P|304:232|336:244,1,60.5000018463135,10|0,0:0|0:0,0:0:0:0:
372,312,68067,2,0,L|400:168,1,121.000003692627,2|8,0:0|0:0,0:0:0:0:
328,144,68567,1,0,0:0:0:0:
244,152,68734,1,0,0:0:0:0:
172,304,69067,1,10,0:0:0:0:
76,164,69401,6,0,B|43:113|43:113|49:48,1,121.000003692627,6|0,0:0|0:0,0:0:0:0:
133,55,69901,2,0,L|149:128,1,60.5000018463135,0|0,0:0|0:0,0:0:0:0:
256,242,70401,1,0,0:0:0:0:
366,114,70734,2,0,L|379:55,1,60.5000018463135,2|0,0:0|0:0,0:0:0:0:
463,53,71067,2,0,B|469:113|469:113|436:164,1,121.000003692627,0|0,0:0|0:0,0:0:0:0:
340,304,71734,1,0,0:0:0:0:
177,352,72067,6,0,P|126:357|66:303,1,121.000003692627,2|0,0:0|0:0,0:0:0:0:
145,273,72567,1,0,0:0:0:0:
113,194,72734,2,0,P|164:189|224:243,1,121.000003692627,0|0,0:0|0:0,0:0:0:0:
375,165,73401,2,0,P|394:109|371:54,1,121.000003692627,2|0,0:0|0:0,0:0:0:0:
289,35,73901,2,0,L|165:49,1,121.000003692627,0|0,0:0|0:0,0:0:0:0:
84,38,74401,2,0,B|52:41|52:41|23:61,1,60.5000018463135,0|0,0:0|0:0,0:0:0:0:
82,122,74734,5,2,0:0:0:0:
19,279,75067,1,0,0:0:0:0:
178,337,75401,1,0,0:0:0:0:
241,180,75734,2,0,L|175:156,1,60.5000018463135,0|0,0:0|0:0,0:0:0:0:
133,227,76067,2,0,P|153:260|336:253,1,242.000007385254,2|0,0:0|0:0,0:0:0:0:
415,110,77067,1,0,0:0:0:0:
261,37,77401,6,0,B|205:63|205:63|145:57,1,121.000003692627,2|0,0:0|0:0,0:0:0:0:
82,112,77901,1,0,0:0:0:0:
159,146,78067,2,0,B|217:151|217:151|273:125,1,121.000003692627,0|0,0:0|0:0,0:0:0:0:
352,158,78567,1,0,0:0:0:0:
290,214,78734,2,0,B|234:240|234:240|176:235,2,121.000003692627,2|0|0,0:0|0:0|0:0,0:0:0:0:
457,247,79734,5,0,0:0:0:0:
