osu file format v12

[General]
AudioFilename: FULL TECHNO JACKASS - 06 Da Nu Nuttah.mp3
AudioLeadIn: 0
PreviewTime: 41041
Countdown: 1
SampleSet: Soft
StackLeniency: 0.7
Mode: 0
LetterboxInBreaks: 0

[Editor]
DistanceSpacing: 1
BeatDivisor: 4
GridSize: 4

[Metadata]
Title:Da Nu Nuttah
TitleUnicode:Da Nu Nuttah
Artist:Renard
ArtistUnicode:Renard
Creator:GamerX4life
Version:Xtreme
Source:
Tags:Full Techno Jackass Queenston Lapfox Trax raggacore breakcore Shy FX UK Apachi Blue Dragon Static Noise Bird snb jungle
BeatmapID:185784
BeatmapSetID:62665

[Difficulty]
HPDrainRate:8
CircleSize:4
OverallDifficulty:7
ApproachRate:9
SliderMultiplier:2.20000000596046
SliderTickRate:1

[Events]
//Background and Video events
0,0,"bgnuttah.jpg",0,0
//Break Periods
//Storyboard Layer 0 (Background)
//Storyboard Layer 1 (Fail)
//Storyboard Layer 2 (Pass)
//Storyboard Layer 3 (Foreground)
//Storyboard Sound Samples
//Background Colour Transformations
3,100,163,162,255

[TimingPoints]
35989,315.789473684211,4,2,0,55,1,0
41041,-100,4,2,0,70,0,1
61252,-100,4,2,0,70,0,0
101673,-100,4,2,0,70,0,1
131989,-100,4,2,0,70,0,0
158515,-100,4,2,0,5,0,0

[Colours]
Combo1 : 9,142,52
Combo2 : 253,224,19
Combo3 : 213,106,0
Combo4 : 249,0,0

[HitObjects]
196,159,36146,1,0,0:0:0:0:
90,133,36304,1,0,0:0:0:0:
34,227,36462,1,0,0:0:0:0:
103,310,36619,1,8,0:0:0:0:
204,268,36778,2,0,B|233:320|293:342|353:320|382:268,1,220.000000596046
292,204,37251,2,0,B|321:151|381:129|441:151|470:204,1,220.000000596046
268,120,37883,2,0,B|205:126|180:69,1,110.000000298023,8|0,0:0|0:0,0:0:0:0:
260,40,38199,1,0,0:0:0:0:
148,176,38357,1,0,0:0:0:0:
321,204,38673,1,0,0:0:0:0:
256,192,39146,12,0,40410,0:0:0:0:
120,232,41041,6,0,B|180:247|185:309,1,110.000000298023,4|0,0:0|0:0,0:0:0:0:
280,252,41357,2,0,B|305:309|367:302,1,110.000000298023,0|0,0:0|0:0,0:0:0:0:
376,192,41673,2,0,B|412:144,2,55.0000001490115,8|0|0,0:0|0:0|0:0,0:0:0:0:
276,138,41988,1,0,0:0:0:0:
176,92,42146,1,0,0:0:0:0:
104,176,42304,2,0,B|92:208|92:208|46:214|9:260|10:319|43:352,1,220.000000596046
164,352,42778,2,0,B|197:319|198:260|161:214|115:208|115:208|104:176,1,220.000000596046
104,292,43252,1,0,0:0:0:0:
408,292,43567,6,0,B|463:261|452:200,1,110.000000298023,2|0,0:0|0:0,0:0:0:0:
340,204,43883,1,0,0:0:0:0:
104,92,44041,2,0,B|48:122|59:183,1,110.000000298023,0|8,0:0|0:0,0:0:0:0:
172,180,44357,1,0,0:0:0:0:
214,77,44515,1,2,0:0:0:0:
320,44,44673,5,0,0:0:0:0:
347,62,44752,1,0,0:0:0:0:
368,86,44831,1,2,0:0:0:0:
383,115,44910,1,0,0:0:0:0:
392,146,44989,1,0,0:0:0:0:
392,179,45068,1,0,0:0:0:0:
380,210,45147,1,2,0:0:0:0:
364,239,45226,1,0,0:0:0:0:
339,261,45305,1,0,0:0:0:0:
308,274,45384,1,0,0:0:0:0:
275,278,45462,2,0,B|216:288|216:288|180:324,1,110.000000298023,8|8,3:0|3:0,0:0:0:0:
237,106,45778,2,0,B|296:96|296:96|332:60,1,110.000000298023,8|8,3:0|3:0,0:0:0:0:
256,192,46094,5,4,0:0:0:0:
148,200,46252,1,0,0:0:0:0:
72,124,46409,2,0,B|88:64|148:52,1,110.000000298023
312,36,46725,2,0,B|355:79|336:137,1,110.000000298023,8|0,0:0|0:0,0:0:0:0:
268,287,47041,2,0,B|208:303|167:257,1,110.000000298023
72,124,47357,5,0,0:0:0:0:
160,60,47515,1,0,0:0:0:0:
264,96,47673,2,0,B|296:148|356:148,1,110.000000298023
456,192,47989,1,8,0:0:0:0:
356,236,48146,2,0,B|296:236|264:288,1,110.000000298023
160,324,48462,1,0,0:0:0:0:
72,260,48620,6,0,B|63:203|63:203|22:171,1,110.000000298023,2|0,0:0|0:0,0:0:0:0:
124,132,48936,2,0,B|184:176,2,55.0000001490115
388,132,49252,2,0,B|328:176,2,55.0000001490115,8|0|0,0:0|0:0|0:0,0:0:0:0:
256,36,49567,1,2,0:0:0:0:
256,112,49726,5,0,0:0:0:0:
240,140,49805,1,0,0:0:0:0:
224,168,49884,1,2,0:0:0:0:
240,196,49962,1,0,0:0:0:0:
256,224,50041,1,0,0:0:0:0:
272,252,50121,1,0,0:0:0:0:
288,280,50200,1,2,0:0:0:0:
272,308,50278,1,0,0:0:0:0:
256,336,50357,1,0,0:0:0:0:
148,316,50515,5,8,3:0:0:0:
104,127,50673,1,8,3:0:0:0:
270,28,50831,1,8,3:0:0:0:
416,155,50989,1,8,3:0:0:0:
343,331,51147,5,4,0:0:0:0:
248,280,51304,2,0,B|192:256|180:196,1,110.000000298023
176,88,51620,1,0,0:0:0:0:
270,28,51778,1,8,0:0:0:0:
380,44,51936,1,0,0:0:0:0:
270,28,52094,1,0,0:0:0:0:
176,88,52252,1,0,0:0:0:0:
120,180,52409,2,0,B|88:208|88:208|76:260|76:260|144:272|156:344,1,220.000000596046
392,204,52883,2,0,B|424:176|424:176|436:124|436:124|368:112|356:40,1,220.000000596046
256,192,53357,1,0,0:0:0:0:
256,192,53673,5,2,0:0:0:0:
197,100,53831,2,0,B|232:56,2,55.0000001490115
89,123,54146,1,0,0:0:0:0:
148,216,54304,2,0,B|168:272|140:324,1,110.000000298023,8|0,0:0|0:0,0:0:0:0:
244,360,54620,1,0,0:0:0:0:
336,300,54778,2,0,B|392:280|444:308,1,110.000000298023
480,204,55094,1,0,0:0:0:0:
442,100,55252,2,0,B|392:128|336:108,1,110.000000298023
260,28,55567,5,8,3:0:0:0:
109,99,55725,1,8,3:0:0:0:
245,194,55883,1,8,3:0:0:0:
94,265,56041,1,8,3:0:0:0:
230,360,56199,5,4,0:0:0:0:
260,28,56515,1,0,0:0:0:0:
460,120,56831,1,8,0:0:0:0:
384,200,56989,1,0,0:0:0:0:
220,216,57146,1,0,0:0:0:0:
296,136,57304,1,0,0:0:0:0:
260,28,57462,6,0,B|200:36|200:36|160:64,2,110.000000298023
372,36,57936,2,0,B|453:43|496:131|451:199,1,220.000000596046
360,136,58410,1,0,0:0:0:0:
152,248,58567,1,0,0:0:0:0:
60,184,58725,2,0,B|15:252|58:340|140:348,2,220.000000596046,2|0|8,0:0|0:0|0:0,0:0:0:0:
144,112,59515,1,0,0:0:0:0:
256,116,59673,1,0,0:0:0:0:
320,204,59831,1,0,0:0:0:0:
256,292,59989,5,0,0:0:0:0:
192,204,60146,1,0,0:0:0:0:
256,116,60304,1,0,0:0:0:0:
368,112,60462,1,0,0:0:0:0:
416,212,60620,2,0,B|402:270|346:294,1,110.000000298023,8|8,3:0|3:0,0:0:0:0:
163,293,60936,2,0,B|109:270|96:212,1,110.000000298023,8|8,3:0|3:0,0:0:0:0:
256,116,61252,5,4,0:0:0:0:
368,112,61410,1,0,0:0:0:0:
402,116,61489,1,0,0:0:0:0:
430,132,61567,2,0,B|456:150|456:150|451:190|492:217,1,110.000000298023,8|0,0:0|0:0,0:0:0:0:
412,296,61883,2,0,B|380:344,1,55.0000001490115
332,312,62041,2,0,B|285:346,1,55.0000001490115
251,299,62199,2,0,B|196:316|196:316|148:292,2,110.000000298023,0|0|8,0:0|0:0|0:0,0:0:0:0:
200,200,62673,2,0,B|183:145|183:145|207:97,2,110.000000298023,0|0|8,0:0|0:0|0:0,0:0:0:0:
299,149,63146,1,0,0:0:0:0:
372,64,63304,1,0,0:0:0:0:
409,169,63462,2,0,B|404:232|456:264,1,110.000000298023,8|0,0:0|0:0,0:0:0:0:
452,296,63699,1,0,0:0:0:0:
428,320,63778,6,0,B|366:306|327:353,1,110.000000298023,8|8,0:0|0:0,0:0:0:0:
57,262,64094,1,0,0:0:0:0:
60,296,64173,1,0,0:0:0:0:
84,320,64252,2,0,B|145:306|184:353,1,110.000000298023,8|0,0:0|0:0,0:0:0:0:
256,268,64567,2,0,B|256:208,2,55.0000001490115,0|0|8,0:0|0:0|0:0,0:0:0:0:
148,240,64883,1,0,0:0:0:0:
364,240,65041,5,0,0:0:0:0:
256,52,65199,1,8,0:0:0:0:
148,75,65357,1,0,0:0:0:0:
118,90,65436,1,0,0:0:0:0:
91,109,65515,1,0,0:0:0:0:
69,134,65594,1,0,0:0:0:0:
55,163,65673,2,0,B|20:216|40:268,1,110.000000298023,8|8,3:0|3:0,0:0:0:0:
204,330,65988,2,0,B|155:303|148:240,1,110.000000298023,8|8,3:0|3:0,0:0:0:0:
417,288,66304,6,0,B|335:303|268:238,1,165.000000447034,12|0,3:0|0:0,0:0:0:0:
267,237,66620,1,0,0:0:0:0:
188,160,66778,1,8,0:0:0:0:
292,128,66936,1,0,0:0:0:0:
318,110,67015,1,0,0:0:0:0:
352,101,67094,1,0,0:0:0:0:
385,98,67173,1,0,0:0:0:0:
418,109,67252,2,0,B|468:144|468:144|480:192,1,110.000000298023,8|0,0:0|0:0,0:0:0:0:
344,320,67567,6,0,B|294:285|294:285|282:237,1,110.000000298023,0|8,0:0|0:0,0:0:0:0:
292,128,67883,2,0,B|264:76,1,55.0000001490115
220,112,68041,2,0,B|165:90,1,55.0000001490115
154,146,68199,2,0,B|48:181,1,110.000000298023,8|0,0:0|0:0,0:0:0:0:
12,284,68515,1,0,0:0:0:0:
96,356,68673,1,0,0:0:0:0:
358,238,68831,6,0,B|463:202,1,110.000000298023,8|8,0:0|0:0,0:0:0:0:
500,100,69146,1,0,0:0:0:0:
416,28,69304,1,8,0:0:0:0:
312,64,69462,2,0,B|272:108|212:104,1,110.000000298023
200,320,69778,2,0,B|240:276|300:280,1,110.000000298023,8|0,0:0|0:0,0:0:0:0:
408,292,70094,6,0,B|464:316,2,55.0000001490115,0|0|8,0:0|0:0|0:0,0:0:0:0:
380,184,70409,2,0,B|324:160,2,55.0000001490115
336,80,70725,5,8,3:0:0:0:
174,81,70883,1,8,3:0:0:0:
125,235,71041,1,8,3:0:0:0:
257,329,71199,1,8,3:0:0:0:
387,233,71357,5,12,3:0:0:0:
336,80,71515,1,0,0:0:0:0:
312,60,71594,1,0,0:0:0:0:
280,56,71673,2,0,B|216:52|173:82,1,110.000000298023,0|8,0:0|0:0,0:0:0:0:
361,280,71988,2,0,B|397:227|392:175,1,110.000000298023
126,239,72304,2,0,B|154:296|202:318,1,110.000000298023,8|0,0:0|0:0,0:0:0:0:
256,192,72620,5,0,0:0:0:0:
272,164,72699,1,0,0:0:0:0:
280,132,72778,1,8,0:0:0:0:
280,100,72857,1,0,0:0:0:0:
272,68,72936,2,0,B|216:56|216:56|164:72,1,110.000000298023
28,164,73252,2,0,B|84:176|84:176|136:160,1,110.000000298023,8|8,0:0|0:0,0:0:0:0:
165,71,73567,1,0,0:0:0:0:
134,160,73725,1,0,0:0:0:0:
164,268,73883,6,0,P|224:344|336:320,1,220.000000596046
268,232,74357,1,8,0:0:0:0:
372,196,74515,2,0,P|312:120|202:141,1,220.000000596046,0|8,0:0|0:0,0:0:0:0:
120,344,75146,2,0,P|140:360|168:364,1,55.0000001490115
120,344,75304,2,0,P|100:328|72:324,1,55.0000001490115,8|0,0:0|0:0,0:0:0:0:
120,344,75462,2,0,P|156:296|160:248,1,110.000000298023
256,192,75778,1,8,3:0:0:0:
352,136,75936,2,0,P|356:88|392:40,2,110.000000298023,0|8|0,0:0|3:0|0:0,0:0:0:0:
256,192,76410,5,12,3:0:0:0:
160,136,76567,1,0,0:0:0:0:
132,120,76646,1,0,0:0:0:0:
116,92,76725,2,0,P|80:48|28:36,1,110.000000298023,0|8,0:0|0:0,0:0:0:0:
196,28,77041,2,0,P|266:114|369:138,1,220.000000596046,0|8,0:0|0:0,0:0:0:0:
396,244,77515,1,0,0:0:0:0:
312,313,77673,6,0,P|215:271|107:300,1,220.000000596046,4|0,3:0|0:0,0:0:0:0:
148,196,78146,1,8,0:0:0:0:
364,188,78304,1,0,0:0:0:0:
252,84,78462,1,0,0:0:0:0:
260,300,78620,1,8,0:0:0:0:
260,300,78778,1,0,0:0:0:0:
260,300,78936,6,0,B|216:336|216:336|160:344,1,110.000000298023,4|0,3:0|0:0,0:0:0:0:
60,308,79252,1,0,0:0:0:0:
36,200,79410,1,8,0:0:0:0:
252,84,79567,6,0,B|296:48|296:48|352:40,1,110.000000298023,4|0,3:0|0:0,0:0:0:0:
452,76,79883,1,8,0:0:0:0:
476,184,80041,1,0,0:0:0:0:
260,300,80199,6,0,B|216:336|216:336|160:344,1,110.000000298023,4|0,3:0|0:0,0:0:0:0:
136,236,80515,1,0,0:0:0:0:
376,148,80673,1,8,0:0:0:0:
134,85,80831,1,0,0:0:0:0:
377,298,80989,1,0,0:0:0:0:
256,192,81146,1,8,0:0:0:0:
256,192,81304,1,0,0:0:0:0:
48,260,81462,6,0,P|72:312|56:360,1,110.000000298023,4|0,0:0|0:0,0:0:0:0:
176,244,81778,2,0,P|152:192|168:144,1,110.000000298023
252,72,82094,1,8,0:0:0:0:
360,44,82252,1,0,0:0:0:0:
456,100,82409,2,0,B|476:144|476:144|452:172|452:172|496:240|440:296,2,220.000000596046
360,44,83199,1,0,0:0:0:0:
252,72,83357,2,0,P|216:30|161:18,1,110.000000298023,8|0,0:0|0:0,0:0:0:0:
132,124,83673,2,0,P|82:146|29:135,1,110.000000298023
32,248,83988,6,0,P|85:237|134:259,1,110.000000298023,2|0,0:0|0:0,0:0:0:0:
163,365,84304,2,0,P|216:353|252:312,1,110.000000298023
304,212,84620,1,8,0:0:0:0:
388,140,84778,1,0,0:0:0:0:
408,248,84936,1,0,0:0:0:0:
304,212,85094,1,0,0:0:0:0:
216,144,85251,2,0,B|176:104|176:104|120:92,2,110.000000298023
120,200,85725,1,0,0:0:0:0:
23,256,85883,2,0,B|63:296|63:296|116:308,2,110.000000298023,8|0|0,0:0|0:0|0:0,0:0:0:0:
120,200,86357,1,0,0:0:0:0:
216,144,86515,5,2,0:0:0:0:
324,160,86673,1,0,0:0:0:0:
408,232,86830,2,0,P|400:288|361:328,2,110.000000298023,0|0|8,0:0|0:0|0:0,0:0:0:0:
300,244,87304,1,0,0:0:0:0:
256,344,87462,1,0,0:0:0:0:
212,244,87620,1,0,0:0:0:0:
104,232,87778,6,0,P|111:288|150:328,1,110.000000298023
212,244,88094,2,0,P|204:187|165:147,1,110.000000298023
72,96,88410,1,8,0:0:0:0:
18,194,88567,1,0,0:0:0:0:
117,249,88725,1,0,0:0:0:0:
170,149,88883,1,0,0:0:0:0:
264,92,89041,6,0,P|356:32|456:60,2,220.000000596046,2|0|8,0:0|0:0|0:0,0:0:0:0:
368,128,89831,1,0,0:0:0:0:
416,228,89989,1,0,0:0:0:0:
96,228,90146,1,0,0:0:0:0:
144,128,90304,2,0,B|192:96|192:96|244:92,1,110.000000298023
208,196,90620,2,0,B|265:202|265:202|307:232,1,110.000000298023
213,289,90936,2,0,B|252:330|252:330|265:381,2,110.000000298023,8|0|0,0:0|0:0|0:0,0:0:0:0:
307,232,91410,1,0,0:0:0:0:
256,64,91567,5,4,0:0:0:0:
136,192,91725,1,0,0:0:0:0:
80,284,91883,2,0,B|104:312|104:312|144:312|160:352,1,110.000000298023
256,300,92199,1,8,0:0:0:0:
352,352,92357,2,0,B|368:312|408:312|408:312|432:284,2,110.000000298023
256,300,92831,1,0,0:0:0:0:
148,108,93146,1,0,0:0:0:0:
368,110,93462,1,8,0:0:0:0:
471,144,93620,1,0,0:0:0:0:
471,253,93778,1,0,0:0:0:0:
366,284,93936,1,0,0:0:0:0:
302,197,94094,6,0,P|248:168|200:176,1,110.000000298023,2|0,0:0|0:0,0:0:0:0:
84,308,94409,2,0,P|138:337|186:329,1,110.000000298023
292,307,94725,1,8,0:0:0:0:
302,197,94883,1,0,0:0:0:0:
418,58,95041,1,0,0:0:0:0:
408,168,95199,1,0,0:0:0:0:
324,96,95357,2,0,P|264:88|228:52,1,110.000000298023
68,56,95673,2,0,L|184:116,1,110.000000298023
260,232,95988,2,0,P|225:198|165:190,2,110.000000298023,8|0|0,0:0|0:0|0:0,0:0:0:0:
312,328,96462,1,0,0:0:0:0:
424,328,96620,5,4,0:0:0:0:
476,232,96778,1,0,0:0:0:0:
424,136,96936,2,0,L|344:60,1,110.000000298023
272,144,97252,1,8,0:0:0:0:
272,144,97409,2,0,P|164:108|72:148,1,220.000000596046
240,240,97883,2,0,P|348:276|440:236,2,220.000000596046,0|0|8,0:0|0:0|0:0,0:0:0:0:
156,168,98673,1,0,0:0:0:0:
116,64,98831,1,0,0:0:0:0:
396,64,98989,1,0,0:0:0:0:
356,168,99146,6,0,P|372:224|416:247,1,110.000000298023,2|0,0:0|0:0,0:0:0:0:
336,324,99462,1,0,0:0:0:0:
256,248,99620,1,0,0:0:0:0:
256,137,99778,2,0,L|256:25,2,110.000000298023,8|0|0,0:0|0:0|0:0,0:0:0:0:
256,248,100252,1,0,0:0:0:0:
176,324,100410,5,0,0:0:0:0:
99,247,100567,2,0,P|143:223|156:168,2,110.000000298023
52,148,101041,1,8,3:0:0:0:
32,124,101120,1,8,3:0:0:0:
20,92,101199,1,8,3:0:0:0:
28,60,101278,1,8,3:0:0:0:
52,36,101357,1,8,3:0:0:0:
83,26,101436,1,8,3:0:0:0:
116,26,101515,1,8,3:0:0:0:
145,40,101594,1,8,3:0:0:0:
163,67,101673,6,0,B|212:128|212:128|256:108|296:140,1,165.000000447034,4|0,0:0|0:0,0:0:0:0:
320,156,101989,1,0,0:0:0:0:
404,224,102146,1,0,0:0:0:0:
303,262,102304,2,0,P|247:270|211:314,1,110.000000298023,8|0,0:0|0:0,0:0:0:0:
320,156,102620,2,0,P|376:148|412:104,1,110.000000298023
303,262,102936,6,0,P|207:318|119:272,1,220.000000596046
172,16,103409,2,0,P|136:108|202:198,1,220.000000596046
438,56,103883,2,0,P|342:29|260:104,1,220.000000596046,0|2,0:0|0:0,0:0:0:0:
202,198,104357,5,0,0:0:0:0:
203,308,104515,1,0,0:0:0:0:
297,252,104673,1,0,0:0:0:0:
202,198,104830,2,0,L|99:161,2,110.000000298023,8|0|2,0:0|0:0|0:0,0:0:0:0:
297,252,105304,5,0,0:0:0:0:
328,264,105383,1,0,0:0:0:0:
360,264,105462,1,2,0:0:0:0:
392,256,105541,1,0,0:0:0:0:
420,240,105620,1,0,0:0:0:0:
439,213,105699,1,0,0:0:0:0:
445,180,105778,1,2,0:0:0:0:
435,148,105857,1,0,0:0:0:0:
410,125,105936,1,0,0:0:0:0:
377,118,106015,1,0,0:0:0:0:
344,120,106094,1,8,3:0:0:0:
311,127,106173,1,0,0:0:0:0:
281,141,106252,1,8,3:0:0:0:
255,162,106331,1,0,0:0:0:0:
235,188,106410,1,8,3:0:0:0:
222,218,106489,1,0,0:0:0:0:
216,250,106567,1,8,3:0:0:0:
215,283,106646,1,0,0:0:0:0:
220,315,106725,5,4,0:0:0:0:
120,356,106883,1,0,0:0:0:0:
134,248,107041,2,0,L|80:152,1,110.000000298023
432,152,107357,2,0,L|378:248,1,110.000000298023,8|0,0:0|0:0,0:0:0:0:
392,356,107673,1,0,0:0:0:0:
292,315,107831,1,0,0:0:0:0:
256,212,107988,6,0,B|157:153|250:90|152:31,1,220.000000596046
360,31,108462,2,0,B|261:90|354:153|256:212,1,220.000000596046
200,308,108936,1,0,0:0:0:0:
312,308,109094,1,0,0:0:0:0:
416,268,109252,2,0,P|468:228|480:184,1,110.000000298023,2|0,0:0|0:0,0:0:0:0:
360,32,109567,2,0,P|308:72|296:116,1,110.000000298023
352,348,109883,2,0,P|404:308|416:264,1,110.000000298023,8|0,0:0|0:0,0:0:0:0:
296,112,110199,2,0,P|244:152|236:192,1,110.000000298023
226,226,110436,5,0,0:0:0:0:
213,257,110515,1,2,0:0:0:0:
200,288,110594,1,0,0:0:0:0:
187,319,110673,1,0,0:0:0:0:
174,350,110752,1,0,0:0:0:0:
140,351,110831,1,2,0:0:0:0:
106,352,110910,1,0,0:0:0:0:
73,353,110989,1,0,0:0:0:0:
39,355,111068,1,0,0:0:0:0:
5,357,111146,1,8,3:0:0:0:
68,264,111304,2,0,B|96:232|96:232|84:200|108:168,1,110.000000298023,8|8,3:0|3:0,0:0:0:0:
256,92,111620,1,8,3:0:0:0:
404,168,111778,6,0,B|428:200|416:232|416:232|444:264,1,110.000000298023,4|0,0:0|0:0,0:0:0:0:
372,348,112094,1,0,0:0:0:0:
264,324,112252,1,0,0:0:0:0:
224,220,112409,2,0,P|236:112|332:72,1,220.000000596046,8|0,0:0|0:0,0:0:0:0:
324,180,112883,1,0,0:0:0:0:
424,140,113041,6,0,P|412:248|316:288,1,220.000000596046
88,140,113515,2,0,P|100:248|196:288,1,220.000000596046
348,96,113988,2,0,P|256:44|164:96,1,220.000000596046,0|2,0:0|0:0,0:0:0:0:
180,204,114462,1,0,0:0:0:0:
256,284,114620,1,0,0:0:0:0:
332,204,114778,1,0,0:0:0:0:
363,309,114936,6,0,P|412:344|460:336,2,110.000000298023,8|0|0,0:0|0:0|0:0,0:0:0:0:
256,284,115410,1,0,0:0:0:0:
149,309,115567,2,0,P|100:344|52:336,2,110.000000298023
72,228,116041,1,0,0:0:0:0:
108,124,116199,2,0,B|128:76|128:76|173:52|173:52|231:88|279:32,1,220.000000596046,8|8,3:0|3:0,0:0:0:0:
256,192,116673,1,8,3:0:0:0:
234,349,116830,6,0,B|280:295|338:331|338:331|383:307|383:307|404:260,1,220.000000596046,4|0,0:0|0:0,0:0:0:0:
252,104,117462,1,8,0:0:0:0:
310,260,117620,1,0,0:0:0:0:
171,168,117778,1,0,0:0:0:0:
338,161,117936,1,0,0:0:0:0:
207,265,118094,6,0,P|128:316|28:256,1,220.000000596046
120,196,118567,2,0,L|116:86,2,110.000000298023,0|8|0,0:0|0:0|0:0,0:0:0:0:
268,20,119041,2,0,L|272:132,1,110.000000298023
427,185,119357,6,0,L|423:72,1,110.000000298023,2|0,0:0|0:0,0:0:0:0:
462,290,119673,2,0,P|367:289|316:184,1,220.000000596046,0|8,0:0|0:0,0:0:0:0:
308,76,120146,1,0,0:0:0:0:
216,20,120304,1,0,0:0:0:0:
108,48,120462,1,0,0:0:0:0:
48,140,120620,5,0,0:0:0:0:
80,244,120778,1,0,0:0:0:0:
176,296,120936,1,0,0:0:0:0:
284,284,121094,1,0,0:0:0:0:
364,208,121252,2,0,B|400:171|400:171|392:162|392:162|426:128,1,110.000000298023,8|8,3:0|3:0,0:0:0:0:
260,124,121567,2,0,B|264:72|264:72|252:71|252:71|256:23,1,110.000000298023,8|8,3:0|3:0,0:0:0:0:
126,126,121883,6,0,B|96:83|96:83|86:90|86:90|58:50,1,110.000000298023,4|0,0:0|0:0,0:0:0:0:
126,126,122199,2,0,P|196:196|180:312,1,220.000000596046,0|8,0:0|0:0,0:0:0:0:
280,356,122673,1,0,0:0:0:0:
420,216,122831,1,0,0:0:0:0:
293,367,122989,1,0,0:0:0:0:
406,204,123146,6,0,P|331:116|376:30,1,220.000000596046
140,33,123620,2,0,P|180:116|106:204,1,220.000000596046
344,292,124094,2,0,B|296:276|256:228|256:228|216:276|168:292,1,220.000000596046,0|2,0:0|0:0,0:0:0:0:
168,291,124567,5,0,0:0:0:0:
168,291,124883,1,0,0:0:0:0:
76,232,125041,1,8,0:0:0:0:
68,124,125199,1,0,0:0:0:0:
148,48,125357,1,0,0:0:0:0:
256,32,125515,1,0,0:0:0:0:
364,48,125673,5,0,0:0:0:0:
444,124,125831,1,0,0:0:0:0:
436,232,125989,1,0,0:0:0:0:
343,291,126147,1,0,0:0:0:0:
256,224,126304,2,0,P|208:160|208:76,2,165.000000447034,0|0|8,0:0|0:0|3:0,0:0:0:0:
316,132,126936,6,0,P|392:219|362:314,1,220.000000596046,4|0,0:0|0:0,0:0:0:0:
144,73,127567,2,0,P|119:164|196:252,1,220.000000596046,8|0,0:0|0:0,0:0:0:0:
300,288,128041,1,0,0:0:0:0:
408,292,128199,6,0,P|464:276|496:236,1,110.000000298023
404,176,128515,2,0,P|426:122|415:72,1,110.000000298023
312,112,128831,1,8,0:0:0:0:
204,88,128989,1,0,0:0:0:0:
104,128,129146,2,0,P|54:158|34:206,1,110.000000298023
408,256,129462,6,0,P|458:226|478:178,1,110.000000298023,2|0,0:0|0:0,0:0:0:0:
304,78,129778,2,0,P|274:28|226:8,1,110.000000298023
208,306,130094,2,0,P|238:356|286:376,1,110.000000298023,8|0,0:0|0:0,0:0:0:0:
396,368,130410,1,0,0:0:0:0:
428,356,130489,1,0,0:0:0:0:
454,337,130567,1,0,0:0:0:0:
469,307,130646,1,0,0:0:0:0:
474,274,130725,6,0,P|462:214|422:182,1,110.000000298023
318,158,131041,1,0,0:0:0:0:
208,164,131199,1,0,0:0:0:0:
136,248,131357,2,0,L|68:336,1,110.000000298023,8|8,3:0|3:0,0:0:0:0:
376,136,131673,2,0,L|444:48,1,110.000000298023,8|8,3:0|3:0,0:0:0:0:
256,192,131989,5,4,0:0:0:0:
256,84,132146,2,0,B|176:72|176:72|116:136|48:96,1,220.000000596046
51,286,132620,2,0,B|116:248|176:312|176:312|256:300,1,220.000000596046,8|0,0:0|0:0,0:0:0:0:
356,104,133252,6,0,B|404:140|404:140|412:192,1,110.000000298023
384,296,133567,1,0,0:0:0:0:
296,364,133725,1,0,0:0:0:0:
188,368,133883,2,0,B|128:364|128:364|92:326,1,110.000000298023,8|0,0:0|0:0,0:0:0:0:
60,224,134199,1,0,0:0:0:0:
48,116,134357,1,0,0:0:0:0:
104,20,134514,2,0,B|156:52|156:52|220:44|220:44|200:96|240:128,2,220.000000596046,2|0|8,0:0|0:0|0:0,0:0:0:0:
60,224,135462,1,0,0:0:0:0:
136,304,135620,6,0,L|244:272,1,110.000000298023
376,80,135936,2,0,L|268:112,1,110.000000298023
136,304,136252,2,0,P|144:244|116:204,1,110.000000298023,0|8,0:0|3:0,0:0:0:0:
376,80,136567,2,0,P|368:140|396:180,1,110.000000298023,8|8,3:0|3:0,0:0:0:0:
117,205,136883,1,8,3:0:0:0:
394,178,137041,5,4,0:0:0:0:
380,288,137199,2,0,P|332:352|204:340,1,220.000000596046
244,180,137673,2,0,P|116:168|68:232,1,220.000000596046,8|0,0:0|0:0,0:0:0:0:
68,344,138146,1,0,0:0:0:0:
165,288,138304,1,0,0:0:0:0:
68,232,138462,1,0,0:0:0:0:
48,121,138620,1,0,0:0:0:0:
120,34,138778,1,0,0:0:0:0:
228,20,138936,2,0,P|288:32|324:64,1,110.000000298023,8|0,0:0|0:0,0:0:0:0:
468,112,139252,2,0,P|427:157|381:173,1,110.000000298023
268,273,139567,6,0,P|248:215|258:167,1,110.000000298023,2|0,0:0|0:0,0:0:0:0:
256,136,139804,1,0,0:0:0:0:
226,129,139883,2,0,P|177:129|124:99,2,110.000000298023,0|0|8,0:0|0:0|0:0,0:0:0:0:
208,20,140357,1,0,0:0:0:0:
316,24,140515,2,0,L|404:92,1,110.000000298023
379,115,140752,1,0,0:0:0:0:
354,138,140830,2,0,L|441:205,2,110.000000298023
228,316,141462,1,8,3:0:0:0:
112,168,141620,1,8,3:0:0:0:
206,328,141778,1,8,3:0:0:0:
133,155,141936,1,8,3:0:0:0:
183,335,142094,6,0,B|112:368|112:368|24:360,1,165.000000447034,4|8,0:0|0:0,0:0:0:0:
25,360,142410,1,8,0:0:0:0:
92,272,142567,1,8,0:0:0:0:
192,228,142725,1,2,0:0:0:0:
224,216,142804,1,0,0:0:0:0:
252,196,142883,1,0,0:0:0:0:
272,168,142962,1,0,0:0:0:0:
284,136,143041,2,0,P|316:84|360:60,1,110.000000298023,8|2,0:0|0:0,0:0:0:0:
392,56,143278,1,0,0:0:0:0:
424,60,143357,1,0,0:0:0:0:
452,80,143436,1,0,0:0:0:0:
464,112,143515,1,8,0:0:0:0:
440,220,143673,6,0,L|424:276,1,55.0000001490115,2|0,0:0|0:0,0:0:0:0:
376,248,143831,2,0,L|346:297,1,55.0000001490115
306,258,143988,2,0,P|245:286|203:285,1,110.000000298023,8|8,0:0|0:0,0:0:0:0:
232,180,144304,1,2,0:0:0:0:
228,148,144383,1,0,0:0:0:0:
224,116,144462,1,0,0:0:0:0:
196,98,144541,1,0,0:0:0:0:
169,80,144620,1,8,0:0:0:0:
64,52,144778,1,8,0:0:0:0:
91,156,144936,5,2,0:0:0:0:
88,188,145015,1,0,0:0:0:0:
96,220,145094,2,0,P|128:271|175:288,1,110.000000298023,8|0,0:0|0:0,0:0:0:0:
421,156,145410,1,2,0:0:0:0:
424,188,145489,1,0,0:0:0:0:
416,220,145567,2,0,P|383:271|336:288,1,110.000000298023,8|2,0:0|0:0,0:0:0:0:
307,295,145804,5,0,0:0:0:0:
275,283,145883,1,0,0:0:0:0:
255,259,145962,1,0,0:0:0:0:
243,227,146041,1,8,0:0:0:0:
49,219,146200,1,2,0:0:0:0:
72,196,146278,1,0,0:0:0:0:
99,175,146357,1,0,0:0:0:0:
129,169,146436,1,0,0:0:0:0:
163,175,146515,1,8,0:0:0:0:
267,11,146674,1,2,0:0:0:0:
276,42,146752,1,0,0:0:0:0:
280,76,146831,1,0,0:0:0:0:
271,105,146910,1,0,0:0:0:0:
248,132,146989,1,8,0:0:0:0:
156,72,147146,5,8,0:0:0:0:
67,271,147383,2,0,L|49:219,1,55.0000001490115,8|8,0:0|0:0,0:0:0:0:
156,72,147620,1,8,0:0:0:0:
248,132,147778,2,0,L|296:160,1,55.0000001490115,2|0,0:0|0:0,0:0:0:0:
300,216,147936,2,0,L|342:251,1,55.0000001490115
336,307,148093,1,8,0:0:0:0:
96,216,148252,2,0,L|96:160,1,55.0000001490115,2|0,0:0|0:0,0:0:0:0:
142,128,148410,2,0,L|151:73,1,55.0000001490115
203,52,148567,1,8,0:0:0:0:
244,304,148725,2,0,L|195:331,1,55.0000001490115,2|0,0:0|0:0,0:0:0:0:
144,308,148883,2,0,L|91:326,1,55.0000001490115
48,294,149041,1,8,0:0:0:0:
48,294,149199,1,8,0:0:0:0:
64,184,149357,5,2,0:0:0:0:
80,156,149436,1,0,0:0:0:0:
104,132,149515,1,0,0:0:0:0:
136,120,149594,1,0,0:0:0:0:
168,112,149673,2,0,P|220:96|256:56,1,110.000000298023,8|8,0:0|0:0,0:0:0:0:
256,192,149989,1,2,0:0:0:0:
256,192,150067,1,0,0:0:0:0:
256,192,150146,1,8,0:0:0:0:
256,328,150304,2,0,P|292:288|344:272,2,110.000000298023,2|0|8,0:0|0:0|0:0,0:0:0:0:
148,360,150778,5,2,0:0:0:0:
116,368,150857,1,0,0:0:0:0:
84,372,150936,1,0,0:0:0:0:
52,364,151015,1,0,0:0:0:0:
24,344,151094,2,0,B|16:288|16:288|32:236,1,110.000000298023,8|2,0:0|0:0,0:0:0:0:
48,208,151331,1,0,0:0:0:0:
72,184,151410,1,0,0:0:0:0:
100,168,151489,1,0,0:0:0:0:
132,168,151567,1,8,0:0:0:0:
240,192,151725,1,2,0:0:0:0:
258,166,151804,1,0,0:0:0:0:
277,140,151883,2,0,L|312:91,2,55.0000001490115,0|0|8,0:0|0:0|0:0,0:0:0:0:
48,208,152199,6,0,P|60:296|120:336,1,165.000000447034,8|8,0:0|0:0,0:0:0:0:
152,344,152515,1,8,0:0:0:0:
156,236,152673,1,8,0:0:0:0:
152,128,152831,1,2,0:0:0:0:
140,96,152910,1,0,0:0:0:0:
124,68,152989,1,0,0:0:0:0:
92,60,153067,1,0,0:0:0:0:
60,56,153146,1,8,0:0:0:0:
452,56,153304,1,2,0:0:0:0:
420,60,153383,1,0,0:0:0:0:
388,68,153462,1,0,0:0:0:0:
372,96,153541,1,0,0:0:0:0:
360,128,153620,1,8,0:0:0:0:
192,304,153778,5,2,0:0:0:0:
224,316,153857,1,0,0:0:0:0:
256,324,153936,1,0,0:0:0:0:
288,316,154015,1,0,0:0:0:0:
320,304,154094,2,0,B|376:280|376:280|396:232,1,110.000000298023,8|8,0:0|0:0,0:0:0:0:
245,168,154410,2,0,L|288:204,2,55.0000001490115,2|0|0,0:0|0:0|0:0,0:0:0:0:
220,147,154646,1,0,0:0:0:0:
196,126,154725,2,0,L|110:54,1,110.000000298023,8|8,0:0|0:0,0:0:0:0:
256,24,155041,1,2,0:0:0:0:
400,55,155199,2,0,L|316:126,1,110.000000298023,8|2,0:0|0:0,0:0:0:0:
292,147,155436,5,0,0:0:0:0:
266,168,155515,2,0,L|224:204,2,55.0000001490115,0|0|8,0:0|0:0|0:0,0:0:0:0:
176,360,155831,1,2,0:0:0:0:
169,328,155910,1,0,0:0:0:0:
164,295,155989,2,0,L|153:240,2,55.0000001490115,0|0|8,0:0|0:0|0:0,0:0:0:0:
42,121,156304,1,2,0:0:0:0:
73,130,156383,1,0,0:0:0:0:
105,143,156462,2,0,L|157:161,2,55.0000001490115,0|0|8,0:0|0:0|0:0,0:0:0:0:
136,36,156778,1,2,0:0:0:0:
168,32,156857,1,0,0:0:0:0:
200,28,156936,1,0,0:0:0:0:
232,24,157015,1,0,0:0:0:0:
264,20,157094,1,8,0:0:0:0:
372,28,157252,6,0,P|352:92|264:132,1,165.000000447034,8|8,0:0|0:0,0:0:0:0:
236,132,157567,1,8,0:0:0:0:
100,308,157725,1,8,0:0:0:0:
320,337,157883,1,2,0:0:0:0:
352,328,157962,1,0,0:0:0:0:
376,304,158041,2,0,B|386:300|386:300|389:297|389:297|396:293|396:293|399:290|399:290|403:283|403:283|399:280|399:280|396:276|396:276|396:273|396:273|396:269|396:269|399:266|399:266|410:263|410:263|410:256|410:256|403:249|403:249|396:242|396:242|403:236|403:236|410:225|410:225|410:215|410:215|423:215|423:215|430:205|430:205|447:208|447:208|454:198|454:198|467:195|467:195|471:188|471:188|464:184|464:184|464:178|464:178|454:178|454:178|447:171|447:171|444:161|444:161|447:154|447:154|447:140|447:140|457:130|457:130|450:120|450:120|464:110|464:110|457:93|457:93,1,330.000000894069
