osu file format v12

[General]
AudioFilename: FULL TECHNO JACKASS - 06 Da Nu Nuttah.mp3
AudioLeadIn: 0
PreviewTime: 41041
Countdown: 1
SampleSet: Soft
StackLeniency: 0.7
Mode: 0
LetterboxInBreaks: 0

[Editor]
DistanceSpacing: 0.5
BeatDivisor: 4
GridSize: 4

[Metadata]
Title:Da Nu Nuttah
TitleUnicode:Da Nu Nuttah
Artist:Renard
ArtistUnicode:Renard
Creator:GamerX4life
Version:Nogard
Source:
Tags:Full Techno Jackass Queenston Lapfox Trax raggacore breakcore Shy FX UK Apachi Blue Dragon Static Noise Bird snb jungle
BeatmapID:205282
BeatmapSetID:62665

[Difficulty]
HPDrainRate:6
CircleSize:4
OverallDifficulty:8
ApproachRate:9
SliderMultiplier:1.80000000596046
SliderTickRate:1

[Events]
//Background and Video events
0,0,"bgnuttah.jpg",0,0
//Break Periods
//Storyboard Layer 0 (Background)
//Storyboard Layer 1 (Fail)
//Storyboard Layer 2 (Pass)
//Storyboard Layer 3 (Foreground)
//Storyboard Sound Samples
//Background Colour Transformations
3,100,163,162,255

[TimingPoints]
35989,315.789473684211,4,2,0,40,1,0
41041,-80,4,2,0,80,0,1
61252,-100,4,2,0,70,0,0
81146,-200,4,2,0,70,0,0
81462,-100,4,2,0,70,0,0
101041,-100,4,3,0,80,0,0
101673,-80,4,2,0,100,0,1
131989,-100,4,2,0,70,0,0

[Colours]
Combo1 : 9,142,52
Combo2 : 253,224,19
Combo3 : 213,106,0
Combo4 : 249,0,0

[HitObjects]
404,272,36146,5,2,0:0:0:0:
328,316,36304,1,0,0:0:0:0:
256,372,36462,1,0,0:0:0:0:
184,316,36620,1,0,0:0:0:0:
108,272,36778,6,0,P|124:180|88:96,1,180.000000596046,2|0,0:0|0:0,0:0:0:0:
419,101,37252,2,0,P|388:180|404:272,1,180.000000596046,2|0,0:0|0:0,0:0:0:0:
212,40,37883,1,2,0:0:0:0:
184,125,38041,1,0,0:0:0:0:
256,178,38199,1,0,0:0:0:0:
329,125,38357,1,2,0:0:0:0:
301,40,38515,1,0,0:0:0:0:
256,100,38673,5,0,0:0:0:0:
256,192,39146,12,8,40725,0:0:0:0:
316,288,41041,6,4,B|348:296|364:312|364:312|396:264|460:260,1,168.750000558793,4|0,0:0|0:0,0:0:0:0:
481,280,41357,2,0,P|448:228|452:180,1,112.500000372529,2|0,0:0|0:0,0:0:0:0:
476,40,41673,1,2,0:0:0:0:
452,56,41752,1,0,0:0:0:0:
424,64,41831,1,0,0:0:0:0:
396,64,41910,1,0,0:0:0:0:
368,60,41989,2,0,P|320:40|260:44,1,112.500000372529,8|0,0:0|0:0,0:0:0:0:
228,216,42304,6,4,P|288:180|300:132,1,112.500000372529,4|0,0:0|0:0,0:0:0:0:
168,80,42620,1,0,0:0:0:0:
152,244,42778,6,4,P|92:280|80:328,1,112.500000372529,4|0,0:0|0:0,0:0:0:0:
212,380,43094,1,0,0:0:0:0:
336,300,43252,1,4,0:0:0:0:
476,348,43410,1,0,0:0:0:0:
488,196,43567,6,2,B|452:148|452:148|452:92,1,112.500000372529
288,24,43883,2,2,B|324:72|324:72|324:128,1,112.500000372529
292,268,44199,1,0,0:0:0:0:
156,320,44357,1,0,0:0:0:0:
24,260,44515,1,0,0:0:0:0:
12,116,44673,5,2,0:0:0:0:
39,109,44751,1,0,0:0:0:0:
67,107,44830,1,2,0:0:0:0:
94,114,44909,1,0,0:0:0:0:
119,126,44988,1,0,0:0:0:0:
144,139,45067,1,0,0:0:0:0:
171,146,45146,1,2,0:0:0:0:
199,146,45225,1,0,0:0:0:0:
226,139,45304,1,0,0:0:0:0:
256,132,45383,1,0,0:0:0:0:
285,139,45462,1,2,0:0:0:0:
312,146,45541,1,0,0:0:0:0:
340,146,45620,1,2,0:0:0:0:
367,139,45699,1,0,0:0:0:0:
392,126,45778,1,2,0:0:0:0:
417,114,45857,1,0,0:0:0:0:
444,107,45936,1,2,0:0:0:0:
472,109,46015,1,0,0:0:0:0:
500,116,46094,6,4,P|512:176|492:228,1,112.500000372529,4|0,0:0|0:0,0:0:0:0:
368,300,46410,1,8,0:0:0:0:
492,376,46567,1,0,0:0:0:0:
408,188,46725,1,2,0:0:0:0:
380,180,46804,1,0,0:0:0:0:
352,180,46883,1,0,0:0:0:0:
324,188,46962,1,0,0:0:0:0:
300,204,47041,6,0,P|256:240|200:252,1,112.500000372529,8|0,0:0|0:0,0:0:0:0:
28,356,47357,1,4,0:0:0:0:
108,232,47515,1,0,0:0:0:0:
28,28,47673,1,0,0:0:0:0:
28,28,47831,1,4,0:0:0:0:
108,152,47989,1,0,0:0:0:0:
248,192,48146,2,4,P|292:224|348:224,2,112.500000372529,0|4|0,0:0|0:0|0:0,0:0:0:0:
208,52,48620,5,2,0:0:0:0:
352,36,48778,1,0,0:0:0:0:
484,100,48936,1,0,0:0:0:0:
484,284,49094,1,0,0:0:0:0:
352,348,49252,1,0,0:0:0:0:
208,332,49410,1,2,0:0:0:0:
152,192,49567,1,0,0:0:0:0:
208,52,49725,5,2,0:0:0:0:
232,40,49804,1,0,0:0:0:0:
260,32,49883,1,2,0:0:0:0:
288,28,49962,1,0,0:0:0:0:
316,28,50041,1,0,0:0:0:0:
344,28,50120,1,0,0:0:0:0:
372,32,50199,1,2,0:0:0:0:
400,40,50278,1,0,0:0:0:0:
424,52,50357,1,0,0:0:0:0:
448,68,50436,1,0,0:0:0:0:
468,88,50515,6,0,P|488:132|484:196,1,112.500000372529,0|2,0:0|0:0,0:0:0:0:
336,344,50831,2,0,P|316:300|320:236,1,112.500000372529,8|2,0:0|0:0,0:0:0:0:
36,316,51146,6,4,B|64:272|64:272|104:296|104:296|128:264|164:260,1,168.750000558793,4|0,0:0|0:0,0:0:0:0:
188,276,51462,2,0,P|156:224|152:168,1,112.500000372529,0|2,0:0|0:0,0:0:0:0:
236,80,51778,1,0,0:0:0:0:
264,80,51857,1,0,0:0:0:0:
292,72,51936,1,0,0:0:0:0:
316,60,52015,1,0,0:0:0:0:
336,40,52094,2,0,B|352:96|352:96|404:116,1,112.500000372529,8|2,0:0|0:0,0:0:0:0:
432,280,52410,6,4,P|488:228|476:88,1,225.000000745057,4|0,0:0|0:0,0:0:0:0:
336,40,52883,2,4,P|280:92|292:232,1,225.000000745057,4|0,0:0|0:0,0:0:0:0:
384,164,53357,1,4,0:0:0:0:
256,308,53515,1,0,0:0:0:0:
128,164,53673,6,0,P|144:108|128:56,1,112.500000372529,2|0,0:0|0:0,0:0:0:0:
100,192,53910,1,0,0:0:0:0:
72,224,53989,2,0,P|56:280|72:332,1,112.500000372529,2|0,0:0|0:0,0:0:0:0:
200,260,54304,1,4,0:0:0:0:
300,364,54462,1,0,0:0:0:0:
360,232,54620,1,8,0:0:0:0:
468,328,54778,1,0,0:0:0:0:
488,104,54936,6,0,B|432:92|432:120|376:104,1,112.500000372529,2|0,0:0|0:0,0:0:0:0:
24,104,55252,2,0,B|80:92|80:120|136:104,1,112.500000372529,2|0,0:0|0:0,0:0:0:0:
220,192,55567,2,8,P|256:274|292:192,1,225.000000745057
256,52,56041,1,0,0:0:0:0:
208,340,56199,6,4,P|256:352|360:296,1,168.750000558793,4|0,0:0|0:0,0:0:0:0:
372,276,56515,2,8,P|380:212|364:160,1,112.500000372529,8|0,0:0|0:0,0:0:0:0:
144,166,56831,2,8,P|132:212|140:276,2,112.500000372529,2|0|8,0:0|0:0|0:0,0:0:0:0:
256,120,57304,1,0,0:0:0:0:
432,112,57462,5,2,0:0:0:0:
256,20,57620,1,0,0:0:0:0:
80,112,57778,1,2,0:0:0:0:
80,272,57936,5,2,0:0:0:0:
256,364,58094,1,0,0:0:0:0:
432,272,58252,1,2,0:0:0:0:
432,112,58410,2,0,P|400:72|336:44,1,112.500000372529
332,152,58725,2,2,P|240:144|212:24,1,225.000000745057
80,112,59199,1,0,0:0:0:0:
180,232,59357,2,2,P|272:240|300:360,1,225.000000745057
188,348,59831,5,0,0:0:0:0:
368,252,59989,1,2,0:0:0:0:
128,172,60146,1,0,0:0:0:0:
384,76,60304,1,0,0:0:0:0:
80,32,60462,2,8,P|12:72|4:208,1,225.000000745057,8|0,0:0|0:0,0:0:0:0:
100,268,60936,2,0,P|112:328|92:376,1,112.500000372529,8|0,0:0|0:0,0:0:0:0:
188,348,61252,6,0,L|188:300,2,45.0000001490115,4|0|0,0:0|0:0|0:0,0:0:0:0:
276,364,61567,1,8,0:0:0:0:
364,348,61725,1,0,0:0:0:0:
452,360,61883,2,0,P|468:316|452:276,1,90.000000298023,2|0,0:0|0:0,0:0:0:0:
412,132,62199,2,0,P|396:176|412:216,1,90.000000298023,2|0,0:0|0:0,0:0:0:0:
376,64,62515,1,8,0:0:0:0:
292,28,62673,1,0,0:0:0:0:
252,108,62831,2,8,B|212:128|212:128|172:108,1,90.000000298023
64,136,63146,1,0,0:0:0:0:
24,64,63304,2,8,B|64:44|64:44|104:64,2,90.000000298023,8|8|0,0:0|0:0|0:0,0:0:0:0:
16,204,63778,5,8,0:0:0:0:
68,276,63936,1,8,0:0:0:0:
84,364,64094,1,0,0:0:0:0:
104,356,64173,1,0,0:0:0:0:
124,348,64252,2,0,P|168:360|212:348,1,90.000000298023,8|0,0:0|0:0,0:0:0:0:
256,208,64567,1,0,0:0:0:0:
388,312,64725,2,0,P|344:300|300:312,1,90.000000298023,8|0,0:0|0:0,0:0:0:0:
220,100,65041,6,2,P|256:35|292:100,1,180.000000596046,2|0,0:0|0:0,0:0:0:0:
256,208,65515,1,0,0:0:0:0:
152,140,65673,2,2,P|136:84|140:52,1,90.000000298023
372,53,65989,2,2,P|376:84|360:140,1,90.000000298023
256,208,66304,6,4,P|168:244|144:276,1,135.000000447034,4|0,0:0|0:0,0:0:0:0:
128,260,66620,2,4,B|136:304|136:304|128:348,1,90.000000298023,8|0,0:0|0:0,0:0:0:0:
8,300,66936,2,4,B|0:256|0:256|8:212,1,90.000000298023,8|0,0:0|0:0,0:0:0:0:
20,192,67173,1,0,0:0:0:0:
8,172,67252,1,8,0:0:0:0:
40,88,67410,1,0,0:0:0:0:
112,36,67567,6,0,L|208:48,1,90.000000298023,2|0,0:0|0:0,0:0:0:0:
400,100,67883,2,0,L|304:88,1,90.000000298023,8|0,0:0|0:0,0:0:0:0:
108,72,68199,2,0,L|204:63,1,90.000000298023,2|0,0:0|0:0,0:0:0:0:
403,74,68515,2,0,L|306:82,1,90.000000298023,8|0,0:0|0:0,0:0:0:0:
120,104,68831,2,0,P|168:164|160:264,1,180.000000596046,2|0,0:0|0:0,0:0:0:0:
100,328,69304,1,0,0:0:0:0:
56,172,69462,6,0,B|24:136|24:136|24:88,1,90.000000298023,2|0,0:0|0:0,0:0:0:0:
180,32,69778,2,0,B|212:68|212:68|212:116,1,90.000000298023,2|0,0:0|0:0,0:0:0:0:
228,124,70015,1,0,0:0:0:0:
248,136,70094,2,0,P|296:144|336:136,1,90.000000298023,2|0,0:0|0:0,0:0:0:0:
480,52,70410,2,0,P|432:44|392:52,1,90.000000298023,2|0,0:0|0:0,0:0:0:0:
464,156,70725,1,0,0:0:0:0:
328,236,70883,1,0,0:0:0:0:
512,316,71041,1,0,0:0:0:0:
280,384,71199,1,0,0:0:0:0:
280,384,71357,6,4,B|248:352|248:352|208:368|208:368|156:360|144:312,1,180.000000596046,4|0,0:0|0:0,0:0:0:0:
120,224,71831,1,0,0:0:0:0:
168,148,71989,2,0,B|216:140|216:140|260:164,1,90.000000298023,2|0,0:0|0:0,0:0:0:0:
84,144,72304,2,0,B|36:152|36:152|-8:128,1,90.000000298023,2|0,0:0|0:0,0:0:0:0:
44,52,72620,1,2,0:0:0:0:
64,44,72699,1,0,0:0:0:0:
84,40,72778,1,2,0:0:0:0:
108,36,72857,1,0,0:0:0:0:
132,36,72936,6,2,P|184:52|224:48,1,90.000000298023
380,120,73252,2,2,P|328:104|288:108,1,90.000000298023
216,152,73567,1,0,0:0:0:0:
172,232,73725,1,0,0:0:0:0:
200,316,73883,6,4,L|272:260,1,90.000000298023,4|0,0:0|0:0,0:0:0:0:
424,224,74199,1,0,0:0:0:0:
360,288,74357,1,0,0:0:0:0:
400,136,74515,2,0,P|356:148|312:136,1,90.000000298023,2|0,0:0|0:0,0:0:0:0:
356,56,74831,2,0,P|400:44|444:56,1,90.000000298023,2|0,0:0|0:0,0:0:0:0:
268,60,75146,1,0,0:0:0:0:
248,72,75225,1,0,0:0:0:0:
228,84,75304,1,0,0:0:0:0:
208,96,75383,1,0,0:0:0:0:
188,108,75462,6,0,P|136:124|104:112,1,90.000000298023,8|0,0:0|0:0,0:0:0:0:
60,32,75778,2,0,P|112:16|144:28,1,90.000000298023,8|0,0:0|0:0,0:0:0:0:
240,188,76094,1,8,0:0:0:0:
120,240,76252,1,8,0:0:0:0:
0,188,76410,5,12,0:0:0:0:
24,300,76567,2,0,P|40:344|24:384,2,90.000000298023,0|2|0,0:0|0:0|0:0,0:0:0:0:
120,240,77041,2,2,P|112:136|60:76,1,180.000000596046
0,188,77515,1,0,0:0:0:0:
248,260,77673,5,4,0:0:0:0:
272,256,77752,1,0,0:0:0:0:
292,248,77831,1,0,0:0:0:0:
312,236,77910,1,0,0:0:0:0:
328,220,77989,2,0,P|348:176|344:136,1,90.000000298023,8|0,0:0|0:0,0:0:0:0:
160,132,78304,2,0,P|184:169|225:186,1,90.000000298023,8|0,0:0|0:0,0:0:0:0:
312,32,78620,2,0,P|263:36|231:60,1,90.000000298023,8|0,0:0|0:0,0:0:0:0:
328,220,78936,6,4,B|396:276|396:276|396:376,1,180.000000596046,12|0,0:0|0:0,0:0:0:0:
308,384,79410,1,0,0:0:0:0:
236,328,79567,1,4,0:0:0:0:
164,384,79725,1,0,0:0:0:0:
92,328,79883,2,0,P|44:320|4:328,1,90.000000298023,2|0,0:0|0:0,0:0:0:0:
164,268,80199,6,4,P|112:192|112:104,1,180.000000596046,4|0,0:0|0:0,0:0:0:0:
352,36,80673,1,0,0:0:0:0:
160,36,80831,1,2,0:0:0:0:
399,104,80989,1,0,0:0:0:0:
256,140,81146,6,0,L|256:232,1,90.000000298023,0|4,0:0|0:0,0:0:0:0:
320,336,81620,5,0,0:0:0:0:
336,320,81699,1,0,0:0:0:0:
352,304,81778,2,0,P|396:280|436:288,1,90.000000298023,2|0,0:0|0:0,0:0:0:0:
496,224,82094,1,0,0:0:0:0:
420,176,82252,1,0,0:0:0:0:
476,108,82410,2,0,L|504:16,1,90.000000298023,2|0,0:0|0:0,0:0:0:0:
388,92,82725,2,0,P|340:136|368:248,1,180.000000596046,8|0,0:0|0:0,0:0:0:0:
420,176,83199,1,0,0:0:0:0:
328,24,83357,2,0,P|292:52|264:92,1,90.000000298023,2|0,0:0|0:0,0:0:0:0:
240,176,83673,2,0,P|246:221|266:265,1,90.000000298023,2|0,0:0|0:0,0:0:0:0:
320,332,83989,6,0,P|404:376|488:360,2,180.000000596046,8|0|2,0:0|0:0|0:0,0:0:0:0:
260,264,84778,1,0,0:0:0:0:
192,384,84936,1,0,0:0:0:0:
136,316,85094,1,2,0:0:0:0:
52,376,85252,6,0,B|16:348|16:348|16:304,1,90.000000298023,2|0,0:0|0:0,0:0:0:0:
40,172,85567,2,0,B|76:200|76:200|76:244,1,90.000000298023,2|0,0:0|0:0,0:0:0:0:
28,96,85883,1,2,0:0:0:0:
136,80,86041,1,2,0:0:0:0:
244,64,86199,1,2,0:0:0:0:
352,48,86357,1,2,0:0:0:0:
460,32,86515,6,4,B|488:72|488:72|488:160,1,135.000000447034,4|0,0:0|0:0,0:0:0:0:
500,180,86831,2,8,P|460:160|412:160,1,90.000000298023,8|0,0:0|0:0,0:0:0:0:
328,188,87146,1,0,0:0:0:0:
300,272,87304,1,0,0:0:0:0:
336,352,87462,1,8,0:0:0:0:
424,372,87620,1,0,0:0:0:0:
508,332,87778,6,0,L|460:248,1,90.000000298023,2|0,0:0|0:0,0:0:0:0:
456,100,88094,2,0,L|504:184,1,90.000000298023,8|0,0:0|0:0,0:0:0:0:
328,112,88410,5,0,0:0:0:0:
416,16,88567,1,0,0:0:0:0:
244,36,88725,2,0,P|200:56|156:56,1,90.000000298023,8|0,0:0|0:0,0:0:0:0:
20,36,89041,2,0,P|92:80|100:172,1,180.000000596046,0|8,0:0|0:0,0:0:0:0:
40,236,89515,1,0,0:0:0:0:
124,264,89673,2,0,P|168:248|208:264,1,90.000000298023,2|0,0:0|0:0,0:0:0:0:
84,356,89989,2,0,P|40:372|0:356,1,90.000000298023,2|0,0:0|0:0,0:0:0:0:
40,236,90304,5,4,0:0:0:0:
172,372,90462,1,0,0:0:0:0:
56,216,90620,1,8,0:0:0:0:
188,352,90778,1,0,0:0:0:0:
72,196,90936,1,0,0:0:0:0:
204,332,91094,1,0,0:0:0:0:
88,176,91252,1,8,0:0:0:0:
220,312,91410,1,8,0:0:0:0:
192,204,91567,6,4,P|192:144|272:48,1,180.000000596046,4|0,0:0|0:0,0:0:0:0:
352,28,92041,1,0,0:0:0:0:
428,76,92199,2,0,L|468:164,1,90.000000298023,2|0,0:0|0:0,0:0:0:0:
392,268,92515,2,0,L|352:180,1,90.000000298023,2|0,0:0|0:0,0:0:0:0:
444,332,92831,5,2,0:0:0:0:
268,364,92989,1,0,0:0:0:0:
276,344,93067,1,0,0:0:0:0:
284,324,93146,2,8,P|252:280|248:240,1,90.000000298023,8|0,0:0|0:0,0:0:0:0:
248,68,93462,2,8,P|280:112|284:152,2,90.000000298023
160,40,93936,2,0,P|72:52|20:128,1,180.000000596046,2|0,0:0|0:0,0:0:0:0:
124,176,94410,5,0,0:0:0:0:
52,264,94567,1,0,0:0:0:0:
248,248,94725,2,0,L|344:248,1,90.000000298023,2|0,0:0|0:0,0:0:0:0:
176,344,95041,2,0,L|80:344,1,90.000000298023,2|0,0:0|0:0,0:0:0:0:
52,264,95357,5,2,0:0:0:0:
40,176,95515,1,2,0:0:0:0:
136,88,95673,5,2,0:0:0:0:
124,176,95831,1,2,0:0:0:0:
216,264,95989,5,2,0:0:0:0:
204,176,96147,1,2,0:0:0:0:
300,88,96305,5,2,0:0:0:0:
288,176,96463,1,2,0:0:0:0:
376,176,96620,6,0,P|452:192|508:280,1,180.000000596046,4|8,0:0|0:0,0:0:0:0:
464,352,97094,1,0,0:0:0:0:
376,360,97252,2,2,P|328:340|312:304,1,90.000000298023,2|0,0:0|0:0,0:0:0:0:
292,220,97567,1,8,0:0:0:0:
392,80,97725,1,0,0:0:0:0:
440,280,97883,6,0,L|468:372,1,90.000000298023,8|0,0:0|0:0,0:0:0:0:
300,124,98199,2,0,L|272:32,1,90.000000298023,8|0,0:0|0:0,0:0:0:0:
196,272,98515,5,8,0:0:0:0:
120,320,98673,1,0,0:0:0:0:
32,300,98831,1,0,0:0:0:0:
12,212,98989,2,0,P|20:140|96:64,1,180.000000596046,2|0,0:0|0:0,0:0:0:0:
152,136,99462,2,2,L|228:88,1,90.000000298023,2|0,0:0|0:0,0:0:0:0:
360,120,99778,2,2,L|284:168,1,90.000000298023,2|0,0:0|0:0,0:0:0:0:
216,228,100094,1,0,0:0:0:0:
196,316,100252,1,0,0:0:0:0:
276,356,100410,6,4,B|332:336|380:368|380:368|452:344,1,180.000000596046
488,264,100883,1,0,0:0:0:0:
488,172,101041,5,8,0:0:0:0:
492,128,101120,1,8,0:0:0:0:
484,84,101199,1,8,0:0:0:0:
456,48,101278,1,8,0:0:0:0:
416,24,101357,1,8,0:0:0:0:
372,16,101436,1,8,0:0:0:0:
328,20,101515,1,8,0:0:0:0:
288,40,101594,1,8,0:0:0:0:
260,88,101673,6,4,B|232:132|232:132|200:120|200:120|184:152|124:144,1,168.750000558793,4|0,0:0|0:0,0:0:0:0:
104,128,101989,2,0,P|48:160|32:212,1,112.500000372529,8|0,0:0|0:0,0:0:0:0:
48,360,102304,1,0,0:0:0:0:
64,340,102383,1,0,0:0:0:0:
84,320,102462,1,0,0:0:0:0:
108,304,102541,1,0,0:0:0:0:
132,292,102620,1,8,0:0:0:0:
236,364,102778,1,0,0:0:0:0:
260,216,102936,6,0,P|312:232|368:216,1,112.500000372529,2|0,0:0|0:0,0:0:0:0:
500,360,103252,1,0,0:0:0:0:
500,360,103410,2,0,P|448:344|392:360,1,112.500000372529,2|0,0:0|0:0,0:0:0:0:
288,308,103725,1,0,0:0:0:0:
336,92,103883,1,8,0:0:0:0:
512,228,104041,1,0,0:0:0:0:
288,308,104199,6,0,B|224:308|224:308|184:276,1,112.500000372529,2|0,0:0|0:0,0:0:0:0:
36,48,104515,2,0,B|100:48|100:48|140:80,1,112.500000372529,2|0,0:0|0:0,0:0:0:0:
32,304,104831,2,0,B|32:240|32:240|64:200,1,112.500000372529,2|0,0:0|0:0,0:0:0:0:
292,52,105147,2,0,B|292:116|292:116|260:156,1,112.500000372529,2|0,0:0|0:0,0:0:0:0:
240,172,105383,5,0,0:0:0:0:
212,179,105461,1,2,0:0:0:0:
188,193,105540,1,0,0:0:0:0:
169,213,105619,1,0,0:0:0:0:
155,237,105698,1,0,0:0:0:0:
148,264,105777,1,2,0:0:0:0:
149,293,105856,1,0,0:0:0:0:
157,319,105935,1,0,0:0:0:0:
171,343,106014,1,0,0:0:0:0:
192,362,106093,1,8,3:0:0:0:
217,375,106172,1,0,0:0:0:0:
244,381,106251,1,8,3:0:0:0:
272,380,106330,1,0,0:0:0:0:
299,371,106409,1,6,3:0:0:0:
322,356,106488,1,0,0:0:0:0:
341,335,106567,1,8,3:0:0:0:
353,310,106646,1,0,0:0:0:0:
358,282,106725,6,4,P|380:220|476:184,1,168.750000558793,4|0,0:0|0:0,0:0:0:0:
492,204,107041,2,8,B|472:152|472:152|492:96,1,112.500000372529,8|0,0:0|0:0,0:0:0:0:
348,120,107357,1,0,0:0:0:0:
464,24,107515,1,0,0:0:0:0:
268,28,107673,2,0,P|224:64|168:64,1,112.500000372529,8|0,0:0|0:0,0:0:0:0:
59,159,107989,6,4,B|172:203|172:203|160:242|172:276|194:300,1,225.000000745057,4|0,0:0|0:0,0:0:0:0:
325,378,108462,2,4,B|307:258|307:258|347:248|370:220|379:190,1,225.000000745057,4|0,0:0|0:0,0:0:0:0:
381,37,108936,2,4,B|287:113|287:113|258:83|223:77|192:84,1,225.000000745057,8|0,0:0|0:0,0:0:0:0:
60,160,109410,5,0,0:0:0:0:
52,304,109567,1,8,0:0:0:0:
184,368,109725,1,0,0:0:0:0:
312,300,109883,2,0,P|368:272|420:276,1,112.500000372529
512,380,110199,1,8,0:0:0:0:
424,184,110357,5,0,0:0:0:0:
424,156,110436,1,0,0:0:0:0:
428,128,110515,1,8,0:0:0:0:
440,104,110594,1,0,0:0:0:0:
456,80,110673,1,0,0:0:0:0:
480,64,110752,1,0,0:0:0:0:
452,68,110831,1,8,0:0:0:0:
424,68,110910,1,0,0:0:0:0:
396,64,110989,1,0,0:0:0:0:
368,56,111067,1,0,0:0:0:0:
344,40,111146,6,8,L|240:84,1,112.500000372529,8|8,3:0|3:0,3:3:0:0:
216,284,111462,2,8,L|320:240,1,112.500000372529,6|8,3:0|3:0,3:3:0:0:
76,104,111778,6,4,P|20:132|12:236,1,168.750000558793,4|0,0:0|0:0,0:0:0:0:
28,249,112094,2,0,B|52:253|52:253|60:277|60:277|80:261|132:265,1,112.500000372529,8|0,0:0|0:0,0:0:0:0:
232,184,112410,2,0,B|208:180|208:180|200:156|200:156|180:172|128:168,2,112.500000372529,0|0|8,0:0|0:0|0:0,0:0:0:0:
332,136,112883,1,0,0:0:0:0:
404,16,113041,6,0,P|396:104|512:136,1,225.000000745057,2|0,0:0|0:0,0:0:0:0:
509,246,113515,2,0,P|396:280|404:368,1,225.000000745057,2|0,0:0|0:0,0:0:0:0:
476,324,113989,1,0,0:0:0:0:
476,60,114146,1,0,0:0:0:0:
332,136,114304,2,0,L|220:96,1,112.500000372529,2|0,0:0|0:0,0:0:0:0:
226,285,114620,2,0,L|332:248,1,112.500000372529,2|0,0:0|0:0,0:0:0:0:
432,192,114936,1,0,0:0:0:0:
226,99,115094,1,0,0:0:0:0:
226,285,115252,1,8,0:0:0:0:
116,316,115410,6,0,P|64:288|48:228,1,112.500000372529,2|0,0:0|0:0,0:0:0:0:
60,128,115725,1,0,0:0:0:0:
136,48,115883,1,0,0:0:0:0:
244,24,116041,1,0,0:0:0:0:
356,36,116199,2,8,B|416:36|416:36|460:80,1,112.500000372529,8|8,3:0|3:0,3:0:0:0:
504,232,116515,2,8,B|444:232|444:232|400:188,1,112.500000372529,6|8,3:0|3:0,3:0:0:0:
308,136,116831,6,0,P|220:172|216:240,1,168.750000558793,4|0,0:0|0:0,0:0:0:0:
236,360,117146,2,0,P|324:324|328:256,1,168.750000558793,8|0,0:0|0:0,0:0:0:0:
352,240,117462,2,0,L|464:240,1,112.500000372529,2|0,0:0|0:0,0:0:0:0:
196,256,117778,2,0,L|84:256,1,112.500000372529,2|0,0:0|0:0,0:0:0:0:
28,156,118094,5,0,0:0:0:0:
100,68,118252,1,0,0:0:0:0:
208,40,118410,1,0,0:0:0:0:
312,84,118567,2,8,P|360:120|416:112,1,112.500000372529,8|0,0:0|0:0,0:0:0:0:
392,4,118883,1,0,0:0:0:0:
248,176,119041,2,8,P|200:140|144:148,1,112.500000372529,8|0,0:0|0:0,0:0:0:0:
168,256,119357,5,2,0:0:0:0:
260,320,119515,1,0,0:0:0:0:
284,308,119594,1,0,0:0:0:0:
308,296,119673,1,2,0:0:0:0:
400,364,119831,1,0,0:0:0:0:
448,260,119989,2,0,P|484:216|484:156,1,112.500000372529
344,40,120304,2,0,P|308:84|308:144,1,112.500000372529,8|0,0:0|0:0,0:0:0:0:
168,256,120620,5,2,0:0:0:0:
344,128,120778,1,0,0:0:0:0:
196,132,120936,1,0,0:0:0:0:
316,252,121094,2,8,P|356:324|492:328,1,225.000000745057
432,228,121567,1,0,0:0:0:0:
484,72,121725,1,0,0:0:0:0:
328,28,121883,6,4,B|300:40|300:40|288:72|288:72|232:56|180:72,1,168.750000558793,4|0,0:0|0:0,0:0:0:0:
172,44,122199,2,8,P|188:96|176:160,1,112.500000372529,8|0,0:0|0:0,0:0:0:0:
36,224,122515,5,2,0:0:0:0:
144,260,122673,1,0,0:0:0:0:
288,384,122831,1,2,0:0:0:0:
180,348,122989,1,0,0:0:0:0:
264,276,123146,6,2,B|336:296|336:296|412:276|412:276|448:304|448:340,1,225.000000745057,2|0,0:0|0:0,0:0:0:0:
447,48,123620,2,2,B|448:80|412:108|412:108|336:88|336:88|264:108,1,225.000000745057,2|0,0:0|0:0,0:0:0:0:
340,192,124094,2,0,L|456:192,1,112.500000372529,2|0,0:0|0:0,0:0:0:0:
264,108,124410,5,0,0:0:0:0:
264,276,124567,1,0,0:0:0:0:
160,320,124725,1,8,0:0:0:0:
72,248,124883,1,0,0:0:0:0:
64,124,125041,2,0,P|116:100|136:48,1,112.500000372529
72,248,125357,2,0,P|20:272|0:324,1,112.500000372529,8|0,0:0|0:0,0:0:0:0:
183,288,125673,5,0,0:0:0:0:
219,128,125831,1,0,0:0:0:0:
267,313,125989,1,8,0:0:0:0:
312,112,126147,1,0,0:0:0:0:
348,336,126304,2,0,P|404:348|460:336,1,112.500000372529
457,46,126620,2,0,P|404:36|348:48,1,112.500000372529,8|0,0:0|0:0,0:0:0:0:
219,128,126936,6,4,L|52:80,1,168.750000558793,4|0,0:0|0:0,0:0:0:0:
40,56,127252,2,8,P|64:112|56:164,1,112.500000372529,8|0,0:0|0:0,0:0:0:0:
140,328,127567,2,8,P|116:272|124:220,1,112.500000372529,8|0,0:0|0:0,0:0:0:0:
232,256,127883,1,0,0:0:0:0:
332,212,128041,1,0,0:0:0:0:
324,324,128199,6,0,B|396:324|396:324|432:352,1,112.500000372529,2|0,0:0|0:0,0:0:0:0:
512,212,128515,2,0,B|440:212|440:212|404:240,1,112.500000372529,2|0,0:0|0:0,0:0:0:0:
320,168,128831,1,2,0:0:0:0:
496,104,128989,1,0,0:0:0:0:
336,72,129146,1,2,0:0:0:0:
512,8,129304,1,0,0:0:0:0:
320,168,129462,5,2,0:0:0:0:
316,196,129541,1,0,0:0:0:0:
308,224,129620,1,0,0:0:0:0:
292,248,129699,1,0,0:0:0:0:
276,268,129778,1,2,0:0:0:0:
252,284,129857,1,0,0:0:0:0:
228,296,129936,1,0,0:0:0:0:
200,300,130015,1,0,0:0:0:0:
172,296,130094,6,0,P|116:284|80:236,1,112.500000372529
152,48,130410,1,8,0:0:0:0:
152,48,130489,1,0,0:0:0:0:
152,48,130567,1,0,0:0:0:0:
340,88,130725,6,0,P|396:100|432:148,1,112.500000372529
360,336,131041,1,8,0:0:0:0:
360,336,131120,1,0,0:0:0:0:
360,336,131198,1,0,0:0:0:0:
200,300,131357,5,0,0:0:0:0:
312,84,131515,1,0,0:0:0:0:
364,248,131673,1,8,0:0:0:0:
148,136,131831,1,0,0:0:0:0:
36,296,131989,6,4,P|64:344|148:364,1,135.000000447034,4|0,0:0|0:0,0:0:0:0:
152,382,132304,2,0,L|232:326,1,90.000000298023,8|0,0:0|0:0,0:0:0:0:
316,336,132620,1,2,0:0:0:0:
336,324,132699,1,0,0:0:0:0:
360,320,132778,1,0,0:0:0:0:
384,324,132857,1,0,0:0:0:0:
404,332,132936,2,0,P|440:364|480:368,1,90.000000298023
476,276,133252,6,0,B|456:260|456:260|480:260|480:260|464:244|464:244|484:240|484:240|444:212|452:164,1,180.000000596046,2|0,0:0|0:0,0:0:0:0:
484,80,133725,1,0,0:0:0:0:
404,36,133883,2,0,L|320:68,1,90.000000298023,8|0,0:0|0:0,0:0:0:0:
116,168,134199,2,0,L|200:136,1,90.000000298023,8|0,0:0|0:0,0:0:0:0:
288,156,134515,2,8,B|340:196|320:232|308:224|308:224|312:208|328:224|328:224|356:252|340:296,1,180.000000596046
284,352,134989,1,0,0:0:0:0:
216,292,135146,2,0,B|176:272|176:272|136:292,1,90.000000298023,2|0,0:0|0:0,0:0:0:0:
12,360,135462,2,0,B|52:380|52:380|92:360,1,90.000000298023,2|0,0:0|0:0,0:0:0:0:
36,224,135778,5,10,0:0:0:0:
204,152,135936,1,4,0:0:0:0:
64,68,136094,1,0,0:0:0:0:
36,224,136252,6,0,L|128:240,1,90.000000298023,2|0,0:0|0:0,0:0:0:0:
276,356,136567,2,0,L|184:340,2,90.000000298023,2|0|0,0:0|0:0|0:0,0:0:0:0:
488,340,137041,5,4,0:0:0:0:
404,308,137199,1,0,0:0:0:0:
404,308,137278,1,0,0:0:0:0:
404,308,137357,1,8,0:0:0:0:
432,224,137515,1,0,0:0:0:0:
372,156,137673,1,2,0:0:0:0:
392,136,137752,1,0,0:0:0:0:
412,116,137831,1,0,0:0:0:0:
432,96,137910,1,0,0:0:0:0:
452,76,137989,2,0,P|408:48|388:16,1,90.000000298023,8|0,0:0|0:0,0:0:0:0:
300,36,138304,5,4,0:0:0:0:
220,76,138462,1,0,0:0:0:0:
172,152,138620,1,8,0:0:0:0:
160,240,138778,1,0,0:0:0:0:
348,276,138936,5,2,0:0:0:0:
200,332,139094,1,0,0:0:0:0:
396,356,139252,1,8,0:0:0:0:
160,240,139410,1,0,0:0:0:0:
92,320,139567,6,0,P|44:296|32:156,1,180.000000596046,8|0,0:0|0:0,0:0:0:0:
24,160,139962,1,0,0:0:0:0:
40,144,140041,1,0,0:0:0:0:
52,56,140199,2,2,L|152:80,1,90.000000298023,2|0,0:0|0:0,0:0:0:0:
228,208,140515,2,2,L|128:184,1,90.000000298023,2|0,0:0|0:0,0:0:0:0:
228,108,140831,5,8,0:0:0:0:
168,300,140989,1,0,0:0:0:0:
364,248,141146,2,0,P|412:240|444:216,1,90.000000298023,8|0,0:0|0:0,0:0:0:0:
460,32,141462,6,0,P|412:40|380:64,1,90.000000298023,8|0,3:0|3:0,3:0:0:0:
228,208,141778,2,0,P|276:200|308:176,1,90.000000298023,6|0,3:0|3:0,3:0:0:0:
208,36,142094,6,0,B|176:80|176:80|140:72|96:80,1,135.000000447034,4|0,0:0|0:0,0:0:0:0:
76,68,142410,2,8,P|56:108|68:152,1,90.000000298023,8|0,0:0|0:0,0:0:0:0:
144,196,142725,1,0,0:0:0:0:
148,220,142804,1,0,0:0:0:0:
144,244,142883,1,0,0:0:0:0:
136,264,142962,1,0,0:0:0:0:
120,280,143041,2,0,P|164:308|180:344,1,90.000000298023,2|0,0:0|0:0,0:0:0:0:
268,360,143357,5,0,0:0:0:0:
292,356,143436,1,0,0:0:0:0:
312,364,143515,2,0,L|400:320,1,90.000000298023,2|0,0:0|0:0,0:0:0:0:
480,340,143831,1,0,0:0:0:0:
484,316,143910,1,0,0:0:0:0:
480,296,143989,2,2,B|464:252|464:252|480:212,2,90.000000298023,2|2|0,0:0|0:0|0:0,0:0:0:0:
388,220,144462,5,0,0:0:0:0:
380,200,144541,1,0,0:0:0:0:
372,180,144620,1,8,0:0:0:0:
388,92,144778,1,8,0:0:0:0:
464,44,144936,2,0,L|516:56,2,45.0000001490115,0|0|8,0:0|0:0|0:0,0:0:0:0:
388,92,145252,5,0,0:0:0:0:
364,92,145331,1,0,0:0:0:0:
340,88,145410,1,0,0:0:0:0:
320,80,145489,1,0,0:0:0:0:
304,64,145567,1,8,0:0:0:0:
156,60,145725,5,0,0:0:0:0:
156,84,145804,1,0,0:0:0:0:
152,108,145883,1,0,0:0:0:0:
144,128,145962,1,0,0:0:0:0:
128,144,146040,1,8,0:0:0:0:
124,292,146199,5,0,0:0:0:0:
148,292,146278,1,0,0:0:0:0:
172,296,146357,1,0,0:0:0:0:
192,304,146436,1,0,0:0:0:0:
208,320,146514,1,8,0:0:0:0:
356,324,146673,5,0,0:0:0:0:
356,300,146752,1,0,0:0:0:0:
360,276,146831,1,0,0:0:0:0:
368,256,146910,1,0,0:0:0:0:
384,240,146989,2,8,P|412:200|456:184,1,90.000000298023
376,32,147304,5,0,0:0:0:0:
396,44,147383,1,8,0:0:0:0:
416,48,147462,1,8,0:0:0:0:
488,104,147620,1,8,0:0:0:0:
312,152,147778,5,0,0:0:0:0:
292,156,147857,1,0,0:0:0:0:
272,164,147936,1,0,0:0:0:0:
252,176,148015,1,0,0:0:0:0:
236,192,148094,2,0,P|200:228|180:268,1,90.000000298023,8|0,0:0|0:0,0:0:0:0:
180,364,148410,5,0,0:0:0:0:
180,364,148489,1,0,0:0:0:0:
180,364,148567,2,0,P|136:348|88:352,1,90.000000298023,8|0,0:0|0:0,0:0:0:0:
16,200,148883,5,0,0:0:0:0:
16,200,148962,1,0,0:0:0:0:
16,200,149041,2,0,P|60:216|108:212,1,90.000000298023,8|8,0:0|0:0,0:0:0:0:
148,132,149357,5,0,0:0:0:0:
148,108,149436,1,0,0:0:0:0:
144,88,149515,1,0,0:0:0:0:
132,68,149594,1,0,0:0:0:0:
116,52,149673,2,0,P|172:52|200:32,1,90.000000298023,8|8,0:0|0:0,0:0:0:0:
268,92,149989,5,0,0:0:0:0:
268,92,150067,1,0,0:0:0:0:
268,92,150146,1,8,0:0:0:0:
340,40,150304,1,0,0:0:0:0:
340,40,150383,1,0,0:0:0:0:
340,40,150462,1,0,0:0:0:0:
424,76,150620,1,8,0:0:0:0:
460,160,150778,5,0,0:0:0:0:
452,180,150857,1,0,0:0:0:0:
448,204,150936,1,0,0:0:0:0:
448,228,151015,1,0,0:0:0:0:
452,252,151094,1,8,0:0:0:0:
388,360,151252,5,0,0:0:0:0:
368,352,151331,1,0,0:0:0:0:
344,348,151410,1,0,0:0:0:0:
320,348,151489,1,0,0:0:0:0:
296,352,151568,2,0,L|252:372,2,45.0000001490115,8|0|0,0:0|0:0|0:0,0:0:0:0:
300,264,151883,1,0,0:0:0:0:
308,244,151962,1,0,0:0:0:0:
308,220,152041,2,8,L|264:128,1,90.000000298023
160,32,152357,5,0,0:0:0:0:
160,32,152436,1,8,0:0:0:0:
160,32,152515,2,2,P|168:100|160:120,1,90.000000298023
52,152,152831,5,0,0:0:0:0:
40,172,152910,1,0,0:0:0:0:
52,192,152989,1,0,0:0:0:0:
40,212,153067,1,0,0:0:0:0:
52,232,153146,2,0,L|52:332,1,90.000000298023,8|0,0:0|0:0,0:0:0:0:
68,340,153383,1,0,0:0:0:0:
88,348,153462,1,0,0:0:0:0:
112,348,153541,1,0,0:0:0:0:
132,336,153620,1,8,0:0:0:0:
212,296,153778,5,0,0:0:0:0:
232,284,153857,1,0,0:0:0:0:
256,284,153936,1,0,0:0:0:0:
276,292,154015,1,0,0:0:0:0:
292,308,154094,2,8,P|328:340|372:340,1,90.000000298023
476,228,154410,5,0,0:0:0:0:
452,232,154489,1,0,0:0:0:0:
432,236,154567,1,0,0:0:0:0:
408,240,154646,1,0,0:0:0:0:
384,244,154725,1,8,0:0:0:0:
320,180,154883,1,8,0:0:0:0:
428,92,155041,5,0,0:0:0:0:
432,72,155120,1,0,0:0:0:0:
436,52,155199,1,8,0:0:0:0:
324,48,155357,5,0,0:0:0:0:
320,68,155436,1,0,0:0:0:0:
316,88,155515,1,0,0:0:0:0:
312,108,155594,1,0,0:0:0:0:
308,128,155673,1,8,0:0:0:0:
188,164,155831,5,0,0:0:0:0:
192,144,155910,1,0,0:0:0:0:
196,124,155989,1,0,0:0:0:0:
200,104,156068,1,0,0:0:0:0:
204,84,156147,1,8,0:0:0:0:
208,64,156226,1,0,0:0:0:0:
212,44,156305,1,0,0:0:0:0:
100,44,156462,5,0,0:0:0:0:
96,64,156541,1,0,0:0:0:0:
92,84,156620,1,8,0:0:0:0:
88,104,156699,1,0,0:0:0:0:
84,124,156778,1,0,0:0:0:0:
80,144,156857,1,0,0:0:0:0:
76,164,156936,1,0,0:0:0:0:
72,184,157015,1,0,0:0:0:0:
68,204,157094,1,8,0:0:0:0:
140,260,157252,6,8,P|196:276|240:336,1,135.000000447034
252,356,157567,2,8,P|264:312|304:284,1,90.000000298023
388,300,157883,1,0,0:0:0:0:
404,284,157962,1,0,0:0:0:0:
420,268,158041,6,2,B|440:244|440:244|416:240|416:240|428:224|428:224|404:208|404:208|424:204|424:204|404:188|404:188|432:184|432:184|460:152|456:92,1,270.000000894069,2|0,0:0|0:0,0:0:0:0:
