osu file format v12

[General]
AudioFilename: FULL TECHNO JACKASS - 06 Da Nu Nuttah.mp3
AudioLeadIn: 0
PreviewTime: 41041
Countdown: 1
SampleSet: Soft
StackLeniency: 0.7
Mode: 0
LetterboxInBreaks: 0

[Editor]
DistanceSpacing: 1
BeatDivisor: 4
GridSize: 4

[Metadata]
Title:Da Nu Nuttah
TitleUnicode:Da Nu Nuttah
Artist:Renard
ArtistUnicode:Renard
Creator:GamerX4life
Version:Hard
Source:
Tags:Full Techno Jackass Queenston Lapfox Trax raggacore breakcore Shy FX UK Apachi Blue Dragon Static Noise Bird snb jungle
BeatmapID:196713
BeatmapSetID:62665

[Difficulty]
HPDrainRate:4
CircleSize:4
OverallDifficulty:5
ApproachRate:8
SliderMultiplier:1.40000000596046
SliderTickRate:1

[Events]
//Background and Video events
0,0,"bgnuttah.jpg",0,0
//Break Periods
//Storyboard Layer 0 (Background)
//Storyboard Layer 1 (Fail)
//Storyboard Layer 2 (Pass)
//Storyboard Layer 3 (Foreground)
//Storyboard Sound Samples
//Background Colour Transformations
3,100,163,162,255

[TimingPoints]
35989,315.789473684211,4,2,0,55,1,0
41041,-100,4,2,0,70,0,1
61252,-100,4,2,0,70,0,0
101673,-100,4,2,0,70,0,1
131989,-100,4,2,0,70,0,0
158515,-100,4,2,0,5,0,0

[Colours]
Combo1 : 9,142,52
Combo2 : 253,224,19
Combo3 : 213,106,0
Combo4 : 249,0,0

[HitObjects]
220,124,36146,6,0,P|226:90|249:64,2,70.000000298023
232,192,36620,1,8,0:0:0:0:
268,252,36778,2,0,B|324:304|324:304|349:280|382:288,1,140.000000596046
428,236,37252,2,0,B|416:203|437:176|437:176|379:125,1,140.000000596046
252,64,37883,1,8,0:0:0:0:
184,76,38041,1,0,0:0:0:0:
132,124,38199,1,0,0:0:0:0:
104,188,38357,2,0,P|109:263|160:293,1,140.000000596046
256,192,39146,12,0,40410,0:0:0:0:
220,92,41041,6,0,P|168:132|164:204,1,140.000000596046,4|0,0:0|0:0,0:0:0:0:
196,340,41673,1,8,0:0:0:0:
256,300,41831,1,0,0:0:0:0:
316,340,41989,1,0,0:0:0:0:
348,202,42304,2,0,P|344:132|292:92,1,140.000000596046
220,92,42778,2,0,P|161:131|152:196,1,140.000000596046
188,258,43252,2,0,P|251:288|311:263,1,140.000000596046,0|2,0:0|0:0,0:0:0:0:
444,220,43883,5,0,0:0:0:0:
432,80,44199,1,8,0:0:0:0:
308,144,44515,1,0,0:0:0:0:
264,200,44673,1,0,0:0:0:0:
248,268,44831,2,0,P|320:372|400:284,1,280.000001192092,0|8,0:0|3:0,0:0:0:0:
388,216,45620,1,8,3:0:0:0:
344,164,45778,1,8,3:0:0:0:
280,136,45936,1,8,3:0:0:0:
208,136,46094,6,0,B|136:148|136:148|80:188,1,140.000000596046,4|0,0:0|0:0,0:0:0:0:
217,215,46725,2,0,B|289:203|289:203|345:163,1,140.000000596046,8|0,0:0|0:0,0:0:0:0:
456,80,47357,1,2,0:0:0:0:
400,208,47673,2,0,L|336:252,1,70.000000298023,0|2,0:0|0:0,0:0:0:0:
211,196,48146,2,0,L|279:184,1,70.000000298023,2|0,0:0|0:0,0:0:0:0:
360,60,48620,5,2,0:0:0:0:
292,64,48778,1,0,0:0:0:0:
224,76,48936,2,0,P|152:104|116:152,2,140.000000596046,0|8|0,0:0|0:0|0:0,0:0:0:0:
292,64,49725,1,0,0:0:0:0:
360,60,49883,2,0,B|400:96|400:96|388:144|388:144|476:200|440:296,1,280.000001192092,2|8,0:0|3:0,0:0:0:0:
320,368,50831,1,8,3:0:0:0:
192,312,51146,6,0,L|144:260,1,70.000000298023,4|0,0:0|0:0,0:0:0:0:
188,204,51462,2,0,L|176:136,1,70.000000298023
160,68,51778,1,8,0:0:0:0:
256,168,52094,1,0,0:0:0:0:
352,68,52410,2,0,P|427:94|439:150,1,140.000000596046
369,138,52883,2,0,L|253:238,1,140.000000596046
280,297,53357,6,0,P|205:271|193:215,2,140.000000596046,0|2|0,0:0|0:0|0:0,0:0:0:0:
416,264,54304,1,8,0:0:0:0:
452,204,54462,2,0,B|480:136|480:136|464:72,1,140.000000596046,0|0,0:0|0:0,0:0:0:0:
400,40,54936,6,0,L|328:32,2,70.000000298023
396,112,55410,2,0,L|328:140,1,70.000000298023,0|8,0:0|3:0,0:0:0:0:
256,256,55883,1,8,3:0:0:0:
180,138,56199,6,0,L|49:84,1,140.000000596046,4|0,0:0|0:0,0:0:0:0:
120,204,56831,2,0,L|185:231,2,70.000000298023,8|0|0,3:0|0:0|0:0,0:0:0:0:
52,212,57304,1,0,0:0:0:0:
8,268,57462,2,0,B|37:318|37:318|77:294|112:324,1,140.000000596046
180,308,57936,2,0,B|195:265|242:265|242:265|242:206,1,140.000000596046
240,136,58410,1,0,0:0:0:0:
344,40,58725,5,2,0:0:0:0:
375,178,59041,1,0,0:0:0:0:
271,274,59357,2,0,P|256:308|228:324,1,70.000000298023,8|0,0:0|0:0,0:0:0:0:
200,260,59673,2,0,P|164:270|134:259,1,70.000000298023
168,197,59989,2,0,P|106:155|84:94,2,140.000000596046,0|0|8,0:0|0:0|3:0,0:0:0:0:
200,260,60778,1,8,3:0:0:0:
260,296,60936,1,8,3:0:0:0:
332,296,61094,1,8,3:0:0:0:
396,272,61252,6,0,B|404:192|404:192|448:148,1,140.000000596046,4|8,0:0|0:0,0:0:0:0:
368,36,61883,2,0,B|360:116|360:116|316:160,1,140.000000596046,0|8,0:0|0:0,0:0:0:0:
260,196,62357,1,0,0:0:0:0:
192,208,62515,2,0,P|90:208|57:186,1,140.000000596046,0|8,0:0|0:0,0:0:0:0:
16,244,62989,2,0,P|67:332|64:371,1,140.000000596046,0|8,0:0|0:0,0:0:0:0:
135,378,63462,2,0,P|186:289|221:272,1,140.000000596046,0|8,0:0|0:0,0:0:0:0:
216,273,63936,5,8,0:0:0:0:
256,140,64252,1,8,0:0:0:0:
312,100,64410,2,0,B|344:60|344:60|384:84|432:56,1,140.000000596046,0|8,0:0|0:0,0:0:0:0:
256,140,65041,2,0,B|224:180|224:180|184:156|136:184,2,140.000000596046,2|0|8,0:0|0:0|3:0,0:0:0:0:
312,100,65831,1,8,3:0:0:0:
360,152,65989,1,8,3:0:0:0:
428,145,66146,1,8,3:0:0:0:
444,214,66304,6,0,L|512:244,1,70.000000298023,4|0,0:0|0:0,0:0:0:0:
360,152,66778,1,0,0:0:0:0:
312,100,66936,2,0,P|276:96|244:108,1,70.000000298023
216,171,67252,2,0,P|252:175|284:164,1,70.000000298023,8|0,0:0|0:0,0:0:0:0:
244,108,67567,2,0,P|208:104|176:116,1,70.000000298023
40,80,68041,1,0,0:0:0:0:
32,148,68199,6,0,P|32:236|60:288,1,140.000000596046,8|0,0:0|0:0,0:0:0:0:
168,196,68831,1,8,0:0:0:0:
304,244,69146,2,0,P|304:156|276:104,1,140.000000596046,8|0,0:0|0:0,0:0:0:0:
168,196,69778,2,0,P|156:228|160:268,1,70.000000298023,8|0,0:0|0:0,0:0:0:0:
256,192,70094,12,0,71357,0:0:0:0:
384,160,71673,6,0,B|364:232|364:232|388:292,1,140.000000596046,8|0,0:0|0:0,0:0:0:0:
256,336,72304,1,8,0:0:0:0:
124,292,72620,2,0,B|140:256|140:256|136:224,2,70.000000298023,0|8|0,0:0|0:0|0:0,0:0:0:0:
256,336,73252,2,0,P|304:289|373:288,1,140.000000596046,8|0,0:0|0:0,0:0:0:0:
432,160,73883,6,0,P|379:202|310:196,1,140.000000596046,4|0,3:0|0:0,0:0:0:0:
256,240,74357,1,8,0:0:0:0:
201,196,74515,2,0,P|132:202|80:160,1,140.000000596046,0|8,3:0|0:0,0:0:0:0:
200,48,75146,1,0,0:0:0:0:
220,116,75304,1,8,0:0:0:0:
292,116,75462,1,0,0:0:0:0:
312,48,75620,1,0,0:0:0:0:
360,98,75778,2,0,L|380:168,1,70.000000298023,8|8,3:0|3:0,0:0:0:0:
256,175,76094,2,0,L|256:247,1,70.000000298023,8|8,3:0|3:0,0:0:0:0:
152,98,76410,6,0,L|132:168,2,70.000000298023,4|0|0,0:0|0:0|0:0,0:0:0:0:
222,100,76883,1,8,0:0:0:0:
256,160,77041,2,0,P|288:233|349:246,1,140.000000596046,0|8,0:0|0:0,0:0:0:0:
204,284,77673,2,0,P|171:210|110:197,2,140.000000596046,4|0|8,3:0|0:0|0:0,0:0:0:0:
40,256,78620,1,0,0:0:0:0:
32,88,78936,5,4,3:0:0:0:
164,44,79252,1,0,0:0:0:0:
256,148,79567,1,4,3:0:0:0:
348,44,79883,1,0,0:0:0:0:
480,88,80199,5,4,3:0:0:0:
388,192,80515,2,0,L|368:260,1,70.000000298023,8|0,0:0|0:0,0:0:0:0:
300,252,80831,2,0,L|280:320,2,70.000000298023,0|0|8,0:0|0:0|0:0,0:0:0:0:
296,112,81462,6,0,P|232:60|176:64,1,140.000000596046,4|0,0:0|0:0,0:0:0:0:
108,80,81936,1,0,0:0:0:0:
157,132,82094,2,0,P|164:176|152:200,1,70.000000298023,8|0,0:0|0:0,0:0:0:0:
92,164,82410,2,0,P|48:232|68:284,2,140.000000596046
196,256,83357,1,8,0:0:0:0:
256,220,83515,1,0,0:0:0:0:
316,256,83673,1,0,0:0:0:0:
420,164,83989,6,0,P|464:232|444:284,1,140.000000596046,2|0,0:0|0:0,0:0:0:0:
324,348,84620,2,0,B|288:360|288:360|248:356,1,70.000000298023,8|0,0:0|0:0,0:0:0:0:
232,292,84936,2,0,B|200:288|200:288|164:300,1,70.000000298023
120,356,85252,2,0,B|52:336|52:336|12:280,1,140.000000596046
209,208,85883,2,0,B|277:228|277:228|317:284,1,140.000000596046,8|0,0:0|0:0,0:0:0:0:
440,352,86515,5,2,0:0:0:0:
468,216,86831,1,0,0:0:0:0:
452,148,86989,1,0,0:0:0:0:
404,100,87146,2,0,P|352:64|272:60,1,140.000000596046,8|0,0:0|0:0,0:0:0:0:
216,96,87620,1,0,0:0:0:0:
176,156,87778,2,0,P|170:219|207:290,1,140.000000596046
266,320,88252,1,0,0:0:0:0:
337,324,88410,2,0,P|394:296|437:229,1,140.000000596046,8|0,0:0|0:0,0:0:0:0:
434,164,88884,1,0,0:0:0:0:
352,48,89199,5,0,0:0:0:0:
284,44,89357,2,0,L|208:60,1,70.000000298023
232,128,89673,2,0,P|172:200|176:240,1,140.000000596046,8|0,0:0|0:0,0:0:0:0:
296,160,90304,2,0,P|356:88|352:48,1,140.000000596046
212,44,90936,2,0,L|148:76,3,70.000000298023,8|0|0|0,0:0|0:0|0:0|0:0,0:0:0:0:
146,145,91567,5,4,0:0:0:0:
186,277,91883,1,0,0:0:0:0:
326,277,92199,1,8,0:0:0:0:
366,145,92515,1,0,0:0:0:0:
256,60,92831,2,0,B|208:124|296:124|256:188,1,140.000000596046
320,312,93462,1,8,0:0:0:0:
256,340,93620,1,0,0:0:0:0:
192,312,93778,2,0,L|144:260,1,70.000000298023
184,200,94094,6,0,L|81:88,3,140.000000596046,2|0|8|0,0:0|0:0|0:0|0:0,0:0:0:0:
220,48,95357,1,0,0:0:0:0:
288,56,95515,1,0,0:0:0:0:
344,100,95673,2,0,P|364:168|320:216,1,140.000000596046,0|8,0:0|0:0,0:0:0:0:
295,150,96146,1,0,0:0:0:0:
227,158,96304,1,0,0:0:0:0:
171,202,96462,1,0,0:0:0:0:
140,264,96620,6,0,P|135:334|189:371,1,140.000000596046,4|0,0:0|0:0,0:0:0:0:
256,248,97252,1,8,0:0:0:0:
324,371,97567,2,0,P|376:334|372:264,1,140.000000596046,0|0,0:0|0:0,0:0:0:0:
428,136,98199,1,0,0:0:0:0:
292,104,98515,2,0,L|232:64,2,70.000000298023,8|0|0,0:0|0:0|0:0,0:0:0:0:
264,168,98989,2,0,P|178:188|153:230,1,140.000000596046
132,296,99462,5,0,0:0:0:0:
256,364,99778,1,8,0:0:0:0:
380,296,100094,1,0,0:0:0:0:
356,160,100410,2,0,L|360:89,1,70.000000298023
290,91,100725,2,0,L|237:41,1,70.000000298023
196,98,101041,2,0,L|125:106,3,70.000000298023,0|0|0|0,3:0|3:0|3:0|3:0,0:0:0:0:
89,166,101673,5,4,0:0:0:0:
84,304,101989,2,0,B|132:324|132:324|176:296|216:320,1,140.000000596046,0|8,0:0|0:0,0:0:0:0:
256,184,102620,1,0,0:0:0:0:
296,319,102936,2,0,B|336:296|380:324|380:324|428:304,1,140.000000596046
452,236,103410,2,0,B|426:190|426:190|374:185|358:143,1,140.000000596046
358,143,103883,1,0,0:0:0:0:
256,48,104199,5,2,0:0:0:0:
153,143,104515,1,0,0:0:0:0:
64,252,104831,2,0,P|100:320|156:320,1,140.000000596046,8|0,0:0|0:0,0:0:0:0:
284,264,105462,1,0,0:0:0:0:
376,160,105778,1,0,0:0:0:0:
364,20,106094,2,0,L|296:44,1,70.000000298023,8|8,3:0|3:0,0:0:0:0:
228,32,106410,2,0,L|161:55,1,70.000000298023,8|8,3:0|3:0,0:0:0:0:
100,24,106725,6,0,P|100:89|162:125,1,140.000000596046,4|0,0:0|0:0,0:0:0:0:
284,188,107357,2,0,P|342:223|342:288,1,140.000000596046,8|0,0:0|0:0,0:0:0:0:
216,352,107989,1,2,0:0:0:0:
84,300,108304,2,0,L|60:228,1,70.000000298023,0|2,0:0|0:0,0:0:0:0:
120,108,108778,2,0,L|144:180,1,70.000000298023,2|0,0:0|0:0,0:0:0:0:
216,52,109252,5,2,0:0:0:0:
284,48,109410,2,0,P|386:82|421:175,1,210.000000894069,0|8,0:0|0:0,0:0:0:0:
352,292,110199,2,0,L|288:260,1,70.000000298023
173,272,110515,2,0,L|236:304,1,70.000000298023
120,316,110831,2,0,L|56:284,1,70.000000298023
48,216,111146,2,0,B|40:160|40:160|60:140|60:140|52:84,1,140.000000596046,8|8,3:0|3:0,0:0:0:0:
184,32,111778,5,4,0:0:0:0:
320,56,112094,1,0,0:0:0:0:
416,160,112410,2,0,L|448:224,1,70.000000298023,8|0,0:0|0:0,0:0:0:0:
396,272,112725,2,0,L|367:337,1,70.000000298023
297,328,113041,2,0,P|228:353|163:334,1,140.000000596046
166,335,113515,1,0,0:0:0:0:
212,204,113831,1,0,0:0:0:0:
212,204,113990,2,0,P|149:186|81:211,2,140.000000596046,0|2|0,0:0|0:0|0:0,0:0:0:0:
320,292,114936,6,0,L|376:340,1,70.000000298023,8|0,0:0|0:0,0:0:0:0:
265,249,115410,1,0,0:0:0:0:
212,204,115567,2,0,P|148:152|144:30,2,210.000000894069
292,88,116831,5,4,0:0:0:0:
424,132,117146,1,0,0:0:0:0:
424,272,117462,1,8,0:0:0:0:
356,284,117620,1,0,0:0:0:0:
312,336,117778,2,0,P|236:356|184:328,1,140.000000596046
256,208,118410,2,0,L|252:284,1,70.000000298023
260,140,118883,2,0,L|264:64,1,70.000000298023
156,184,119357,5,2,0:0:0:0:
356,200,119673,1,0,0:0:0:0:
316,64,119989,2,0,P|292:36|260:28,1,70.000000298023,8|0,0:0|0:0,0:0:0:0:
228,92,120304,2,0,P|191:89|162:106,1,70.000000298023
168,174,120620,2,0,P|140:198|132:230,2,70.000000298023
163,105,121094,2,0,P|94:37|16:98,1,210.000000894069
79,220,121883,5,2,0:0:0:0:
163,331,122199,1,0,0:0:0:0:
249,220,122515,2,0,L|321:220,2,70.000000298023,8|0|0,0:0|0:0|0:0,0:0:0:0:
370,289,123146,2,0,P|411:226|377:165,1,140.000000596046
327,134,123620,1,0,0:0:0:0:
199,191,123936,1,0,0:0:0:0:
143,147,124095,2,0,P|118:93|159:30,2,140.000000596046,0|2|0,0:0|0:0|0:0,0:0:0:0:
88,276,125041,5,8,0:0:0:0:
136,328,125199,1,0,0:0:0:0:
204,348,125357,2,0,B|340:328|340:328|320:248|396:208,1,280.000001192092
480,96,126304,1,8,3:0:0:0:
416,72,126462,2,0,L|348:52,1,70.000000298023,8|8,3:0|3:0,0:0:0:0:
312,112,126778,1,8,3:0:0:0:
248,136,126936,6,0,L|110:176,1,140.000000596046,4|0,0:0|0:0,0:0:0:0:
220,264,127567,2,0,L|357:223,1,140.000000596046,8|0,0:0|0:0,0:0:0:0:
392,164,128041,1,0,0:0:0:0:
354,103,128199,2,0,L|220:64,1,140.000000596046,0|8,0:0|0:0,0:0:0:0:
100,140,128831,1,8,0:0:0:0:
55,194,128989,1,0,0:0:0:0:
70,261,129146,1,0,0:0:0:0:
191,229,129462,6,0,L|54:193,1,140.000000596046,2|0,0:0|0:0,0:0:0:0:
152,88,130094,2,0,L|220:104,1,70.000000298023,8|0,0:0|0:0,0:0:0:0:
292,104,130410,2,0,L|360:88,1,70.000000298023
428,76,130725,1,0,0:0:0:0:
476,208,131041,1,0,0:0:0:0:
338,184,131357,2,0,L|270:200,2,70.000000298023,8|8|8,3:0|3:0|3:0,0:0:0:0:
372,244,131831,1,8,3:0:0:0:
338,304,131989,6,0,L|200:342,1,140.000000596046,4|0,0:0|0:0,0:0:0:0:
84,272,132620,1,8,0:0:0:0:
24,144,132936,1,0,0:0:0:0:
132,52,133252,1,0,0:0:0:0:
200,40,133410,1,0,0:0:0:0:
268,56,133567,2,0,P|332:80|368:140,1,140.000000596046,0|8,0:0|0:0,0:0:0:0:
368,208,134041,1,0,0:0:0:0:
344,276,134199,2,0,P|328:312|300:336,1,70.000000298023
272,268,134515,6,0,B|216:236|216:236|172:252|144:224,1,140.000000596046,2|0,0:0|0:0,0:0:0:0:
236,116,135146,2,0,B|291:83|291:83|299:37|338:27,1,140.000000596046,8|0,0:0|0:0,0:0:0:0:
385,160,135778,2,0,B|385:224|385:224|421:254|410:292,1,140.000000596046
276,332,136410,1,8,3:0:0:0:
208,340,136567,1,8,3:0:0:0:
140,324,136725,1,8,3:0:0:0:
84,284,136883,1,8,3:0:0:0:
56,220,137041,6,0,B|40:144|40:144|56:80,1,140.000000596046,4|0,0:0|0:0,0:0:0:0:
120,52,137515,1,0,0:0:0:0:
186,27,137673,2,0,B|240:58|240:58|283:122,1,140.000000596046,8|0,0:0|0:0,0:0:0:0:
394,207,138304,1,0,0:0:0:0:
326,327,138620,1,0,0:0:0:0:
186,327,138936,1,8,0:0:0:0:
118,207,139252,1,0,0:0:0:0:
256,204,139567,6,0,B|220:140|292:140|256:72,2,140.000000596046,2|0|8,0:0|0:0|0:0,0:0:0:0:
256,276,140357,1,0,0:0:0:0:
292,336,140515,2,0,L|360:368,1,70.000000298023
372,296,140831,2,0,L|444:276,1,70.000000298023
407,213,141146,2,0,L|450:151,1,70.000000298023
384,120,141462,1,8,3:0:0:0:
256,60,141778,1,8,3:0:0:0:
128,120,142094,5,4,0:0:0:0:
72,248,142410,2,0,P|108:320|160:336,1,140.000000596046,8|2,0:0|0:0,0:0:0:0:
212,288,142883,1,0,0:0:0:0:
256,232,143041,2,0,L|256:156,2,70.000000298023,8|2|0,0:0|0:0|0:0,0:0:0:0:
300,288,143515,2,0,L|352:336,2,70.000000298023,8|2|0,0:0|0:0|0:0,0:0:0:0:
212,288,143989,2,0,L|160:336,1,70.000000298023,8|0,0:0|0:0,0:0:0:0:
32,284,144462,1,0,0:0:0:0:
55,219,144620,5,8,0:0:0:0:
92,160,144778,2,0,B|124:108|124:108|165:118|194:83,1,140.000000596046,8|0,0:0|0:0,0:0:0:0:
220,20,145252,1,2,0:0:0:0:
292,20,145410,1,0,0:0:0:0:
317,83,145567,2,0,B|346:118|387:108|387:108|420:160,1,140.000000596046,8|0,0:0|0:0,0:0:0:0:
457,219,146041,1,8,0:0:0:0:
292,348,146515,1,8,0:0:0:0:
262,140,146989,1,8,0:0:0:0:
224,80,147146,6,0,P|164:44|96:52,1,140.000000596046,8|8,0:0|0:0,0:0:0:0:
136,192,147778,1,2,0:0:0:0:
148,260,147936,1,0,0:0:0:0:
196,308,148094,2,0,P|256:344|324:336,1,140.000000596046,8|0,0:0|0:0,0:0:0:0:
324,268,148567,2,0,P|325:198|284:143,1,140.000000596046,8|0,0:0|0:0,0:0:0:0:
225,177,149041,1,8,0:0:0:0:
225,177,149199,2,0,P|163:210|136:273,1,140.000000596046,8|0,0:0|0:0,0:0:0:0:
100,332,149673,5,8,0:0:0:0:
44,288,149831,2,0,P|24:228|48:156,1,140.000000596046,8|8,0:0|0:0,0:0:0:0:
256,192,150620,1,8,0:0:0:0:
412,332,151094,1,8,0:0:0:0:
256,192,151567,1,8,0:0:0:0:
100,332,152041,1,8,0:0:0:0:
76,264,152199,6,0,B|50:196|50:196|74:128,1,140.000000596046,8|8,0:0|0:0,0:0:0:0:
100,68,152673,1,8,0:0:0:0:
256,208,153146,1,8,0:0:0:0:
412,68,153620,1,8,0:0:0:0:
438,132,153779,2,0,B|461:196|461:196|436:264,1,140.000000596046,8|8,0:0|0:0,0:0:0:0:
412,332,154252,1,8,0:0:0:0:
256,208,154725,6,0,L|256:128,1,70.000000298023,8|8,0:0|0:0,0:0:0:0:
144,52,155199,1,8,0:0:0:0:
88,96,155357,2,0,P|52:168|56:228,1,140.000000596046,2|8,0:0|0:0,0:0:0:0:
108,272,155831,2,0,P|176:260|220:312,1,140.000000596046,2|8,0:0|0:0,0:0:0:0:
292,308,156304,2,0,P|336:260|404:272,1,140.000000596046,2|8,0:0|0:0,0:0:0:0:
456,225,156778,2,0,P|460:168|424:96,1,140.000000596046,2|8,0:0|0:0,0:0:0:0:
368,52,157252,5,8,0:0:0:0:
256,136,157567,1,8,0:0:0:0:
144,52,157883,1,0,0:0:0:0:
144,52,158041,2,0,P|72:128|88:228,1,210.000000894069
