osu file format v12

[General]
AudioFilename: FULL TECHNO JACKASS - 06 Da Nu Nuttah.mp3
AudioLeadIn: 0
PreviewTime: 41041
Countdown: 1
SampleSet: Soft
StackLeniency: 0.7
Mode: 0
LetterboxInBreaks: 0

[Editor]
DistanceSpacing: 1
BeatDivisor: 2
GridSize: 4

[Metadata]
Title:Da Nu Nuttah
TitleUnicode:Da Nu Nuttah
Artist:Renard
ArtistUnicode:Renard
Creator:GamerX4life
Version:Easy
Source:
Tags:Full Techno Jackass Queenston Lapfox Trax raggacore breakcore Shy FX UK Apachi Blue Dragon Static Noise Bird snb jungle
BeatmapID:210515
BeatmapSetID:62665

[Difficulty]
HPDrainRate:1
CircleSize:3
OverallDifficulty:2
ApproachRate:3
SliderMultiplier:0.70000000596046
SliderTickRate:1

[Events]
//Background and Video events
0,0,"bgnuttah.jpg",0,0
//Break Periods
//Storyboard Layer 0 (Background)
//Storyboard Layer 1 (Fail)
//Storyboard Layer 2 (Pass)
//Storyboard Layer 3 (Foreground)
//Storyboard Sound Samples
//Background Colour Transformations
3,100,163,162,255

[TimingPoints]
35989,315.789473684211,4,2,0,55,1,0
41041,-100,4,2,0,70,0,1
61252,-100,4,2,0,70,0,0
101673,-100,4,2,0,70,0,1
131989,-100,4,2,0,70,0,0
158515,-100,4,2,0,5,0,0

[Colours]
Combo1 : 9,142,52
Combo2 : 253,224,19
Combo3 : 213,106,0
Combo4 : 249,0,0

[HitObjects]
256,92,35989,1,2,0:0:0:0:
200,136,36304,1,0,0:0:0:0:
176,200,36620,2,0,P|164:268|196:336,1,140.000001192092,8|0,0:0|0:0,0:0:0:0:
304,244,37883,2,0,P|316:176|284:108,1,140.000001192092,8|0,0:0|0:0,0:0:0:0:
256,192,39146,12,0,40410,0:0:0:0:
144,108,41041,6,0,P|92:148|88:164,2,70.000000596046,4|0|8,0:0|0:0|0:0,0:0:0:0:
256,192,42304,1,0,0:0:0:0:
368,108,42936,1,8,0:0:0:0:
384,246,43567,6,0,P|436:286|440:302,2,70.000000596046,2|0|8,0:0|0:0|0:0,0:0:0:0:
316,227,44515,2,0,B|204:207|204:207|180:67|32:79,1,350.00000298023,0|4,0:0|0:0,0:0:0:0:
66,215,46725,5,8,0:0:0:0:
184,289,47357,2,0,B|168:342|168:342|123:367,2,105.000000894069
204,220,48620,5,2,0:0:0:0:
288,108,49252,1,8,0:0:0:0:
356,116,49567,2,0,P|432:180|408:280,1,210.000001788138,0|8,0:0|3:0,0:0:0:0:
360,328,50831,1,8,3:0:0:0:
292,344,51146,5,4,0:0:0:0:
152,324,51778,1,8,0:0:0:0:
80,204,52410,2,0,P|92:152|68:108,2,105.000000894069,0|0|0,0:0|0:0|0:0,0:0:0:0:
60,272,53673,6,0,P|52:306|67:335,2,70.000000596046,2|0|8,0:0|0:0|0:0,0:0:0:0:
161,175,54936,2,0,L|257:71,1,140.000001192092,0|8,0:0|3:0,0:0:0:0:
352,176,56199,5,4,0:0:0:0:
316,236,56515,1,0,0:0:0:0:
260,276,56831,2,0,P|188:300|124:284,2,140.000001192092,8|0|8,0:0|0:0|0:0,0:0:0:0:
368,192,58725,6,0,L|416:136,2,70.000000596046,2|0|8,0:0|0:0|0:0,0:0:0:0:
256,108,59989,1,0,0:0:0:0:
144,192,60620,2,0,L|96:136,1,70.000000596046,8|8,3:0|3:0,0:0:0:0:
52,88,61252,5,4,0:0:0:0:
188,60,61883,1,8,0:0:0:0:
256,56,62199,1,0,0:0:0:0:
312,96,62515,2,0,P|353:146|389:152,2,105.000000894069
256,56,63778,5,2,0:0:0:0:
156,156,64410,2,0,B|116:176|116:176|120:232|68:248,1,140.000001192092,8|0,0:0|0:0,0:0:0:0:
204,284,65673,1,8,3:0:0:0:
340,248,66304,6,0,B|288:232|292:176|292:176|252:156,1,140.000001192092,4|8,0:0|0:0,0:0:0:0:
188,128,67252,1,0,0:0:0:0:
120,132,67567,1,0,0:0:0:0:
48,252,68199,1,8,0:0:0:0:
168,324,68831,5,2,0:0:0:0:
256,216,69462,1,8,0:0:0:0:
344,324,70094,2,0,B|360:308|360:308|392:304|392:304|408:284|408:284|440:280|440:280|460:256,1,140.000001192092,0|8,0:0|3:0,0:0:0:0:
488,196,71041,1,8,3:0:0:0:
457,132,71357,5,4,3:0:0:0:
344,48,71989,2,0,P|300:104|320:164,1,140.000001192092,8|0,0:0|0:0,0:0:0:0:
256,288,73252,2,0,L|256:364,2,70.000000596046,8|0|4,0:0|0:0|3:0,0:0:0:0:
192,164,74515,6,0,P|212:104|168:48,1,140.000001192092,8|0,0:0|0:0,0:0:0:0:
56,132,75778,1,8,3:0:0:0:
152,232,76410,6,0,P|132:292|176:348,1,140.000001192092,4|0,3:0|0:0,0:0:0:0:
296,276,77673,2,0,P|345:315|413:293,1,140.000001192092,4|0,3:0|0:0,0:0:0:0:
386,155,78936,2,0,P|439:121|442:50,2,140.000001192092,4|4|4,3:0|3:0|3:0,0:0:0:0:
112,100,81462,6,0,B|109:169|109:169|66:229,1,140.000001192092,4|8,0:0|0:0,0:0:0:0:
186,302,82725,1,0,0:0:0:0:
326,302,83357,1,8,0:0:0:0:
443,226,83989,6,0,B|402:169|402:169|400:100,1,140.000001192092,2|8,0:0|0:0,0:0:0:0:
260,120,85252,2,0,L|212:64,2,70.000000596046,0|0|8,0:0|0:0|0:0,0:0:0:0:
304,172,86199,1,0,0:0:0:0:
348,224,86515,5,2,0:0:0:0:
252,325,87146,2,0,P|177:342|119:317,1,140.000001192092,8|0,0:0|0:0,0:0:0:0:
32,208,88410,1,8,0:0:0:0:
44,140,88725,1,0,0:0:0:0:
100,100,89041,6,0,B|136:76|136:76|184:96|228:64,1,140.000001192092,2|8,0:0|0:0,0:0:0:0:
344,144,90304,2,0,B|308:168|308:168|260:148|216:180,1,140.000001192092,0|8,0:0|0:0,0:0:0:0:
164,228,91252,1,0,0:0:0:0:
136,292,91567,5,4,0:0:0:0:
264,348,92199,1,8,0:0:0:0:
320,220,92831,1,0,0:0:0:0:
192,164,93462,1,8,0:0:0:0:
140,116,93778,1,0,0:0:0:0:
72,100,94094,6,0,B|28:156|28:156|32:232,1,140.000001192092,2|8,0:0|0:0,0:0:0:0:
96,348,95357,2,0,B|140:292|140:292|136:216,2,140.000001192092,0|8|4,0:0|0:0|0:0,0:0:0:0:
232,320,97252,5,8,0:0:0:0:
356,252,97883,1,0,0:0:0:0:
384,116,98515,2,0,P|424:104|456:108,2,70.000000596046,8|0|2,0:0|0:0|0:0,0:0:0:0:
256,56,99778,5,8,0:0:0:0:
128,116,100410,2,0,P|88:104|56:108,1,70.000000596046
44,176,101041,2,0,P|32:216|36:248,1,70.000000596046,8|8,3:0|3:0,0:0:0:0:
104,260,101673,5,4,0:0:0:0:
204,160,102304,1,8,0:0:0:0:
344,156,102936,2,0,P|376:112|424:92,2,105.000000894069
324,224,104199,5,2,0:0:0:0:
256,344,104831,1,8,0:0:0:0:
188,356,105146,2,0,P|68:296|80:100,1,350.00000298023,0|4,0:0|0:0,0:0:0:0:
216,68,107357,5,8,0:0:0:0:
328,152,107989,2,0,B|380:132|380:132|400:88,2,105.000000894069,0|2|8,0:0|0:0|0:0,0:0:0:0:
264,180,109252,5,2,0:0:0:0:
180,292,109883,1,8,0:0:0:0:
112,280,110199,2,0,B|88:241|72:224|28:231|28:231|61:201|59:178|44:135,1,210.000001788138,0|8,0:0|3:0,0:0:0:0:
156,48,111778,5,4,0:0:0:0:
256,148,112410,1,8,0:0:0:0:
356,48,113041,2,0,B|384:44|384:44|400:80|448:80,2,105.000000894069,0|2|8,0:0|0:0|0:0,0:0:0:0:
288,64,114304,5,2,0:0:0:0:
264,204,114936,1,8,0:0:0:0:
154,113,115567,2,0,B|60:216|60:216|144:212|172:284,1,280.000002384184,0|4,0:0|0:0,0:0:0:0:
208,344,117146,5,0,0:0:0:0:
276,352,117462,1,8,0:0:0:0:
404,296,118094,2,0,P|456:260|464:220,2,105.000000894069,0|2|8,0:0|0:0|0:0,0:0:0:0:
332,296,119357,5,2,0:0:0:0:
256,180,119989,1,8,0:0:0:0:
180,296,120620,1,0,0:0:0:0:
116,172,121252,2,0,L|80:108,2,70.000000596046,8|8|2,3:0|3:0|0:0,0:0:0:0:
196,56,122515,5,8,0:0:0:0:
308,140,123146,2,0,P|376:128|400:104,2,105.000000894069,0|2|8,0:0|0:0|0:0,0:0:0:0:
240,116,124410,5,2,0:0:0:0:
132,208,125041,1,8,0:0:0:0:
224,316,125673,1,0,0:0:0:0:
332,224,126304,2,0,L|384:176,1,70.000000596046,8|8,3:0|3:0,0:0:0:0:
432,128,126936,5,4,0:0:0:0:
307,63,127567,2,0,B|236:63|236:63|171:89,1,140.000001192092,8|0,0:0|0:0,0:0:0:0:
84,196,128831,1,8,0:0:0:0:
84,264,129146,1,0,0:0:0:0:
140,308,129462,6,0,P|212:336|272:328,1,140.000001192092,2|8,0:0|0:0,0:0:0:0:
368,224,130725,2,0,P|296:196|236:204,2,140.000001192092,0|8|4,0:0|3:0|0:0,0:0:0:0:
480,140,132620,5,8,0:0:0:0:
364,60,133252,2,0,P|288:32|128:144,1,280.000002384184,0|2,0:0|0:0,0:0:0:0:
44,240,135146,5,8,0:0:0:0:
72,304,135462,1,0,0:0:0:0:
136,328,135778,2,0,P|212:356|372:244,1,280.000002384184,0|4,0:0|0:0,0:0:0:0:
326,123,137673,5,8,0:0:0:0:
186,123,138304,1,0,0:0:0:0:
144,256,138936,1,8,0:0:0:0:
256,340,139567,1,2,0:0:0:0:
368,256,140199,6,0,B|408:92|240:40|240:40|228:112|152:132,1,420.000003576276,8|4,0:0|0:0,0:0:0:0:
76,248,142725,6,0,P|124:276|172:268,2,105.000000894069,2|2|2,0:0|0:0|0:0,0:0:0:0:
32,192,143989,1,8,0:0:0:0:
144,108,144620,6,0,P|192:80|238:87,4,105.000000894069,8|8|8|8|8,0:0|0:0|0:0|0:0|0:0,0:0:0:0:
256,192,147146,5,8,0:0:0:0:
300,248,147462,1,8,0:0:0:0:
368,256,147778,2,0,B|424:264|424:264|472:239,2,105.000000894069,2|2|2,0:0|0:0|0:0,0:0:0:0:
300,248,149041,1,8,0:0:0:0:
260,112,149673,6,0,B|204:104|204:104|155:128,4,105.000000894069,8|8|8|8|8,0:0|0:0|0:0|0:0|0:0,0:0:0:0:
376,192,152199,5,8,0:0:0:0:
348,256,152515,2,0,P|296:316|228:340,1,140.000001192092,8|8,0:0|0:0,0:0:0:0:
172,340,153462,1,0,0:0:0:0:
84,228,154094,1,8,0:0:0:0:
224,208,154725,5,8,0:0:0:0:
252,144,155041,2,0,P|304:84|372:60,1,140.000001192092,8|8,0:0|0:0,0:0:0:0:
428,60,155988,1,0,0:0:0:0:
372,188,156620,1,8,0:0:0:0:
244,248,157252,5,8,0:0:0:0:
180,276,157567,2,0,B|128:296|128:296|84:276,2,105.000000894069,8|0|0,0:0|0:0|0:0,0:0:0:0:
