osu file format v5

[General]
AudioFilename: 1212130679.renardv_coward_killing_time.mp3
AudioLeadIn: 0
PreviewTime: -1
Countdown: 1
SampleSet: Normal
StackLeniency: 0.7
Mode: 0
LetterboxInBreaks: 1

[Metadata]
Title:Coward Killing Time!
Artist:Renard
Creator:amicalman
Version:Totaly Insane
Source:
Tags:

[Difficulty]
HPDrainRate:7
CircleSize:6
OverallDifficulty:7
SliderMultiplier:1.4
SliderTickRate:4

[Events]
//Background and Video events
//Break Periods
2,33725,44062
//Storyboard Layer 0 (Background)
//Storyboard Layer 1 (Failing)
//Storyboard Layer 2 (Passing)
//Storyboard Layer 3 (Foreground)
//Storyboard Sound Samples
//Background Colour Transformations
3,100,255,0,0

[TimingPoints]
0,300,4,1,0,100,1,0

[HitObjects]
128,192,9675,5,0
160,192,9787,1,0
192,192,9900,1,0
224,192,10012,1,0
256,192,10162,1,0
288,192,10275,1,0
320,192,10425,1,0
320,192,10575,1,0
320,224,10725,1,0
320,256,10875,1,0
320,256,11100,1,0
320,288,11212,1,0
320,288,11362,1,0
288,288,11512,1,0
256,288,11662,1,0
224,288,11812,1,0
192,288,11962,1,0
192,288,12112,1,0
160,288,12262,1,0
160,288,12412,1,0
160,256,12562,1,0
160,256,12712,1,0
160,224,12862,1,0
160,224,13012,1,0
160,192,13162,1,0
192,160,13312,1,0
192,160,13462,1,0
224,160,13612,1,0
288,160,13762,1,0
288,160,13912,1,0
320,160,14062,1,0
320,256,14362,1,0
256,256,14512,1,0
224,256,14662,1,0
192,256,14775,1,0
192,256,14962,1,0
192,224,15112,1,0
192,192,15225,1,0
192,160,15375,1,0
224,160,15525,1,0
256,160,15675,1,0
288,160,15825,1,0
320,160,15975,1,0
320,160,16162,1,0
352,192,16312,1,0
352,224,16462,1,0
352,256,16612,1,0
320,256,16800,1,0
320,256,16950,1,0
288,256,17100,1,0
256,256,17250,1,0
256,256,17400,1,0
224,256,17550,1,0
192,256,17700,1,0
192,256,17850,1,0
160,256,18000,1,0
160,256,18150,1,0
160,224,18300,1,0
160,224,18450,1,0
160,224,18562,1,0
160,192,18750,1,0
160,160,18862,1,0
192,128,19125,6,0,B|224:320,1,192.5
288,320,20287,2,0,B|256:96,1,210
256,192,21300,12,0,21562
288,192,21675,5,0
288,224,21787,1,0
288,224,21900,1,0
256,256,22050,1,0
224,224,22162,1,0
192,224,22312,1,0
192,224,22462,1,0
192,192,22612,1,0
192,192,22762,1,0
192,160,22912,1,0
224,160,23062,1,0
256,160,23212,1,0
288,160,23362,1,0
320,160,23512,1,0
320,192,23662,1,0
320,224,23850,1,0
320,224,23962,1,0
320,256,24150,1,0
320,288,24262,1,0
288,288,24412,1,0
256,288,24562,1,0
224,288,24712,1,0
224,288,24862,1,0
224,288,25012,1,0
224,256,25162,1,0
224,256,25312,1,0
224,224,25425,1,0
224,192,25612,1,0
256,192,25725,1,0
256,192,25875,1,0
288,192,26025,1,0
288,224,26325,1,0
288,224,26550,1,0
288,256,26662,1,0
288,256,26812,1,0
288,288,26962,1,0
256,256,27112,1,0
224,256,27262,1,0
224,288,27412,1,0
224,320,27562,1,0
224,320,27712,1,0
192,320,27862,1,0
192,320,28012,1,0
160,320,28162,1,0
160,288,28312,1,0
160,288,28462,1,0
160,256,28612,1,0
160,224,28762,1,0
160,192,28912,1,0
160,192,29062,1,0
192,192,29212,1,0
192,192,29362,1,0
224,192,29512,1,0
224,192,29662,1,0
256,192,29812,1,0
288,192,29962,1,0
288,192,30112,1,0
320,192,30262,1,0
320,192,30412,1,0
320,224,30562,1,0
320,256,30712,1,0
288,256,30862,1,0
192,320,31125,6,0,B|192:160,1,157.5
256,160,32437,2,0,B|256:320,1,157.5
192,192,33337,1,0
192,192,33375,1,0
224,192,33412,1,0
224,192,33450,1,0
256,192,33487,1,0
256,192,33525,1,0
256,192,44962,12,0,45262
288,192,45600,5,0
256,192,45637,1,0
256,192,45750,1,0
224,192,45787,1,0
192,192,45900,1,0
192,224,45975,1,0
224,256,46012,1,0
224,256,46087,1,0
256,256,46162,1,0
288,256,46200,1,0
288,256,46312,1,0
320,224,46425,1,0
320,224,46537,1,0
320,192,46575,1,0
256,192,46687,1,0
224,192,46762,1,0
192,224,46837,1,0
224,256,46912,1,0
256,288,46987,1,0
256,320,47062,1,0
320,320,47137,1,0
352,288,47250,1,0
384,256,47325,1,0
384,256,47362,1,0
352,224,47475,1,0
256,192,47550,1,0
224,256,47700,1,0
256,288,47775,1,0
288,288,47850,1,0
288,288,48000,1,0
320,256,48075,1,0
320,224,48150,1,0
256,320,48375,1,0
288,320,48450,1,0
352,288,48525,1,0
352,256,48637,1,0
320,256,48712,1,0
288,224,48787,1,0
288,288,48862,1,0
288,288,48937,1,0
320,288,49050,1,0
320,256,49125,1,0
288,288,49312,1,0
288,288,49387,1,0
256,256,49425,1,0
256,256,49537,1,0
256,288,49612,1,0
320,288,49800,1,0
320,256,49875,1,0
320,224,49950,1,0
320,224,50062,1,0
256,224,50212,1,0
256,224,50287,1,0
256,224,50437,1,0
224,224,50550,1,0
224,224,50625,1,0
224,224,50737,1,0
224,192,50812,1,0
224,192,50887,1,0
256,192,50962,1,0
288,224,51037,1,0
288,224,51112,1,0
320,256,51187,1,0
320,288,51262,1,0
256,288,51412,1,0
224,288,51525,1,0
192,224,51600,1,0
192,192,51712,1,0
224,192,51787,1,0
256,192,51862,1,0
288,224,52012,1,0
288,224,52087,1,0
288,224,52200,1,0
288,192,52350,1,0
288,192,52387,1,0
320,192,52500,1,0
352,192,52650,1,0
352,192,52725,1,0
352,192,52800,1,0
352,192,52875,1,0
352,224,52950,1,0
352,256,53062,1,0
320,256,53137,1,0
320,256,53175,1,0
288,224,53362,1,0
256,224,53437,1,0
224,224,53512,1,0
224,256,53587,1,0
224,288,53700,1,0
256,288,53775,1,0
256,320,53887,1,0
320,320,54037,1,0
256,192,54300,12,0,55162
128,256,57487,5,0
160,256,57675,1,0
192,256,57825,1,0
224,256,57975,1,0
224,256,58087,1,0
256,256,58275,1,0
288,256,58425,1,0
320,256,58537,1,0
320,256,58725,1,0
320,224,58875,1,0
320,224,59025,1,0
320,224,59175,1,0
320,192,59325,1,0
320,192,59475,1,0
320,160,59662,1,0
320,160,59775,1,0
288,160,59925,1,0
256,160,60112,1,0
256,160,60262,1,0
256,192,60375,1,0
256,224,60525,1,0
256,256,60675,1,0
256,256,60862,1,0
256,288,61012,1,0
288,288,61162,1,0
320,288,61312,1,0
320,288,61462,1,0
352,256,61650,1,0
352,224,61912,1,0
352,224,62025,1,0
320,192,62400,1,0
320,192,62512,1,0
288,192,62662,1,0
288,192,62812,1,0
288,192,62962,1,0
288,224,63112,1,0
288,256,63262,1,0
288,256,63412,1,0
288,288,63562,1,0
320,288,63675,1,0
320,288,63825,1,0
352,288,64012,1,0
384,288,64162,1,0
384,288,64275,1,0
384,256,64425,1,0
384,256,64612,1,0
384,224,64762,5,0
384,224,64837,1,0
352,192,64987,1,0
352,192,65025,1,0
352,192,65137,1,0
320,192,65212,1,0
288,192,65287,1,0
288,224,65362,1,0
288,256,65437,1,0
320,288,65512,1,0
224,288,65587,1,0
192,288,65662,1,0
192,256,65775,1,0
192,224,65850,1,0
192,224,65925,1,0
192,224,66000,1,0
128,160,67200,1,0
