osu file format v12

[General]
AudioFilename: Boss Rush.mp3
AudioLeadIn: 3000
PreviewTime: -1
Countdown: 0
SampleSet: Normal
StackLeniency: 0.7
Mode: 0
LetterboxInBreaks: 1

[Editor]
DistanceSpacing: 0.8
BeatDivisor: 2
GridSize: 8

[Metadata]
Title:Boss Rush
TitleUnicode:Boss Rush
Artist:Renard
ArtistUnicode:Renard
Creator:Starz0r
Version:Dizzy
Source:Mungyodance 3
Tags:
BeatmapID:262928
BeatmapSetID:98602

[Difficulty]
HPDrainRate:8
CircleSize:4
OverallDifficulty:6
ApproachRate:10
SliderMultiplier:2
SliderTickRate:1

[Events]
//Background and Video events
0,0,"renardbossrush.jpg",0,0
//Break Periods
//Storyboard Layer 0 (Background)
//Storyboard Layer 1 (Fail)
//Storyboard Layer 2 (Pass)
//Storyboard Layer 3 (Foreground)
//Storyboard Sound Samples
//Background Colour Transformations
3,100,163,162,255

[TimingPoints]
100,184.615384615385,4,1,0,100,1,0
9738,150,4,1,0,100,1,0
31309,184.615384615385,4,1,0,100,1,0
40929,150,4,1,0,100,1,0
70909,184.615384615385,4,1,0,100,1,0
79340,150,4,1,0,100,1,0
104509,184.615384615385,4,1,0,100,1,0
114140,138.248847926267,4,1,0,100,1,0
142864,184.615384615385,4,1,0,100,1,0
152554,600,4,1,0,100,1,0
186154,184.615384615385,4,1,0,100,1,0
195754,150,4,1,0,100,1,0
214954,184.615384615385,4,1,0,100,1,0
224554,333.333333333333,4,1,0,100,1,0
255720,184.615384615385,4,1,0,100,1,0
265320,227.272727272727,4,1,0,100,1,0
295320,184.615384615385,4,1,0,100,1,0
304920,150,4,1,0,100,1,0
314520,184.615384615385,4,1,0,100,1,0
324120,342.857142857143,4,1,0,100,1,0
343405,184.615384615385,4,1,0,100,1,0
352958,276.497695852535,4,1,0,100,1,0
372174,184.615384615385,4,1,0,100,1,0
381727,307.692307692308,4,1,0,100,1,0
401111,184.615384615385,4,1,0,100,1,0
410526,307.692307692308,4,1,0,100,1,0
422526,184.615384615385,4,1,0,100,1,0
432126,333.333333333333,4,1,0,100,1,0
455042,184.615384615385,4,1,0,100,1,0
464549,95.6937799043062,4,1,0,100,1,0
484979,184.615384615385,4,1,0,100,1,0
494532,150,4,1,0,100,1,0
534132,184.615384615385,4,1,0,100,1,0

[Colours]
Combo1 : 0,0,255
Combo2 : 255,0,0
Combo3 : 0,0,0
Combo4 : 255,255,255
Combo5 : 192,192,192

[HitObjects]
88,88,195754,1,0,0:0:0:0:
120,56,195829,1,0,0:0:0:0:
152,64,195904,1,0,0:0:0:0:
192,88,195979,1,0,0:0:0:0:
240,64,196054,1,0,0:0:0:0:
288,48,196129,1,0,0:0:0:0:
328,72,196204,1,0,0:0:0:0:
384,64,196279,1,0,0:0:0:0:
424,64,196354,1,0,0:0:0:0:
456,88,196429,1,0,0:0:0:0:
464,120,196504,1,0,0:0:0:0:
456,160,196579,1,0,0:0:0:0:
424,176,196654,1,0,0:0:0:0:
432,208,196729,5,0,0:0:0:0:
432,240,196804,1,0,0:0:0:0:
416,272,196879,1,0,0:0:0:0:
392,296,196954,1,0,0:0:0:0:
408,328,197029,1,0,0:0:0:0:
400,360,197104,1,0,0:0:0:0:
360,368,197179,1,0,0:0:0:0:
328,344,197254,1,0,0:0:0:0:
304,312,197329,1,0,0:0:0:0:
320,280,197404,1,0,0:0:0:0:
296,256,197479,1,0,0:0:0:0:
264,248,197554,1,0,0:0:0:0:
240,272,197629,1,0,0:0:0:0:
224,304,197704,1,0,0:0:0:0:
216,336,197779,1,0,0:0:0:0:
184,344,197854,5,0,0:0:0:0:
144,352,197929,1,0,0:0:0:0:
104,344,198004,1,0,0:0:0:0:
80,312,198079,1,0,0:0:0:0:
96,280,198154,1,0,0:0:0:0:
120,248,198229,1,0,0:0:0:0:
131,221,198304,1,0,0:0:0:0:
134,192,198379,1,0,0:0:0:0:
119,168,198454,1,0,0:0:0:0:
93,156,198529,1,0,0:0:0:0:
67,144,198604,1,0,0:0:0:0:
74,120,198679,1,0,0:0:0:0:
100,107,198754,1,0,0:0:0:0:
128,100,198829,1,0,0:0:0:0:
157,97,198904,5,0,0:0:0:0:
186,97,198979,1,0,0:0:0:0:
215,98,199054,1,0,0:0:0:0:
244,99,199129,1,0,0:0:0:0:
272,95,199204,1,0,0:0:0:0:
304,80,199279,1,0,0:0:0:0:
345,72,199354,1,0,0:0:0:0:
386,80,199429,1,0,0:0:0:0:
405,115,199504,1,0,0:0:0:0:
404,157,199579,1,0,0:0:0:0:
405,199,199654,1,0,0:0:0:0:
406,241,199729,1,0,0:0:0:0:
400,282,199804,1,0,0:0:0:0:
376,312,199879,1,0,0:0:0:0:
336,336,199954,1,0,0:0:0:0:
272,296,200029,5,0,0:0:0:0:
248,272,200104,1,0,0:0:0:0:
224,248,200179,1,0,0:0:0:0:
200,224,200254,1,0,0:0:0:0:
176,200,200329,1,0,0:0:0:0:
160,296,200404,5,0,0:0:0:0:
128,272,200479,1,0,0:0:0:0:
96,248,200554,1,0,0:0:0:0:
64,224,200629,1,0,0:0:0:0:
32,208,200704,1,0,0:0:0:0:
40,96,200779,5,0,0:0:0:0:
72,88,200854,1,0,0:0:0:0:
104,96,200929,1,0,0:0:0:0:
136,80,201004,1,0,0:0:0:0:
168,96,201079,1,0,0:0:0:0:
232,144,201154,5,0,0:0:0:0:
256,120,201229,1,0,0:0:0:0:
288,112,201304,1,0,0:0:0:0:
320,112,201379,1,0,0:0:0:0:
352,104,201454,1,0,0:0:0:0:
376,80,201529,2,0,L|472:24,1,100
464,168,201829,5,0,0:0:0:0:
432,192,201904,1,0,0:0:0:0:
432,224,201979,1,0,0:0:0:0:
456,248,202054,1,0,0:0:0:0:
440,280,202129,1,0,0:0:0:0:
416,312,202204,1,0,0:0:0:0:
400,344,202279,1,0,0:0:0:0:
368,352,202354,1,0,0:0:0:0:
336,336,202429,1,0,0:0:0:0:
328,304,202504,1,0,0:0:0:0:
296,288,202579,1,0,0:0:0:0:
240,336,202654,5,0,0:0:0:0:
208,336,202729,1,0,0:0:0:0:
176,320,202804,1,0,0:0:0:0:
144,296,202879,1,0,0:0:0:0:
128,264,202954,1,0,0:0:0:0:
152,232,203029,1,0,0:0:0:0:
168,200,203104,1,0,0:0:0:0:
72,184,203179,5,0,0:0:0:0:
80,152,203254,1,0,0:0:0:0:
96,120,203329,1,0,0:0:0:0:
112,88,203404,1,0,0:0:0:0:
136,64,203479,1,0,0:0:0:0:
168,56,203554,1,0,0:0:0:0:
200,48,203629,1,0,0:0:0:0:
240,96,203704,5,0,0:0:0:0:
288,40,203779,1,0,0:0:0:0:
344,96,203854,1,0,0:0:0:0:
376,160,203929,1,0,0:0:0:0:
416,224,204004,1,0,0:0:0:0:
456,288,204079,1,0,0:0:0:0:
384,288,204154,1,0,0:0:0:0:
328,272,204229,5,0,0:0:0:0:
184,272,204379,1,0,0:0:0:0:
392,272,204529,1,0,0:0:0:0:
256,272,204679,1,0,0:0:0:0:
112,272,204829,1,0,0:0:0:0:
256,272,204979,1,0,0:0:0:0:
40,272,205129,1,0,0:0:0:0:
392,120,205429,5,0,0:0:0:0:
104,120,205616,5,0,0:0:0:0:
200,184,205767,1,0,0:0:0:0:
296,232,205954,1,0,0:0:0:0:
464,56,206254,5,0,0:0:0:0:
320,128,206404,1,0,0:0:0:0:
464,232,206554,1,0,0:0:0:0:
384,352,206779,5,0,0:0:0:0:
264,264,206929,1,0,0:0:0:0:
160,176,207079,1,0,0:0:0:0:
120,64,207379,5,0,0:0:0:0:
328,176,207529,1,0,0:0:0:0:
112,280,207679,1,0,0:0:0:0:
472,40,208129,5,0,0:0:0:0:
256,32,208279,1,0,0:0:0:0:
32,32,208429,1,0,0:0:0:0:
256,32,208579,1,0,0:0:0:0:
256,192,208729,1,0,0:0:0:0:
256,352,208879,1,0,0:0:0:0:
