osu file format v12

[General]
AudioFilename: Renard - Because Maybe! pt1.mp3
AudioLeadIn: 3000
PreviewTime: 201338
Countdown: 0
SampleSet: Normal
StackLeniency: 0.7
Mode: 1
LetterboxInBreaks: 0
SkinPreference:taiko

[Editor]
Bookmarks: 627,140248,316985,428985,476992,688314,830064,846314,1028314
DistanceSpacing: 0.9
BeatDivisor: 4
GridSize: 16

[Metadata]
Title:Because Maybe! pt. 3
TitleUnicode:Because Maybe! pt. 3
Artist:Renard
ArtistUnicode:Renard
Creator:Blue Dragon
Version:Taiko Collab
Source:
Tags:lapfox fuck your rails too dear spark chelsea smile let's move tu4ar the entire world cristian kurisuchianu backfire onosakihito [luanny] norbi
BeatmapID:192573
BeatmapSetID:30013

[Difficulty]
HPDrainRate:2
CircleSize:5
OverallDifficulty:6
ApproachRate:5
SliderMultiplier:1.4
SliderTickRate:1

[Events]
//Background and Video events
0,0,"DFT1e.jpg",1,1
//Break Periods
2,589192,602792
2,821514,829114
//Storyboard Layer 0 (Background)
//Storyboard Layer 1 (Fail)
//Storyboard Layer 2 (Pass)
//Storyboard Layer 3 (Foreground)
Sprite,Foreground,Centre,"Taiko_SB\kurosanyan.png",320,240 M,0,627,,120,320 S,0,627,,0.7 F,0,627,899,0,1 F,0,899,139172,1,0.9889706 F,0,139172,140248,0.9889706,0
Sprite,Foreground,Centre,"Taiko_SB\cristian.png",320,240 M,0,140248,,120,320 S,0,140248,,0.7 F,0,140248,141338,0,1 F,0,141338,314793,1 F,0,314793,315884,1,0
Sprite,Foreground,Centre,"Taiko_SB\onosakihito.png",320,240 M,0,476992,,120,320 S,0,476992,,0.7 F,0,476992,477242,0,1 F,0,477242,684992,1 F,0,684992,685992,1,0
Sprite,Foreground,Centre,"Taiko_SB\luanny.png",320,240 M,0,688314,,120,320 S,0,688314,,0.7 F,0,688314,689314,0,1 F,0,689314,821314,1,0.9980036 F,0,821314,823314,0.9980036,0
Sprite,Foreground,Centre,"Taiko_SB\backfire.png",320,240 M,0,316985,,120,320 S,0,316985,,0.7 F,0,316985,317235,0,1 F,0,317235,475985,1,0.988 F,0,475985,476992,0.988,0
Sprite,Foreground,Centre,"Taiko_SB\norbi.png",320,240 M,0,830064,,120,320 S,0,830064,,0.7 F,0,830064,831314,0,1 F,0,831314,1028314,1,0.9992 F,0,1028314,1029314,0.9992,0
//Storyboard Sound Samples
//Background Colour Transformations
3,100,163,162,255

[TimingPoints]
627,272.727272727273,4,1,0,75,1,0
87899,-100,4,1,0,80,0,1
121717,-100,4,1,0,80,0,0
140248,272.727272727273,4,1,0,75,1,0
201338,-100,4,1,0,80,0,1
223157,-100,4,1,0,80,0,0
292975,-100,4,1,0,80,0,1
314793,-100,4,1,0,80,0,0
316985,250,4,1,0,75,1,0
348985,-100,4,1,0,80,0,1
380985,-100,4,1,0,80,0,0
404985,-100,4,1,0,80,0,1
412985,-100,4,1,0,80,0,0
476992,250,4,1,0,75,1,0
540992,-100,4,1,0,80,0,1
556992,-100,4,1,0,80,0,0
572992,-100,4,1,0,80,0,1
588992,-100,4,1,0,80,0,0
620992,-100,4,1,0,80,0,1
650992,-100,4,1,0,80,0,0
688314,250,4,1,0,75,1,0
773314,-100,4,1,0,80,0,1
787314,-100,4,1,0,80,0,0
805314,-100,4,1,0,80,0,1
821314,-100,4,1,0,80,0,0
886314,-100,4,1,0,80,0,1
902314,-100,4,1,0,80,0,0
960314,-133.333333333333,4,1,0,80,0,0
962064,-200,4,1,0,80,0,0
962314,-200,4,1,0,80,0,0
972314,-200,4,1,0,80,0,0
973314,-166.666666666667,4,1,0,80,0,0
974314,-142.857142857143,4,1,0,80,0,0
975314,-125,4,1,0,80,0,0
976314,-111.111111111111,4,1,0,80,0,0
977314,-100,4,1,0,80,0,0
978064,-83.3333333333333,4,1,0,80,0,0
980314,-100,4,1,0,80,0,0
996314,-100,4,1,0,80,0,1
1010314,-100,4,1,0,80,0,0
1012314,-100,4,1,0,80,0,1
1028314,-100,4,1,0,80,0,0

[HitObjects]
256,192,81,1,4,0:0:0:0:
256,192,354,5,8,0:0:0:0:
256,192,490,1,8,0:0:0:0:
256,192,627,5,4,0:0:0:0:
256,192,763,1,0,0:0:0:0:
256,192,899,1,0,0:0:0:0:
256,192,1036,5,8,0:0:0:0:
256,192,1308,5,0,0:0:0:0:
256,192,1377,1,0,0:0:0:0:
256,192,1445,5,8,0:0:0:0:
256,192,1717,1,8,0:0:0:0:
256,192,1990,5,0,0:0:0:0:
256,192,2127,5,8,0:0:0:0:
256,192,2399,5,0,0:0:0:0:
256,192,2467,1,0,0:0:0:0:
256,192,2536,5,8,0:0:0:0:
256,192,2672,1,8,0:0:0:0:
256,192,2808,5,0,0:0:0:0:
256,192,2945,1,0,0:0:0:0:
256,192,3081,1,0,0:0:0:0:
256,192,3217,5,8,0:0:0:0:
256,192,3489,5,0,0:0:0:0:
256,192,3558,1,0,0:0:0:0:
256,192,3626,5,8,0:0:0:0:
256,192,3898,1,8,0:0:0:0:
256,192,4172,5,0,0:0:0:0:
256,192,4308,1,0,0:0:0:0:
256,192,4445,5,8,0:0:0:0:
256,192,4581,5,0,0:0:0:0:
256,192,4649,5,8,0:0:0:0:
256,192,4786,5,0,0:0:0:0:
256,192,4854,5,8,0:0:0:0:
256,192,4990,5,0,0:0:0:0:
256,192,5126,1,0,0:0:0:0:
256,192,5262,1,0,0:0:0:0:
256,192,5399,5,8,0:0:0:0:
256,192,5671,5,0,0:0:0:0:
256,192,5740,1,0,0:0:0:0:
256,192,5808,5,8,0:0:0:0:
256,192,6080,1,8,0:0:0:0:
256,192,6353,5,0,0:0:0:0:
256,192,6490,5,8,0:0:0:0:
256,192,6762,5,0,0:0:0:0:
256,192,6830,1,0,0:0:0:0:
256,192,6899,5,8,0:0:0:0:
256,192,7035,1,8,0:0:0:0:
256,192,7171,5,0,0:0:0:0:
256,192,7308,1,0,0:0:0:0:
256,192,7444,1,0,0:0:0:0:
256,192,7580,5,8,0:0:0:0:
256,192,7854,5,0,0:0:0:0:
256,192,7922,1,0,0:0:0:0:
256,192,7990,5,8,0:0:0:0:
256,192,8263,1,8,0:0:0:0:
256,192,8536,5,0,0:0:0:0:
256,192,8672,1,0,0:0:0:0:
256,192,8809,5,8,0:0:0:0:
256,192,8945,1,8,0:0:0:0:
256,192,9081,5,0,0:0:0:0:
256,192,9149,5,8,0:0:0:0:
256,192,9217,5,0,0:0:0:0:
256,192,9286,5,8,0:0:0:0:
256,192,9354,5,0,0:0:0:0:
256,192,9490,5,8,0:0:0:0:
256,192,9627,1,8,0:0:0:0:
256,192,9763,5,0,0:0:0:0:
256,192,9899,5,8,0:0:0:0:
256,192,10036,1,8,0:0:0:0:
256,192,10172,5,0,0:0:0:0:
256,192,10445,5,12,0:0:0:0:
256,192,10581,5,0,0:0:0:0:
256,192,10717,1,0,0:0:0:0:
256,192,10854,5,8,0:0:0:0:
256,192,10990,5,0,0:0:0:0:
256,192,11126,1,0,0:0:0:0:
256,192,11263,5,8,0:0:0:0:
256,192,11536,5,4,0:0:0:0:
256,192,11672,5,8,0:0:0:0:
256,192,11809,1,8,0:0:0:0:
256,192,11945,5,0,0:0:0:0:
256,192,12081,5,8,0:0:0:0:
256,192,12218,1,8,0:0:0:0:
256,192,12354,5,0,0:0:0:0:
256,192,12627,5,12,0:0:0:0:
256,192,12763,5,0,0:0:0:0:
256,192,12899,1,0,0:0:0:0:
256,192,13036,1,0,0:0:0:0:
256,192,13172,5,8,0:0:0:0:
256,192,13308,1,8,0:0:0:0:
256,192,13445,5,0,0:0:0:0:
256,192,13581,5,8,0:0:0:0:
256,192,13717,5,4,0:0:0:0:
256,192,13853,5,8,0:0:0:0:
256,192,13990,1,8,0:0:0:0:
256,192,14126,5,0,0:0:0:0:
256,192,14262,5,8,0:0:0:0:
256,192,14399,1,8,0:0:0:0:
256,192,14535,5,0,0:0:0:0:
256,192,14808,5,12,0:0:0:0:
256,192,14944,5,0,0:0:0:0:
256,192,15080,1,0,0:0:0:0:
256,192,15217,5,8,0:0:0:0:
256,192,15353,5,0,0:0:0:0:
256,192,15489,1,0,0:0:0:0:
256,192,15626,5,8,0:0:0:0:
256,192,15899,5,4,0:0:0:0:
256,192,16035,5,8,0:0:0:0:
256,192,16172,1,8,0:0:0:0:
256,192,16308,5,0,0:0:0:0:
256,192,16444,5,8,0:0:0:0:
256,192,16581,1,8,0:0:0:0:
256,192,16717,5,0,0:0:0:0:
256,192,16990,5,8,0:0:0:0:
256,192,17058,1,8,0:0:0:0:
256,192,17126,5,0,0:0:0:0:
256,192,17195,1,0,0:0:0:0:
256,192,17263,5,8,0:0:0:0:
256,192,17399,5,0,0:0:0:0:
256,192,17536,5,8,0:0:0:0:
256,192,17672,1,8,0:0:0:0:
256,192,17808,5,0,0:0:0:0:
256,192,17945,5,8,0:0:0:0:
256,192,18013,1,8,0:0:0:0:
256,192,18081,5,0,0:0:0:0:
256,192,18217,5,8,0:0:0:0:
256,192,18354,1,8,0:0:0:0:
256,192,18490,5,0,0:0:0:0:
256,192,18626,5,8,0:0:0:0:
256,192,18763,1,8,0:0:0:0:
256,192,18899,5,0,0:0:0:0:
256,192,19036,1,0,0:0:0:0:
256,192,19172,5,12,0:0:0:0:
256,192,19308,5,0,0:0:0:0:
256,192,19444,1,0,0:0:0:0:
256,192,19581,5,8,0:0:0:0:
256,192,19717,5,0,0:0:0:0:
256,192,19853,1,0,0:0:0:0:
256,192,19990,5,8,0:0:0:0:
256,192,20127,1,8,0:0:0:0:
256,192,20263,5,4,0:0:0:0:
256,192,20399,5,8,0:0:0:0:
256,192,20536,1,8,0:0:0:0:
256,192,20672,5,0,0:0:0:0:
256,192,20808,5,8,0:0:0:0:
256,192,20945,1,8,0:0:0:0:
256,192,21081,5,0,0:0:0:0:
256,192,21217,1,0,0:0:0:0:
256,192,21354,5,12,0:0:0:0:
256,192,21490,5,0,0:0:0:0:
256,192,21626,1,0,0:0:0:0:
256,192,21763,1,0,0:0:0:0:
256,192,21899,5,8,0:0:0:0:
256,192,22035,1,8,0:0:0:0:
256,192,22172,5,0,0:0:0:0:
256,192,22308,5,8,0:0:0:0:
256,192,22444,5,4,0:0:0:0:
256,192,22580,5,8,0:0:0:0:
256,192,22717,1,8,0:0:0:0:
256,192,22853,5,0,0:0:0:0:
256,192,22989,5,8,0:0:0:0:
256,192,23126,1,8,0:0:0:0:
256,192,23262,5,0,0:0:0:0:
256,192,23399,1,0,0:0:0:0:
256,192,23535,5,12,0:0:0:0:
256,192,23671,5,0,0:0:0:0:
256,192,23807,1,0,0:0:0:0:
256,192,23944,5,8,0:0:0:0:
256,192,24080,5,0,0:0:0:0:
256,192,24216,1,0,0:0:0:0:
256,192,24353,5,8,0:0:0:0:
256,192,24490,1,8,0:0:0:0:
256,192,24626,5,4,0:0:0:0:
256,192,24762,5,8,0:0:0:0:
256,192,24899,1,8,0:0:0:0:
256,192,25035,5,0,0:0:0:0:
256,192,25171,5,8,0:0:0:0:
256,192,25308,1,8,0:0:0:0:
256,192,25444,5,0,0:0:0:0:
256,192,25581,1,0,0:0:0:0:
256,192,25717,5,8,0:0:0:0:
256,192,25853,5,0,0:0:0:0:
256,192,25922,1,0,0:0:0:0:
256,192,25990,5,8,0:0:0:0:
256,192,26126,1,8,0:0:0:0:
256,192,26263,5,0,0:0:0:0:
256,192,26399,5,8,0:0:0:0:
256,192,26535,5,0,0:0:0:0:
256,192,26808,1,4,0:0:0:0:
256,192,26945,1,0,0:0:0:0:
256,192,27081,5,8,0:0:0:0:
256,192,27354,5,0,0:0:0:0:
256,192,27490,1,0,0:0:0:0:
256,192,27763,5,8,0:0:0:0:
256,192,28036,5,0,0:0:0:0:
256,192,28104,1,0,0:0:0:0:
256,192,28172,5,8,0:0:0:0:
256,192,28308,5,0,0:0:0:0:
256,192,28445,1,0,0:0:0:0:
256,192,28581,1,0,0:0:0:0:
256,192,28717,1,0,0:0:0:0:
256,192,28786,1,0,0:0:0:0:
256,192,28854,1,0,0:0:0:0:
256,192,28922,1,0,0:0:0:0:
256,192,28990,1,0,0:0:0:0:
256,192,29127,1,0,0:0:0:0:
256,192,29263,5,8,0:0:0:0:
256,192,29536,5,0,0:0:0:0:
256,192,29672,1,0,0:0:0:0:
256,192,29945,5,8,0:0:0:0:
256,192,30218,5,0,0:0:0:0:
256,192,30286,1,0,0:0:0:0:
256,192,30354,5,8,0:0:0:0:
256,192,30490,5,0,0:0:0:0:
256,192,30627,1,0,0:0:0:0:
256,192,30763,1,0,0:0:0:0:
256,192,30899,1,0,0:0:0:0:
256,192,30968,5,8,0:0:0:0:
256,192,31036,5,0,0:0:0:0:
256,192,31104,5,8,0:0:0:0:
256,192,31172,5,0,0:0:0:0:
256,192,31309,1,0,0:0:0:0:
256,192,31445,5,8,0:0:0:0:
256,192,31718,5,0,0:0:0:0:
256,192,31854,1,0,0:0:0:0:
256,192,32127,5,8,0:0:0:0:
256,192,32400,5,0,0:0:0:0:
256,192,32468,1,0,0:0:0:0:
256,192,32536,5,8,0:0:0:0:
256,192,32672,5,0,0:0:0:0:
256,192,32809,1,0,0:0:0:0:
256,192,32945,1,0,0:0:0:0:
256,192,33081,1,0,0:0:0:0:
256,192,33150,1,0,0:0:0:0:
256,192,33218,1,0,0:0:0:0:
256,192,33286,1,0,0:0:0:0:
256,192,33354,1,0,0:0:0:0:
256,192,33491,1,0,0:0:0:0:
256,192,33627,5,8,0:0:0:0:
256,192,33900,5,0,0:0:0:0:
256,192,34036,1,0,0:0:0:0:
256,192,34309,5,8,0:0:0:0:
256,192,34581,5,0,0:0:0:0:
256,192,34649,1,0,0:0:0:0:
256,192,34717,5,8,0:0:0:0:
256,192,34853,5,0,0:0:0:0:
256,192,34990,5,8,0:0:0:0:
256,192,35127,5,0,0:0:0:0:
256,192,35195,1,0,0:0:0:0:
256,192,35263,5,8,0:0:0:0:
256,192,35399,1,8,0:0:0:0:
256,192,35536,5,4,0:0:0:0:
256,192,35672,5,8,0:0:0:0:
256,192,35945,5,0,0:0:0:0:
256,192,36081,5,8,0:0:0:0:
256,192,36217,5,0,0:0:0:0:
256,192,36286,5,8,0:0:0:0:
256,192,36354,5,0,0:0:0:0:
256,192,36490,5,8,0:0:0:0:
256,192,36627,5,0,0:0:0:0:
256,192,36763,5,8,0:0:0:0:
256,192,37036,5,0,0:0:0:0:
256,192,37172,5,8,0:0:0:0:
256,192,37308,5,0,0:0:0:0:
256,192,37377,1,0,0:0:0:0:
256,192,37445,5,8,0:0:0:0:
256,192,37581,5,0,0:0:0:0:
256,192,37717,1,0,0:0:0:0:
256,192,37854,5,8,0:0:0:0:
256,192,38127,5,0,0:0:0:0:
256,192,38263,5,8,0:0:0:0:
256,192,38399,1,8,0:0:0:0:
256,192,38467,1,8,0:0:0:0:
256,192,38536,5,0,0:0:0:0:
256,192,38672,5,8,0:0:0:0:
256,192,38809,5,0,0:0:0:0:
256,192,38945,5,8,0:0:0:0:
256,192,39218,5,0,0:0:0:0:
256,192,39354,5,8,0:0:0:0:
256,192,39627,5,0,0:0:0:0:
256,192,39763,5,8,0:0:0:0:
256,192,39899,5,0,0:0:0:0:
256,192,40036,5,8,0:0:0:0:
256,192,40309,5,0,0:0:0:0:
256,192,40445,5,8,0:0:0:0:
256,192,40581,5,0,0:0:0:0:
256,192,40650,5,8,0:0:0:0:
256,192,40718,5,0,0:0:0:0:
256,192,40854,5,8,0:0:0:0:
256,192,40991,5,0,0:0:0:0:
256,192,41127,5,8,0:0:0:0:
256,192,41400,5,0,0:0:0:0:
256,192,41536,5,8,0:0:0:0:
256,192,41604,1,8,0:0:0:0:
256,192,41672,5,0,0:0:0:0:
256,192,41741,1,0,0:0:0:0:
256,192,41809,5,8,0:0:0:0:
256,192,41877,1,8,0:0:0:0:
256,192,41945,5,0,0:0:0:0:
256,192,42081,1,0,0:0:0:0:
256,192,42217,5,8,0:0:0:0:
256,192,42490,5,0,0:0:0:0:
256,192,42626,5,8,0:0:0:0:
256,192,42762,1,8,0:0:0:0:
256,192,42831,1,8,0:0:0:0:
256,192,42899,5,0,0:0:0:0:
256,192,43035,5,8,0:0:0:0:
256,192,43172,5,0,0:0:0:0:
256,192,43308,5,8,0:0:0:0:
256,192,43444,1,8,0:0:0:0:
256,192,43581,5,0,0:0:0:0:
256,192,44263,1,4,0:0:0:0:
256,192,44399,5,8,0:0:0:0:
256,192,44672,5,0,0:0:0:0:
256,192,44808,5,8,0:0:0:0:
256,192,44945,1,8,0:0:0:0:
256,192,45081,5,0,0:0:0:0:
256,192,45149,1,0,0:0:0:0:
256,192,45217,5,8,0:0:0:0:
256,192,45354,5,0,0:0:0:0:
256,192,45490,5,8,0:0:0:0:
256,192,45558,1,8,0:0:0:0:
256,192,45627,1,8,0:0:0:0:
256,192,45763,5,0,0:0:0:0:
256,192,45899,5,8,0:0:0:0:
256,192,45967,1,8,0:0:0:0:
256,192,46036,1,8,0:0:0:0:
256,192,46172,5,0,0:0:0:0:
256,192,46308,1,0,0:0:0:0:
256,192,46445,1,0,0:0:0:0:
256,192,46581,5,8,0:0:0:0:
256,192,46854,5,0,0:0:0:0:
256,192,46990,5,8,0:0:0:0:
256,192,47127,1,8,0:0:0:0:
256,192,47263,5,0,0:0:0:0:
256,192,47399,5,8,0:0:0:0:
256,192,47536,5,0,0:0:0:0:
256,192,47672,5,8,0:0:0:0:
256,192,47740,1,8,0:0:0:0:
256,192,47809,1,8,0:0:0:0:
256,192,47945,5,0,0:0:0:0:
256,192,48081,5,8,0:0:0:0:
256,192,48149,1,8,0:0:0:0:
256,192,48218,1,8,0:0:0:0:
256,192,48354,5,0,0:0:0:0:
256,192,48490,5,8,0:0:0:0:
256,192,48627,5,0,0:0:0:0:
256,192,48763,5,8,0:0:0:0:
256,192,49036,5,0,0:0:0:0:
256,192,49172,5,8,0:0:0:0:
256,192,49240,5,0,0:0:0:0:
256,192,49309,5,8,0:0:0:0:
256,192,49445,5,0,0:0:0:0:
256,192,49581,5,8,0:0:0:0:
256,192,49718,5,0,0:0:0:0:
256,192,49854,5,8,0:0:0:0:
256,192,49922,1,8,0:0:0:0:
256,192,49991,1,8,0:0:0:0:
256,192,50127,5,0,0:0:0:0:
256,192,50263,5,8,0:0:0:0:
256,192,50331,1,8,0:0:0:0:
256,192,50400,1,8,0:0:0:0:
256,192,50536,5,0,0:0:0:0:
256,192,50672,5,8,0:0:0:0:
256,192,50809,5,0,0:0:0:0:
256,192,50945,5,8,0:0:0:0:
256,192,51218,5,0,0:0:0:0:
256,192,51354,5,8,0:0:0:0:
256,192,51422,5,0,0:0:0:0:
256,192,51490,5,8,0:0:0:0:
256,192,51627,5,0,0:0:0:0:
256,192,51763,5,8,0:0:0:0:
256,192,51900,5,0,0:0:0:0:
256,192,52036,5,8,0:0:0:0:
256,192,52104,1,8,0:0:0:0:
256,192,52173,1,8,0:0:0:0:
256,192,52309,5,0,0:0:0:0:
256,192,52445,1,0,0:0:0:0:
256,192,52513,1,0,0:0:0:0:
256,192,52581,5,8,0:0:0:0:
256,192,52649,1,8,0:0:0:0:
256,192,52718,5,0,0:0:0:0:
256,192,52786,1,0,0:0:0:0:
256,192,52854,5,8,0:0:0:0:
256,192,52990,5,4,0:0:0:0:
256,192,53127,1,0,0:0:0:0:
256,192,53195,1,0,0:0:0:0:
256,192,53263,5,8,0:0:0:0:
256,192,53399,5,4,0:0:0:0:
256,192,53536,1,0,0:0:0:0:
256,192,53672,5,8,0:0:0:0:
256,192,53945,1,8,0:0:0:0:
256,192,54081,5,4,0:0:0:0:
256,192,54217,5,8,0:0:0:0:
256,192,54286,1,8,0:0:0:0:
256,192,54354,1,8,0:0:0:0:
256,192,54490,5,4,0:0:0:0:
256,192,54627,1,0,0:0:0:0:
256,192,54763,1,0,0:0:0:0:
256,192,54899,5,8,0:0:0:0:
256,192,55172,5,4,0:0:0:0:
256,192,55308,1,0,0:0:0:0:
256,192,55377,1,0,0:0:0:0:
256,192,55445,5,8,0:0:0:0:
256,192,55581,5,4,0:0:0:0:
256,192,55717,1,0,0:0:0:0:
256,192,55990,5,8,0:0:0:0:
256,192,56058,1,8,0:0:0:0:
256,192,56127,1,8,0:0:0:0:
256,192,56263,5,4,0:0:0:0:
256,192,56400,5,8,0:0:0:0:
256,192,56467,1,8,0:0:0:0:
256,192,56536,1,8,0:0:0:0:
256,192,56672,5,4,0:0:0:0:
256,192,56809,5,8,0:0:0:0:
256,192,56945,5,0,0:0:0:0:
256,192,57081,5,8,0:0:0:0:
256,192,57354,5,4,0:0:0:0:
256,192,57490,1,0,0:0:0:0:
256,192,57558,1,0,0:0:0:0:
256,192,57627,5,8,0:0:0:0:
256,192,57763,5,4,0:0:0:0:
256,192,57899,1,0,0:0:0:0:
256,192,58036,5,8,0:0:0:0:
256,192,58308,1,8,0:0:0:0:
256,192,58444,5,4,0:0:0:0:
256,192,58580,5,8,0:0:0:0:
256,192,58649,1,8,0:0:0:0:
256,192,58717,1,8,0:0:0:0:
256,192,58853,5,4,0:0:0:0:
256,192,58990,1,0,0:0:0:0:
256,192,59126,1,0,0:0:0:0:
256,192,59262,5,8,0:0:0:0:
256,192,59535,5,4,0:0:0:0:
256,192,59671,1,0,0:0:0:0:
256,192,59740,1,0,0:0:0:0:
256,192,59808,5,8,0:0:0:0:
256,192,59944,5,4,0:0:0:0:
256,192,60080,1,0,0:0:0:0:
256,192,60353,5,8,0:0:0:0:
256,192,60421,1,8,0:0:0:0:
256,192,60490,1,8,0:0:0:0:
256,192,60626,5,4,0:0:0:0:
256,192,60763,5,8,0:0:0:0:
256,192,60830,1,8,0:0:0:0:
256,192,60899,1,8,0:0:0:0:
256,192,61035,5,4,0:0:0:0:
256,192,61172,5,8,0:0:0:0:
256,192,61308,5,0,0:0:0:0:
256,192,61444,5,8,0:0:0:0:
256,192,61717,5,4,0:0:0:0:
256,192,61854,1,0,0:0:0:0:
256,192,61922,1,0,0:0:0:0:
256,192,61990,1,0,0:0:0:0:
256,192,62263,5,8,0:0:0:0:
256,192,62399,5,0,0:0:0:0:
256,192,62672,5,8,0:0:0:0:
256,192,62945,5,0,0:0:0:0:
256,192,63013,1,0,0:0:0:0:
256,192,63081,1,0,0:0:0:0:
256,192,63354,1,0,0:0:0:0:
256,192,63627,5,8,0:0:0:0:
256,192,63899,5,4,0:0:0:0:
256,192,64035,1,0,0:0:0:0:
256,192,64104,1,0,0:0:0:0:
256,192,64172,5,8,0:0:0:0:
256,192,64308,5,4,0:0:0:0:
256,192,64444,1,0,0:0:0:0:
256,192,64717,5,8,0:0:0:0:
256,192,64785,1,8,0:0:0:0:
256,192,64854,1,8,0:0:0:0:
256,192,64990,5,4,0:0:0:0:
256,192,65127,5,8,0:0:0:0:
256,192,65194,1,8,0:0:0:0:
256,192,65263,1,8,0:0:0:0:
256,192,65399,5,4,0:0:0:0:
256,192,65536,5,8,0:0:0:0:
256,192,65672,5,0,0:0:0:0:
256,192,65808,5,8,0:0:0:0:
256,192,66081,5,4,0:0:0:0:
256,192,66217,1,0,0:0:0:0:
256,192,66285,1,0,0:0:0:0:
256,192,66353,1,0,0:0:0:0:
256,192,66626,5,8,0:0:0:0:
256,192,66762,5,0,0:0:0:0:
256,192,67035,5,8,0:0:0:0:
256,192,67308,5,0,0:0:0:0:
256,192,67376,1,0,0:0:0:0:
256,192,67444,1,0,0:0:0:0:
256,192,67717,1,0,0:0:0:0:
256,192,67990,5,8,0:0:0:0:
256,192,68263,5,4,0:0:0:0:
256,192,68399,1,0,0:0:0:0:
256,192,68468,1,0,0:0:0:0:
256,192,68536,5,8,0:0:0:0:
256,192,68672,5,4,0:0:0:0:
256,192,68808,1,0,0:0:0:0:
256,192,69081,5,8,0:0:0:0:
256,192,69149,1,8,0:0:0:0:
256,192,69218,1,8,0:0:0:0:
256,192,69354,5,4,0:0:0:0:
256,192,69491,5,8,0:0:0:0:
256,192,69558,1,8,0:0:0:0:
256,192,69627,1,8,0:0:0:0:
256,192,69763,5,4,0:0:0:0:
256,192,69900,5,8,0:0:0:0:
256,192,70036,5,0,0:0:0:0:
256,192,70172,5,8,0:0:0:0:
256,192,70445,12,0,77536,0:0:0:0:
256,192,77672,5,0,0:0:0:0:
256,192,78081,1,0,0:0:0:0:
256,192,78763,1,0,0:0:0:0:
256,192,79172,1,0,0:0:0:0:
256,192,79854,1,0,0:0:0:0:
256,192,80263,1,0,0:0:0:0:
256,192,80945,1,0,0:0:0:0:
256,192,81354,1,0,0:0:0:0:
256,192,82036,1,0,0:0:0:0:
256,192,82445,1,0,0:0:0:0:
256,192,82854,5,8,0:0:0:0:
256,192,82990,1,8,0:0:0:0:
256,192,83127,5,0,0:0:0:0:
256,192,83536,1,0,0:0:0:0:
256,192,83945,5,8,0:0:0:0:
256,192,84081,1,8,0:0:0:0:
256,192,84217,5,0,0:0:0:0:
256,192,84626,1,0,0:0:0:0:
256,192,84899,1,0,0:0:0:0:
256,192,85036,5,8,0:0:0:0:
256,192,85172,1,8,0:0:0:0:
256,192,85308,5,0,0:0:0:0:
256,192,85717,1,0,0:0:0:0:
256,192,85990,1,0,0:0:0:0:
256,192,86127,5,8,0:0:0:0:
256,192,86263,1,8,0:0:0:0:
256,192,86399,5,0,0:0:0:0:
256,192,86808,1,4,0:0:0:0:
256,192,87081,1,0,0:0:0:0:
256,192,87217,1,4,0:0:0:0:
256,192,87490,1,0,0:0:0:0:
256,192,87627,1,4,0:0:0:0:
256,192,87899,1,4,0:0:0:0:
256,192,88035,5,8,0:0:0:0:
256,192,88172,1,8,0:0:0:0:
256,192,88308,5,0,0:0:0:0:
256,192,88444,5,8,0:0:0:0:
256,192,88513,1,8,0:0:0:0:
256,192,88581,1,8,0:0:0:0:
256,192,88717,5,0,0:0:0:0:
256,192,88990,5,12,0:0:0:0:
256,192,89126,5,0,0:0:0:0:
256,192,89262,1,0,0:0:0:0:
256,192,89399,5,8,0:0:0:0:
256,192,89535,5,0,0:0:0:0:
256,192,89604,1,0,0:0:0:0:
256,192,89671,1,0,0:0:0:0:
256,192,89808,5,8,0:0:0:0:
256,192,90081,5,4,0:0:0:0:
256,192,90217,5,8,0:0:0:0:
256,192,90354,1,8,0:0:0:0:
256,192,90490,5,0,0:0:0:0:
256,192,90626,5,8,0:0:0:0:
256,192,90695,1,8,0:0:0:0:
256,192,90763,1,8,0:0:0:0:
256,192,90899,5,0,0:0:0:0:
256,192,91172,5,12,0:0:0:0:
256,192,91308,5,0,0:0:0:0:
256,192,91444,1,0,0:0:0:0:
256,192,91581,1,0,0:0:0:0:
256,192,91717,5,8,0:0:0:0:
256,192,91786,1,8,0:0:0:0:
256,192,91853,1,8,0:0:0:0:
256,192,91990,5,0,0:0:0:0:
256,192,92058,1,0,0:0:0:0:
256,192,92126,5,8,0:0:0:0:
256,192,92262,5,4,0:0:0:0:
256,192,92398,5,8,0:0:0:0:
256,192,92535,1,8,0:0:0:0:
256,192,92671,5,0,0:0:0:0:
256,192,92807,5,8,0:0:0:0:
256,192,92877,1,8,0:0:0:0:
256,192,92944,1,8,0:0:0:0:
256,192,93080,5,0,0:0:0:0:
256,192,93353,5,12,0:0:0:0:
256,192,93489,5,0,0:0:0:0:
256,192,93627,1,0,0:0:0:0:
256,192,93762,5,8,0:0:0:0:
256,192,93898,5,0,0:0:0:0:
256,192,93967,1,0,0:0:0:0:
256,192,94036,1,0,0:0:0:0:
256,192,94171,5,8,0:0:0:0:
256,192,94444,5,4,0:0:0:0:
256,192,94580,5,8,0:0:0:0:
256,192,94717,1,8,0:0:0:0:
256,192,94853,5,0,0:0:0:0:
256,192,94989,5,8,0:0:0:0:
256,192,95058,1,8,0:0:0:0:
256,192,95127,1,8,0:0:0:0:
256,192,95262,5,0,0:0:0:0:
256,192,95536,5,12,0:0:0:0:
256,192,95671,5,0,0:0:0:0:
256,192,95808,1,0,0:0:0:0:
256,192,95944,1,0,0:0:0:0:
256,192,96081,5,8,0:0:0:0:
256,192,96149,5,0,0:0:0:0:
256,192,96217,5,8,0:0:0:0:
256,192,96353,5,0,0:0:0:0:
256,192,96422,1,0,0:0:0:0:
256,192,96490,5,8,0:0:0:0:
256,192,96626,5,4,0:0:0:0:
256,192,96762,5,8,0:0:0:0:
256,192,96831,1,8,0:0:0:0:
256,192,96899,1,8,0:0:0:0:
256,192,97035,5,0,0:0:0:0:
256,192,97171,5,8,0:0:0:0:
256,192,97308,1,8,0:0:0:0:
256,192,97444,5,0,0:0:0:0:
256,192,97717,5,12,0:0:0:0:
256,192,97853,5,0,0:0:0:0:
256,192,97922,1,0,0:0:0:0:
256,192,97989,1,0,0:0:0:0:
256,192,98126,5,8,0:0:0:0:
256,192,98262,5,0,0:0:0:0:
256,192,98398,1,0,0:0:0:0:
256,192,98535,5,8,0:0:0:0:
256,192,98808,5,4,0:0:0:0:
256,192,98944,5,8,0:0:0:0:
256,192,99013,1,8,0:0:0:0:
256,192,99081,1,8,0:0:0:0:
256,192,99217,5,0,0:0:0:0:
256,192,99353,5,8,0:0:0:0:
256,192,99490,1,8,0:0:0:0:
256,192,99626,5,0,0:0:0:0:
256,192,99899,5,12,0:0:0:0:
256,192,100035,5,0,0:0:0:0:
256,192,100104,1,0,0:0:0:0:
256,192,100171,1,0,0:0:0:0:
256,192,100308,1,0,0:0:0:0:
256,192,100444,5,8,0:0:0:0:
256,192,100580,1,8,0:0:0:0:
256,192,100717,5,0,0:0:0:0:
256,192,100786,1,0,0:0:0:0:
256,192,100853,5,8,0:0:0:0:
256,192,100989,5,4,0:0:0:0:
256,192,101127,5,8,0:0:0:0:
256,192,101195,1,8,0:0:0:0:
256,192,101262,1,8,0:0:0:0:
256,192,101398,5,0,0:0:0:0:
256,192,101536,5,8,0:0:0:0:
256,192,101671,1,8,0:0:0:0:
256,192,101807,5,0,0:0:0:0:
256,192,102080,5,12,0:0:0:0:
256,192,102216,5,0,0:0:0:0:
256,192,102286,1,0,0:0:0:0:
256,192,102354,1,0,0:0:0:0:
256,192,102489,5,8,0:0:0:0:
256,192,102627,5,0,0:0:0:0:
256,192,102763,1,0,0:0:0:0:
256,192,102898,5,8,0:0:0:0:
256,192,103171,5,4,0:0:0:0:
256,192,103307,5,8,0:0:0:0:
256,192,103377,1,8,0:0:0:0:
256,192,103444,1,8,0:0:0:0:
256,192,103580,5,0,0:0:0:0:
256,192,103716,5,8,0:0:0:0:
256,192,103853,1,8,0:0:0:0:
256,192,103989,5,0,0:0:0:0:
256,192,104262,5,8,0:0:0:0:
256,192,104331,5,0,0:0:0:0:
256,192,104398,1,0,0:0:0:0:
256,192,104467,1,0,0:0:0:0:
256,192,104535,5,8,0:0:0:0:
256,192,104671,1,8,0:0:0:0:
256,192,104808,5,0,0:0:0:0:
256,192,104944,5,8,0:0:0:0:
256,192,105080,5,0,0:0:0:0:
256,192,105217,5,8,0:0:0:0:
256,192,105286,1,8,0:0:0:0:
256,192,105353,5,0,0:0:0:0:
256,192,105490,5,8,0:0:0:0:
256,192,105627,1,8,0:0:0:0:
256,192,105763,5,0,0:0:0:0:
256,192,105899,5,8,0:0:0:0:
256,192,105968,1,8,0:0:0:0:
256,192,106036,1,8,0:0:0:0:
256,192,106172,5,0,0:0:0:0:
256,192,106308,1,0,0:0:0:0:
256,192,106377,1,0,0:0:0:0:
256,192,106445,5,8,0:0:0:0:
256,192,106581,5,0,0:0:0:0:
256,192,106717,1,0,0:0:0:0:
256,192,106854,5,8,0:0:0:0:
256,192,106990,5,0,0:0:0:0:
256,192,107059,1,0,0:0:0:0:
256,192,107126,1,0,0:0:0:0:
256,192,107263,5,8,0:0:0:0:
256,192,107399,1,8,0:0:0:0:
256,192,107467,1,8,0:0:0:0:
256,192,107536,5,0,0:0:0:0:
256,192,107672,5,8,0:0:0:0:
256,192,107740,1,8,0:0:0:0:
256,192,107809,1,8,0:0:0:0:
256,192,107945,5,0,0:0:0:0:
256,192,108081,5,8,0:0:0:0:
256,192,108150,1,8,0:0:0:0:
256,192,108218,1,8,0:0:0:0:
256,192,108354,5,0,0:0:0:0:
256,192,108490,1,0,0:0:0:0:
256,192,108558,1,0,0:0:0:0:
256,192,108627,5,8,0:0:0:0:
256,192,108763,5,0,0:0:0:0:
256,192,108831,5,8,0:0:0:0:
256,192,108899,5,0,0:0:0:0:
256,192,109036,1,0,0:0:0:0:
256,192,109172,5,8,0:0:0:0:
256,192,109241,1,8,0:0:0:0:
256,192,109308,1,8,0:0:0:0:
256,192,109445,5,0,0:0:0:0:
256,192,109513,1,0,0:0:0:0:
256,192,109581,5,8,0:0:0:0:
256,192,109649,1,8,0:0:0:0:
256,192,109717,5,0,0:0:0:0:
256,192,109853,5,8,0:0:0:0:
256,192,109922,1,8,0:0:0:0:
256,192,109990,1,8,0:0:0:0:
256,192,110058,1,8,0:0:0:0:
256,192,110126,5,0,0:0:0:0:
256,192,110262,5,8,0:0:0:0:
256,192,110332,1,8,0:0:0:0:
256,192,110399,1,8,0:0:0:0:
256,192,110467,1,8,0:0:0:0:
256,192,110535,5,0,0:0:0:0:
256,192,110672,1,0,0:0:0:0:
256,192,110740,1,0,0:0:0:0:
256,192,110808,5,8,0:0:0:0:
256,192,110944,5,0,0:0:0:0:
256,192,111013,1,0,0:0:0:0:
256,192,111080,1,0,0:0:0:0:
256,192,111149,1,0,0:0:0:0:
256,192,111217,5,8,0:0:0:0:
256,192,111353,5,0,0:0:0:0:
256,192,111422,1,0,0:0:0:0:
256,192,111491,1,0,0:0:0:0:
256,192,111558,1,0,0:0:0:0:
256,192,111626,5,8,0:0:0:0:
256,192,111763,1,8,0:0:0:0:
256,192,111831,1,8,0:0:0:0:
256,192,111899,5,0,0:0:0:0:
256,192,112035,5,8,0:0:0:0:
256,192,112104,1,8,0:0:0:0:
256,192,112172,1,8,0:0:0:0:
256,192,112240,1,8,0:0:0:0:
256,192,112308,5,0,0:0:0:0:
256,192,112444,5,8,0:0:0:0:
256,192,112513,1,8,0:0:0:0:
256,192,112582,1,8,0:0:0:0:
256,192,112649,1,8,0:0:0:0:
256,192,112717,5,0,0:0:0:0:
256,192,112854,1,0,0:0:0:0:
256,192,112922,1,0,0:0:0:0:
256,192,112990,5,8,0:0:0:0:
256,192,113126,5,0,0:0:0:0:
256,192,113195,5,8,0:0:0:0:
256,192,113263,5,0,0:0:0:0:
256,192,113331,5,8,0:0:0:0:
256,192,113399,5,0,0:0:0:0:
256,192,113536,5,8,0:0:0:0:
256,192,113604,1,8,0:0:0:0:
256,192,113672,1,8,0:0:0:0:
256,192,113740,1,8,0:0:0:0:
256,192,113808,5,0,0:0:0:0:
256,192,113877,1,0,0:0:0:0:
256,192,113945,5,8,0:0:0:0:
256,192,114013,1,8,0:0:0:0:
256,192,114081,5,0,0:0:0:0:
256,192,114217,5,8,0:0:0:0:
256,192,114286,1,8,0:0:0:0:
256,192,114354,1,8,0:0:0:0:
256,192,114490,5,0,0:0:0:0:
256,192,114626,5,8,0:0:0:0:
256,192,114763,1,8,0:0:0:0:
256,192,114899,5,0,0:0:0:0:
256,192,115172,5,12,0:0:0:0:
256,192,115308,5,0,0:0:0:0:
256,192,115377,1,0,0:0:0:0:
256,192,115444,1,0,0:0:0:0:
256,192,115581,5,8,0:0:0:0:
256,192,115717,5,0,0:0:0:0:
256,192,115853,1,0,0:0:0:0:
256,192,115990,5,8,0:0:0:0:
256,192,116127,1,8,0:0:0:0:
256,192,116195,1,8,0:0:0:0:
256,192,116263,5,0,0:0:0:0:
256,192,116399,5,8,0:0:0:0:
256,192,116468,1,8,0:0:0:0:
256,192,116536,1,8,0:0:0:0:
256,192,116672,5,0,0:0:0:0:
256,192,116808,5,8,0:0:0:0:
256,192,116945,1,8,0:0:0:0:
256,192,117081,5,0,0:0:0:0:
256,192,117354,5,12,0:0:0:0:
256,192,117490,5,0,0:0:0:0:
256,192,117559,1,0,0:0:0:0:
256,192,117626,1,0,0:0:0:0:
256,192,117763,1,0,0:0:0:0:
256,192,117899,5,8,0:0:0:0:
256,192,118035,1,8,0:0:0:0:
256,192,118172,5,0,0:0:0:0:
256,192,118241,1,0,0:0:0:0:
256,192,118308,5,8,0:0:0:0:
256,192,118444,5,4,0:0:0:0:
256,192,118580,5,8,0:0:0:0:
256,192,118650,1,8,0:0:0:0:
256,192,118717,1,8,0:0:0:0:
256,192,118786,1,8,0:0:0:0:
256,192,118853,5,0,0:0:0:0:
256,192,118989,5,8,0:0:0:0:
256,192,119058,1,8,0:0:0:0:
256,192,119126,1,8,0:0:0:0:
256,192,119195,1,8,0:0:0:0:
256,192,119262,5,0,0:0:0:0:
256,192,119399,1,0,0:0:0:0:
256,192,119467,1,0,0:0:0:0:
256,192,119535,5,8,0:0:0:0:
256,192,119671,5,0,0:0:0:0:
256,192,119741,1,0,0:0:0:0:
256,192,119807,1,0,0:0:0:0:
256,192,119877,1,0,0:0:0:0:
256,192,119944,5,8,0:0:0:0:
256,192,120080,5,0,0:0:0:0:
256,192,120149,1,0,0:0:0:0:
256,192,120216,1,0,0:0:0:0:
256,192,120286,1,0,0:0:0:0:
256,192,120353,5,8,0:0:0:0:
256,192,120490,1,8,0:0:0:0:
256,192,120558,1,8,0:0:0:0:
256,192,120626,5,0,0:0:0:0:
256,192,120762,5,8,0:0:0:0:
256,192,120832,1,8,0:0:0:0:
256,192,120899,1,8,0:0:0:0:
256,192,120967,1,8,0:0:0:0:
256,192,121035,5,0,0:0:0:0:
256,192,121171,5,8,0:0:0:0:
256,192,121240,1,8,0:0:0:0:
256,192,121308,1,8,0:0:0:0:
256,192,121377,1,8,0:0:0:0:
256,192,121444,5,0,0:0:0:0:
256,192,121717,1,0,0:0:0:0:
256,192,121990,5,8,0:0:0:0:
256,192,122263,5,0,0:0:0:0:
256,192,122399,5,8,0:0:0:0:
256,192,122536,5,0,0:0:0:0:
256,192,122604,1,0,0:0:0:0:
256,192,122672,5,8,0:0:0:0:
256,192,122808,5,0,0:0:0:0:
256,192,122945,1,0,0:0:0:0:
256,192,123081,5,8,0:0:0:0:
256,192,123354,5,0,0:0:0:0:
256,192,123490,5,8,0:0:0:0:
256,192,123763,1,8,0:0:0:0:
256,192,124036,5,0,0:0:0:0:
256,192,124104,1,0,0:0:0:0:
256,192,124172,1,0,0:0:0:0:
256,192,124240,1,0,0:0:0:0:
256,192,124308,5,8,0:0:0:0:
256,192,124445,5,0,0:0:0:0:
256,192,124581,5,8,0:0:0:0:
256,192,124717,5,0,0:0:0:0:
256,192,124786,5,8,0:0:0:0:
256,192,124854,5,0,0:0:0:0:
256,192,124922,5,8,0:0:0:0:
256,192,124990,5,0,0:0:0:0:
256,192,125127,1,0,0:0:0:0:
256,192,125263,5,8,0:0:0:0:
256,192,125536,5,0,0:0:0:0:
256,192,125672,5,8,0:0:0:0:
256,192,125945,1,8,0:0:0:0:
256,192,126217,5,0,0:0:0:0:
256,192,126286,1,0,0:0:0:0:
256,192,126354,5,8,0:0:0:0:
256,192,126627,5,0,0:0:0:0:
256,192,126695,1,0,0:0:0:0:
256,192,126763,5,8,0:0:0:0:
256,192,126831,1,8,0:0:0:0:
256,192,126899,5,0,0:0:0:0:
256,192,127036,5,8,0:0:0:0:
256,192,127172,5,0,0:0:0:0:
256,192,127309,1,0,0:0:0:0:
256,192,127445,5,8,0:0:0:0:
256,192,127718,5,0,0:0:0:0:
256,192,127854,5,8,0:0:0:0:
256,192,128127,1,8,0:0:0:0:
256,192,128399,5,0,0:0:0:0:
256,192,128467,1,0,0:0:0:0:
256,192,128536,1,0,0:0:0:0:
256,192,128604,1,0,0:0:0:0:
256,192,128672,5,8,0:0:0:0:
256,192,128808,5,0,0:0:0:0:
256,192,128944,5,8,0:0:0:0:
256,192,129080,5,0,0:0:0:0:
256,192,129149,5,8,0:0:0:0:
256,192,129217,5,0,0:0:0:0:
256,192,129285,5,8,0:0:0:0:
256,192,129353,5,0,0:0:0:0:
256,192,129490,1,0,0:0:0:0:
256,192,129626,5,8,0:0:0:0:
256,192,129899,5,0,0:0:0:0:
256,192,130035,5,8,0:0:0:0:
256,192,130308,1,8,0:0:0:0:
256,192,130580,5,0,0:0:0:0:
256,192,130649,1,0,0:0:0:0:
256,192,130717,5,8,0:0:0:0:
256,192,130990,5,0,0:0:0:0:
256,192,131058,1,0,0:0:0:0:
256,192,131126,5,8,0:0:0:0:
256,192,131194,1,8,0:0:0:0:
256,192,131262,5,0,0:0:0:0:
256,192,131399,5,8,0:0:0:0:
256,192,131535,5,4,0:0:0:0:
256,192,131672,1,0,0:0:0:0:
256,192,131808,5,8,0:0:0:0:
256,192,131944,5,0,0:0:0:0:
256,192,132081,1,0,0:0:0:0:
256,192,132217,5,8,0:0:0:0:
256,192,132353,5,0,0:0:0:0:
256,192,132490,5,8,0:0:0:0:
256,192,132626,5,4,0:0:0:0:
256,192,132762,1,0,0:0:0:0:
256,192,132830,1,0,0:0:0:0:
256,192,132899,1,0,0:0:0:0:
256,192,132967,1,0,0:0:0:0:
256,192,133035,5,8,0:0:0:0:
256,192,133171,5,0,0:0:0:0:
256,192,133307,5,8,0:0:0:0:
256,192,133445,5,0,0:0:0:0:
256,192,133512,5,8,0:0:0:0:
256,192,133580,5,0,0:0:0:0:
256,192,133648,5,8,0:0:0:0:
256,192,133716,5,0,0:0:0:0:
256,192,133854,1,0,0:0:0:0:
256,192,133990,5,8,0:0:0:0:
256,192,134126,5,0,0:0:0:0:
256,192,134263,1,0,0:0:0:0:
256,192,134399,5,8,0:0:0:0:
256,192,134535,5,0,0:0:0:0:
256,192,134672,5,8,0:0:0:0:
256,192,134808,5,4,0:0:0:0:
256,192,134944,1,0,0:0:0:0:
256,192,135013,1,0,0:0:0:0:
256,192,135081,5,8,0:0:0:0:
256,192,135217,5,0,0:0:0:0:
256,192,135354,1,0,0:0:0:0:
256,192,135422,1,0,0:0:0:0:
256,192,135490,5,8,0:0:0:0:
256,192,135558,1,8,0:0:0:0:
256,192,135626,5,0,0:0:0:0:
256,192,135763,5,8,0:0:0:0:
256,192,135899,5,4,0:0:0:0:
256,192,136036,1,0,0:0:0:0:
256,192,136172,5,8,0:0:0:0:
256,192,136308,5,0,0:0:0:0:
256,192,136445,1,0,0:0:0:0:
256,192,136581,5,8,0:0:0:0:
256,192,136717,5,0,0:0:0:0:
256,192,136854,5,8,0:0:0:0:
256,192,136990,5,4,0:0:0:0:
256,192,137126,1,0,0:0:0:0:
256,192,137194,1,0,0:0:0:0:
256,192,137263,1,0,0:0:0:0:
256,192,137331,1,0,0:0:0:0:
256,192,137399,5,8,0:0:0:0:
256,192,137535,5,0,0:0:0:0:
256,192,137671,5,8,0:0:0:0:
256,192,137807,5,0,0:0:0:0:
256,192,137876,5,8,0:0:0:0:
256,192,137944,5,0,0:0:0:0:
256,192,138012,5,8,0:0:0:0:
256,192,138080,5,0,0:0:0:0:
256,192,138217,1,0,0:0:0:0:
256,192,138286,1,0,0:0:0:0:
256,192,138353,5,8,0:0:0:0:
256,192,138489,5,0,0:0:0:0:
256,192,138558,1,0,0:0:0:0:
256,192,138626,1,0,0:0:0:0:
256,192,138762,5,8,0:0:0:0:
256,192,138831,1,8,0:0:0:0:
256,192,138898,5,0,0:0:0:0:
256,192,139035,5,8,0:0:0:0:
256,192,139171,5,4,0:0:0:0:
256,192,139307,1,0,0:0:0:0:
256,192,139376,1,0,0:0:0:0:
256,192,139444,5,8,0:0:0:0:
256,192,139580,5,4,0:0:0:0:
256,192,140248,1,0,0:0:0:0:
256,192,140384,1,0,0:0:0:0:
256,192,140520,1,8,0:0:0:0:
256,192,140657,1,0,0:0:0:0:
256,192,140793,1,0,0:0:0:0:
256,192,140929,1,8,0:0:0:0:
256,192,141066,1,0,0:0:0:0:
256,192,141202,1,0,0:0:0:0:
256,192,141338,1,8,0:0:0:0:
256,192,141475,1,0,0:0:0:0:
256,192,141611,1,0,0:0:0:0:
256,192,141748,1,8,0:0:0:0:
256,192,141884,1,0,0:0:0:0:
256,192,142020,1,0,0:0:0:0:
256,192,142157,1,8,0:0:0:0:
256,192,142293,1,8,0:0:0:0:
256,192,142429,1,0,0:0:0:0:
256,192,142566,1,8,0:0:0:0:
256,192,142702,1,8,0:0:0:0:
256,192,142838,1,0,0:0:0:0:
256,192,142975,1,8,0:0:0:0:
256,192,143111,1,8,0:0:0:0:
256,192,143248,1,0,0:0:0:0:
256,192,143384,1,8,0:0:0:0:
256,192,143520,1,8,0:0:0:0:
256,192,143657,1,0,0:0:0:0:
256,192,143793,1,8,0:0:0:0:
256,192,143929,1,0,0:0:0:0:
256,192,144066,1,8,0:0:0:0:
256,192,144202,1,0,0:0:0:0:
256,192,144338,1,8,0:0:0:0:
256,192,144475,1,0,0:0:0:0:
256,192,144611,1,0,0:0:0:0:
256,192,144748,1,0,0:0:0:0:
256,192,144884,1,8,0:0:0:0:
256,192,145020,1,0,0:0:0:0:
256,192,145157,1,0,0:0:0:0:
256,192,145293,1,8,0:0:0:0:
256,192,145429,1,0,0:0:0:0:
256,192,145566,1,0,0:0:0:0:
256,192,145702,1,8,0:0:0:0:
256,192,145838,1,0,0:0:0:0:
256,192,145975,1,0,0:0:0:0:
256,192,146111,1,8,0:0:0:0:
256,192,146248,1,0,0:0:0:0:
256,192,146384,1,0,0:0:0:0:
256,192,146520,1,8,0:0:0:0:
256,192,146657,1,8,0:0:0:0:
256,192,146793,1,0,0:0:0:0:
256,192,146929,1,8,0:0:0:0:
256,192,147066,1,8,0:0:0:0:
256,192,147202,1,0,0:0:0:0:
256,192,147338,1,8,0:0:0:0:
256,192,147475,1,8,0:0:0:0:
256,192,147611,1,0,0:0:0:0:
256,192,147748,1,0,0:0:0:0:
256,192,147884,1,8,0:0:0:0:
256,192,148020,1,0,0:0:0:0:
256,192,148157,1,0,0:0:0:0:
256,192,148293,1,8,0:0:0:0:
256,192,148429,1,0,0:0:0:0:
256,192,148566,1,8,0:0:0:0:
256,192,148702,1,0,0:0:0:0:
256,192,148838,1,8,0:0:0:0:
256,192,148975,1,0,0:0:0:0:
256,192,149111,1,0,0:0:0:0:
256,192,149247,1,8,0:0:0:0:
256,192,149384,1,0,0:0:0:0:
256,192,149520,1,0,0:0:0:0:
256,192,149656,1,8,0:0:0:0:
256,192,149793,1,0,0:0:0:0:
256,192,149929,1,0,0:0:0:0:
256,192,150065,1,8,0:0:0:0:
256,192,150202,1,0,0:0:0:0:
256,192,150338,1,0,0:0:0:0:
256,192,150475,1,8,0:0:0:0:
256,192,150611,1,0,0:0:0:0:
256,192,150747,1,0,0:0:0:0:
256,192,150884,1,8,0:0:0:0:
256,192,151020,1,8,0:0:0:0:
256,192,151156,1,0,0:0:0:0:
256,192,151293,1,8,0:0:0:0:
256,192,151429,1,8,0:0:0:0:
256,192,151565,1,0,0:0:0:0:
256,192,151702,1,8,0:0:0:0:
256,192,151838,1,8,0:0:0:0:
256,192,151975,1,0,0:0:0:0:
256,192,152111,1,8,0:0:0:0:
256,192,152247,1,8,0:0:0:0:
256,192,152384,1,0,0:0:0:0:
256,192,152520,1,8,0:0:0:0:
256,192,152656,1,0,0:0:0:0:
256,192,152793,1,8,0:0:0:0:
256,192,152929,1,0,0:0:0:0:
256,192,153065,1,8,0:0:0:0:
256,192,153202,1,0,0:0:0:0:
256,192,153338,1,0,0:0:0:0:
256,192,153475,1,0,0:0:0:0:
256,192,153611,1,8,0:0:0:0:
256,192,153747,1,0,0:0:0:0:
256,192,153884,1,0,0:0:0:0:
256,192,154020,1,8,0:0:0:0:
256,192,154156,1,0,0:0:0:0:
256,192,154293,1,0,0:0:0:0:
256,192,154429,1,8,0:0:0:0:
256,192,154565,1,0,0:0:0:0:
256,192,154702,1,0,0:0:0:0:
256,192,154838,1,8,0:0:0:0:
256,192,154975,1,0,0:0:0:0:
256,192,155111,1,0,0:0:0:0:
256,192,155247,1,8,0:0:0:0:
256,192,155384,1,8,0:0:0:0:
256,192,155520,1,0,0:0:0:0:
256,192,155656,1,8,0:0:0:0:
256,192,155793,1,8,0:0:0:0:
256,192,155929,1,0,0:0:0:0:
256,192,156065,1,8,0:0:0:0:
256,192,156202,1,8,0:0:0:0:
256,192,156338,1,0,0:0:0:0:
256,192,156475,1,0,0:0:0:0:
256,192,156611,1,8,0:0:0:0:
256,192,156747,1,0,0:0:0:0:
256,192,156884,1,0,0:0:0:0:
256,192,157020,1,8,0:0:0:0:
256,192,157156,1,0,0:0:0:0:
256,192,157293,1,12,0:0:0:0:
256,192,157429,1,4,0:0:0:0:
256,192,157566,1,12,0:0:0:0:
256,192,157702,1,0,0:0:0:0:
256,192,157838,1,0,0:0:0:0:
256,192,157975,1,8,0:0:0:0:
256,192,158111,1,0,0:0:0:0:
256,192,158179,1,8,0:0:0:0:
256,192,158248,1,8,0:0:0:0:
256,192,158316,1,8,0:0:0:0:
256,192,158384,1,0,0:0:0:0:
256,192,158520,1,0,0:0:0:0:
256,192,158657,1,8,0:0:0:0:
256,192,158793,1,0,0:0:0:0:
256,192,158929,1,8,0:0:0:0:
256,192,158998,1,8,0:0:0:0:
256,192,159066,1,0,0:0:0:0:
256,192,159202,1,0,0:0:0:0:
256,192,159338,1,8,0:0:0:0:
256,192,159407,1,8,0:0:0:0:
256,192,159475,1,0,0:0:0:0:
256,192,159543,1,8,0:0:0:0:
256,192,159611,1,0,0:0:0:0:
256,192,159748,1,8,0:0:0:0:
256,192,159884,1,0,0:0:0:0:
256,192,160020,1,0,0:0:0:0:
256,192,160157,1,8,0:0:0:0:
256,192,160293,1,8,0:0:0:0:
256,192,160361,1,0,0:0:0:0:
256,192,160429,1,8,0:0:0:0:
256,192,160498,1,0,0:0:0:0:
256,192,160566,1,0,0:0:0:0:
256,192,160702,1,8,0:0:0:0:
256,192,160838,1,0,0:0:0:0:
256,192,160907,1,0,0:0:0:0:
256,192,160975,1,0,0:0:0:0:
256,192,161111,1,0,0:0:0:0:
256,192,161248,1,8,0:0:0:0:
256,192,161384,1,0,0:0:0:0:
256,192,161452,1,8,0:0:0:0:
256,192,161520,1,0,0:0:0:0:
256,192,161657,1,8,0:0:0:0:
256,192,161793,1,0,0:0:0:0:
256,192,161929,1,8,0:0:0:0:
256,192,162066,1,0,0:0:0:0:
256,192,162202,1,0,0:0:0:0:
256,192,162270,1,8,0:0:0:0:
256,192,162338,1,8,0:0:0:0:
256,192,162475,1,0,0:0:0:0:
256,192,162611,1,0,0:0:0:0:
256,192,162679,1,0,0:0:0:0:
256,192,162748,1,8,0:0:0:0:
256,192,162884,1,0,0:0:0:0:
256,192,163020,1,8,0:0:0:0:
256,192,163088,1,8,0:0:0:0:
256,192,163157,1,0,0:0:0:0:
256,192,163293,1,0,0:0:0:0:
256,192,163429,1,0,0:0:0:0:
256,192,163498,1,0,0:0:0:0:
256,192,163566,1,8,0:0:0:0:
256,192,163702,1,0,0:0:0:0:
256,192,163770,1,8,0:0:0:0:
256,192,163838,1,0,0:0:0:0:
256,192,163907,1,8,0:0:0:0:
256,192,163975,1,0,0:0:0:0:
256,192,164111,1,8,0:0:0:0:
256,192,164248,1,0,0:0:0:0:
256,192,164384,1,0,0:0:0:0:
256,192,164520,1,8,0:0:0:0:
256,192,164657,1,0,0:0:0:0:
256,192,164725,1,0,0:0:0:0:
256,192,164793,1,0,0:0:0:0:
256,192,164929,1,0,0:0:0:0:
256,192,165066,1,8,0:0:0:0:
256,192,165202,1,0,0:0:0:0:
256,192,165338,1,8,0:0:0:0:
256,192,165475,1,8,0:0:0:0:
256,192,165543,1,0,0:0:0:0:
256,192,165611,1,8,0:0:0:0:
256,192,165679,1,0,0:0:0:0:
256,192,165748,1,8,0:0:0:0:
256,192,165884,1,8,0:0:0:0:
256,192,165952,1,8,0:0:0:0:
256,192,166020,1,0,0:0:0:0:
256,192,166088,1,8,0:0:0:0:
256,192,166157,1,0,0:0:0:0:
256,192,166293,1,8,0:0:0:0:
256,192,166429,1,0,0:0:0:0:
256,192,166565,1,0,0:0:0:0:
256,192,166702,1,8,0:0:0:0:
256,192,166838,1,0,0:0:0:0:
256,192,166906,1,8,0:0:0:0:
256,192,166975,1,8,0:0:0:0:
256,192,167043,1,8,0:0:0:0:
256,192,167111,1,0,0:0:0:0:
256,192,167247,1,0,0:0:0:0:
256,192,167384,1,8,0:0:0:0:
256,192,167520,1,0,0:0:0:0:
256,192,167656,1,8,0:0:0:0:
256,192,167725,1,8,0:0:0:0:
256,192,167793,1,0,0:0:0:0:
256,192,167929,1,0,0:0:0:0:
256,192,168065,1,8,0:0:0:0:
256,192,168134,1,8,0:0:0:0:
256,192,168202,1,0,0:0:0:0:
256,192,168270,1,8,0:0:0:0:
256,192,168338,1,0,0:0:0:0:
256,192,168475,1,8,0:0:0:0:
256,192,168611,1,0,0:0:0:0:
256,192,168747,1,0,0:0:0:0:
256,192,168884,1,8,0:0:0:0:
256,192,169020,1,8,0:0:0:0:
256,192,169088,1,0,0:0:0:0:
256,192,169156,1,8,0:0:0:0:
256,192,169225,1,0,0:0:0:0:
256,192,169293,1,0,0:0:0:0:
256,192,169429,1,8,0:0:0:0:
256,192,169565,1,0,0:0:0:0:
256,192,169634,1,0,0:0:0:0:
256,192,169702,1,0,0:0:0:0:
256,192,169838,1,0,0:0:0:0:
256,192,169975,1,8,0:0:0:0:
256,192,170111,1,0,0:0:0:0:
256,192,170179,1,8,0:0:0:0:
256,192,170247,1,0,0:0:0:0:
256,192,170384,1,8,0:0:0:0:
256,192,170520,1,0,0:0:0:0:
256,192,170656,1,8,0:0:0:0:
256,192,170793,1,0,0:0:0:0:
256,192,170929,1,0,0:0:0:0:
256,192,170997,1,8,0:0:0:0:
256,192,171065,1,8,0:0:0:0:
256,192,171202,1,0,0:0:0:0:
256,192,171338,1,0,0:0:0:0:
256,192,171406,1,0,0:0:0:0:
256,192,171475,1,8,0:0:0:0:
256,192,171611,1,0,0:0:0:0:
256,192,171747,1,8,0:0:0:0:
256,192,171815,1,8,0:0:0:0:
256,192,171884,1,0,0:0:0:0:
256,192,172020,1,0,0:0:0:0:
256,192,172156,1,0,0:0:0:0:
256,192,172225,1,0,0:0:0:0:
256,192,172293,1,8,0:0:0:0:
256,192,172429,1,0,0:0:0:0:
256,192,172497,1,8,0:0:0:0:
256,192,172565,1,0,0:0:0:0:
256,192,172634,1,8,0:0:0:0:
256,192,172702,1,0,0:0:0:0:
256,192,172838,1,8,0:0:0:0:
256,192,172975,1,0,0:0:0:0:
256,192,173111,1,0,0:0:0:0:
256,192,173247,1,8,0:0:0:0:
256,192,173384,1,0,0:0:0:0:
256,192,173452,1,0,0:0:0:0:
256,192,173520,1,0,0:0:0:0:
256,192,173656,1,0,0:0:0:0:
256,192,173793,1,8,0:0:0:0:
256,192,173929,1,0,0:0:0:0:
256,192,174065,1,8,0:0:0:0:
256,192,174202,1,8,0:0:0:0:
256,192,174270,1,0,0:0:0:0:
256,192,174338,1,8,0:0:0:0:
256,192,174406,1,0,0:0:0:0:
256,192,174475,1,8,0:0:0:0:
256,192,174611,1,8,0:0:0:0:
256,192,174679,1,8,0:0:0:0:
256,192,174747,1,0,0:0:0:0:
256,192,174815,1,8,0:0:0:0:
256,192,174884,1,0,0:0:0:0:
256,192,175020,1,8,0:0:0:0:
256,192,175157,1,12,0:0:0:0:
256,192,175429,1,0,0:0:0:0:
256,192,175566,1,0,0:0:0:0:
256,192,175702,1,8,0:0:0:0:
256,192,175975,1,0,0:0:0:0:
256,192,176111,1,0,0:0:0:0:
256,192,176384,1,8,0:0:0:0:
256,192,176520,1,0,0:0:0:0:
256,192,176657,1,0,0:0:0:0:
256,192,176793,1,8,0:0:0:0:
256,192,177066,1,0,0:0:0:0:
256,192,177202,1,8,0:0:0:0:
256,192,177338,1,0,0:0:0:0:
256,192,177611,1,0,0:0:0:0:
256,192,177748,1,0,0:0:0:0:
256,192,177884,1,8,0:0:0:0:
256,192,178157,1,0,0:0:0:0:
256,192,178293,1,0,0:0:0:0:
256,192,178566,1,8,0:0:0:0:
256,192,178702,1,0,0:0:0:0:
256,192,178838,1,8,0:0:0:0:
256,192,178975,1,0,0:0:0:0:
256,192,179248,1,8,0:0:0:0:
256,192,179520,1,0,0:0:0:0:
256,192,179793,1,0,0:0:0:0:
256,192,179930,1,0,0:0:0:0:
256,192,180066,1,8,0:0:0:0:
256,192,180339,1,0,0:0:0:0:
256,192,180407,1,0,0:0:0:0:
256,192,180475,1,0,0:0:0:0:
256,192,180748,1,8,0:0:0:0:
256,192,180884,1,0,0:0:0:0:
256,192,181021,1,0,0:0:0:0:
256,192,181157,1,8,0:0:0:0:
256,192,181430,1,0,0:0:0:0:
256,192,181566,1,8,0:0:0:0:
256,192,181702,1,0,0:0:0:0:
256,192,181975,1,0,0:0:0:0:
256,192,182112,1,0,0:0:0:0:
256,192,182248,1,8,0:0:0:0:
256,192,182521,1,0,0:0:0:0:
256,192,182657,1,0,0:0:0:0:
256,192,182930,1,8,0:0:0:0:
256,192,183066,1,0,0:0:0:0:
256,192,183202,1,8,0:0:0:0:
256,192,183338,1,8,0:0:0:0:
256,192,183612,1,8,0:0:0:0:
256,192,183884,1,0,0:0:0:0:
256,192,184156,1,0,0:0:0:0:
256,192,184293,1,0,0:0:0:0:
256,192,184429,1,8,0:0:0:0:
256,192,184702,1,0,0:0:0:0:
256,192,184838,1,0,0:0:0:0:
256,192,185111,1,8,0:0:0:0:
256,192,185247,1,0,0:0:0:0:
256,192,185384,1,0,0:0:0:0:
256,192,185520,1,8,0:0:0:0:
256,192,185793,1,0,0:0:0:0:
256,192,185929,1,8,0:0:0:0:
256,192,186065,1,0,0:0:0:0:
256,192,186338,1,0,0:0:0:0:
256,192,186475,1,0,0:0:0:0:
256,192,186611,1,8,0:0:0:0:
256,192,186884,1,0,0:0:0:0:
256,192,187020,1,0,0:0:0:0:
256,192,187157,1,8,0:0:0:0:
256,192,187293,1,8,0:0:0:0:
256,192,187429,1,0,0:0:0:0:
256,192,187566,1,0,0:0:0:0:
256,192,187702,1,8,0:0:0:0:
256,192,187975,1,8,0:0:0:0:
256,192,188248,1,0,0:0:0:0:
256,192,188520,1,0,0:0:0:0:
256,192,188657,1,0,0:0:0:0:
256,192,188793,1,8,0:0:0:0:
256,192,189066,1,0,0:0:0:0:
256,192,189202,1,0,0:0:0:0:
256,192,189475,1,8,0:0:0:0:
256,192,189611,1,0,0:0:0:0:
256,192,189748,1,0,0:0:0:0:
256,192,189884,1,8,0:0:0:0:
256,192,190157,1,0,0:0:0:0:
256,192,190293,1,8,0:0:0:0:
256,192,190429,1,0,0:0:0:0:
256,192,190702,1,0,0:0:0:0:
256,192,190839,1,0,0:0:0:0:
256,192,190975,1,8,0:0:0:0:
256,192,191248,1,0,0:0:0:0:
256,192,191384,1,0,0:0:0:0:
256,192,191520,1,8,0:0:0:0:
256,192,191657,1,8,0:0:0:0:
256,192,191793,1,8,0:0:0:0:
256,192,191929,1,0,0:0:0:0:
256,192,192066,1,8,0:0:0:0:
256,192,192338,1,8,0:0:0:0:
256,192,192611,1,12,0:0:0:0:
256,192,193157,1,8,0:0:0:0:
256,192,193566,1,0,0:0:0:0:
256,192,193702,1,0,0:0:0:0:
256,192,194248,1,8,0:0:0:0:
256,192,194793,1,0,0:0:0:0:
256,192,195339,1,8,0:0:0:0:
256,192,195748,1,0,0:0:0:0:
256,192,195884,1,0,0:0:0:0:
256,192,196430,1,8,0:0:0:0:
256,192,196975,1,0,0:0:0:0:
256,192,197521,1,8,0:0:0:0:
256,192,197930,1,0,0:0:0:0:
256,192,198066,1,0,0:0:0:0:
256,192,198612,1,8,0:0:0:0:
256,192,199157,1,4,0:0:0:0:
256,192,199975,12,0,201202,0:0:0:0:
256,192,201338,5,0,0:0:0:0:
256,192,201475,1,0,0:0:0:0:
256,192,201611,1,8,0:0:0:0:
256,192,201748,1,0,0:0:0:0:
256,192,201816,1,0,0:0:0:0:
256,192,201884,1,0,0:0:0:0:
256,192,202020,1,0,0:0:0:0:
256,192,202157,1,8,0:0:0:0:
256,192,202293,1,0,0:0:0:0:
256,192,202361,1,0,0:0:0:0:
256,192,202429,1,0,0:0:0:0:
256,192,202498,1,8,0:0:0:0:
256,192,202566,1,0,0:0:0:0:
256,192,202702,1,8,0:0:0:0:
256,192,202838,1,0,0:0:0:0:
256,192,202975,1,0,0:0:0:0:
256,192,203111,1,8,0:0:0:0:
256,192,203248,1,0,0:0:0:0:
256,192,203384,1,8,0:0:0:0:
256,192,203520,1,0,0:0:0:0:
256,192,203657,1,0,0:0:0:0:
256,192,203793,1,8,0:0:0:0:
256,192,203929,1,0,0:0:0:0:
256,192,203998,1,8,0:0:0:0:
256,192,204066,1,0,0:0:0:0:
256,192,204134,1,8,0:0:0:0:
256,192,204202,1,0,0:0:0:0:
256,192,204338,1,8,0:0:0:0:
256,192,204475,1,0,0:0:0:0:
256,192,204611,1,8,0:0:0:0:
256,192,204679,1,8,0:0:0:0:
256,192,204748,1,0,0:0:0:0:
256,192,204884,1,0,0:0:0:0:
256,192,205020,1,8,0:0:0:0:
256,192,205088,1,8,0:0:0:0:
256,192,205157,1,0,0:0:0:0:
256,192,205293,1,0,0:0:0:0:
256,192,205429,1,8,0:0:0:0:
256,192,205498,1,8,0:0:0:0:
256,192,205566,1,8,0:0:0:0:
256,192,205702,1,0,0:0:0:0:
256,192,205838,1,0,0:0:0:0:
256,192,205975,1,8,0:0:0:0:
256,192,206111,1,8,0:0:0:0:
256,192,206179,1,8,0:0:0:0:
256,192,206248,1,0,0:0:0:0:
256,192,206316,1,8,0:0:0:0:
256,192,206384,1,0,0:0:0:0:
256,192,206520,1,8,0:0:0:0:
256,192,206657,1,0,0:0:0:0:
256,192,206725,1,0,0:0:0:0:
256,192,206793,1,0,0:0:0:0:
256,192,206929,1,0,0:0:0:0:
256,192,207066,1,8,0:0:0:0:
256,192,207202,1,0,0:0:0:0:
256,192,207270,1,0,0:0:0:0:
256,192,207338,1,8,0:0:0:0:
256,192,207407,1,0,0:0:0:0:
256,192,207475,1,0,0:0:0:0:
256,192,207611,1,8,0:0:0:0:
256,192,207748,1,0,0:0:0:0:
256,192,207884,1,8,0:0:0:0:
256,192,208020,1,8,0:0:0:0:
256,192,208157,1,0,0:0:0:0:
256,192,208293,1,8,0:0:0:0:
256,192,208429,1,8,0:0:0:0:
256,192,208566,1,0,0:0:0:0:
256,192,208702,1,8,0:0:0:0:
256,192,208838,1,8,0:0:0:0:
256,192,208975,1,0,0:0:0:0:
256,192,209111,1,0,0:0:0:0:
256,192,209248,1,8,0:0:0:0:
256,192,209384,1,0,0:0:0:0:
256,192,209520,1,8,0:0:0:0:
256,192,209657,1,8,0:0:0:0:
256,192,209793,1,0,0:0:0:0:
256,192,209929,1,0,0:0:0:0:
256,192,210066,5,0,0:0:0:0:
256,192,210203,1,0,0:0:0:0:
256,192,210339,1,8,0:0:0:0:
256,192,210476,1,0,0:0:0:0:
256,192,210544,1,0,0:0:0:0:
256,192,210612,1,0,0:0:0:0:
256,192,210748,1,0,0:0:0:0:
256,192,210885,1,8,0:0:0:0:
256,192,211021,1,0,0:0:0:0:
256,192,211089,1,0,0:0:0:0:
256,192,211157,1,0,0:0:0:0:
256,192,211226,1,8,0:0:0:0:
256,192,211294,1,0,0:0:0:0:
256,192,211430,1,8,0:0:0:0:
256,192,211566,1,0,0:0:0:0:
256,192,211703,1,0,0:0:0:0:
256,192,211839,1,8,0:0:0:0:
256,192,211976,1,0,0:0:0:0:
256,192,212112,1,8,0:0:0:0:
256,192,212248,1,0,0:0:0:0:
256,192,212385,1,0,0:0:0:0:
256,192,212521,1,8,0:0:0:0:
256,192,212657,1,0,0:0:0:0:
256,192,212726,1,8,0:0:0:0:
256,192,212794,1,0,0:0:0:0:
256,192,212862,1,8,0:0:0:0:
256,192,212930,1,0,0:0:0:0:
256,192,213066,1,8,0:0:0:0:
256,192,213203,1,0,0:0:0:0:
256,192,213339,1,8,0:0:0:0:
256,192,213407,1,8,0:0:0:0:
256,192,213476,1,0,0:0:0:0:
256,192,213612,1,0,0:0:0:0:
256,192,213748,1,8,0:0:0:0:
256,192,213816,1,8,0:0:0:0:
256,192,213885,1,0,0:0:0:0:
256,192,214021,1,0,0:0:0:0:
256,192,214157,1,8,0:0:0:0:
256,192,214226,1,8,0:0:0:0:
256,192,214294,1,8,0:0:0:0:
256,192,214430,1,0,0:0:0:0:
256,192,214566,1,0,0:0:0:0:
256,192,214703,1,8,0:0:0:0:
256,192,214839,1,8,0:0:0:0:
256,192,214907,1,8,0:0:0:0:
256,192,214976,1,0,0:0:0:0:
256,192,215044,1,8,0:0:0:0:
256,192,215112,1,0,0:0:0:0:
256,192,215248,1,8,0:0:0:0:
256,192,215385,1,0,0:0:0:0:
256,192,215453,1,0,0:0:0:0:
256,192,215521,1,0,0:0:0:0:
256,192,215657,1,0,0:0:0:0:
256,192,215794,1,8,0:0:0:0:
256,192,215930,1,0,0:0:0:0:
256,192,215998,1,0,0:0:0:0:
256,192,216066,1,8,0:0:0:0:
256,192,216135,1,0,0:0:0:0:
256,192,216203,5,0,0:0:0:0:
256,192,216338,1,8,0:0:0:0:
256,192,216407,1,8,0:0:0:0:
256,192,216475,1,0,0:0:0:0:
256,192,216611,5,8,0:0:0:0:
256,192,216748,1,0,0:0:0:0:
256,192,216816,1,8,0:0:0:0:
256,192,216884,1,0,0:0:0:0:
256,192,217020,5,8,0:0:0:0:
256,192,217157,1,0,0:0:0:0:
256,192,217225,1,8,0:0:0:0:
256,192,217293,1,0,0:0:0:0:
256,192,217429,5,8,0:0:0:0:
256,192,217566,1,0,0:0:0:0:
256,192,217634,1,8,0:0:0:0:
256,192,217702,1,0,0:0:0:0:
256,192,217838,5,8,0:0:0:0:
256,192,217975,1,0,0:0:0:0:
256,192,218043,1,8,0:0:0:0:
256,192,218111,1,0,0:0:0:0:
256,192,218248,5,8,0:0:0:0:
256,192,218385,1,0,0:0:0:0:
256,192,218453,1,8,0:0:0:0:
256,192,218521,1,0,0:0:0:0:
256,192,218657,1,0,0:0:0:0:
256,192,218793,5,8,0:0:0:0:
256,192,218929,1,8,0:0:0:0:
256,192,218998,1,8,0:0:0:0:
256,192,219066,1,0,0:0:0:0:
256,192,219202,1,8,0:0:0:0:
256,192,219338,1,8,0:0:0:0:
256,192,219407,1,8,0:0:0:0:
256,192,219475,1,0,0:0:0:0:
256,192,219611,1,8,0:0:0:0:
256,192,219747,1,8,0:0:0:0:
256,192,219816,1,8,0:0:0:0:
256,192,219884,1,0,0:0:0:0:
256,192,220020,1,8,0:0:0:0:
256,192,220156,1,8,0:0:0:0:
256,192,220225,1,8,0:0:0:0:
256,192,220293,1,0,0:0:0:0:
256,192,220429,1,8,0:0:0:0:
256,192,220498,1,8,0:0:0:0:
256,192,220566,1,8,0:0:0:0:
256,192,220634,1,8,0:0:0:0:
256,192,220702,1,0,0:0:0:0:
256,192,220770,1,0,0:0:0:0:
256,192,220838,1,8,0:0:0:0:
256,192,220975,1,4,0:0:0:0:
256,192,221111,1,0,0:0:0:0:
256,192,221179,1,0,0:0:0:0:
256,192,221248,1,8,0:0:0:0:
256,192,221384,1,0,0:0:0:0:
256,192,221520,1,0,0:0:0:0:
256,192,221657,1,8,0:0:0:0:
256,192,221725,1,8,0:0:0:0:
256,192,221793,1,8,0:0:0:0:
256,192,221929,1,8,0:0:0:0:
256,192,222066,1,4,0:0:0:0:
256,192,222202,1,0,0:0:0:0:
256,192,222270,1,0,0:0:0:0:
256,192,222338,1,8,0:0:0:0:
256,192,222475,1,0,0:0:0:0:
256,192,222611,1,0,0:0:0:0:
256,192,222748,1,0,0:0:0:0:
256,192,222816,1,0,0:0:0:0:
256,192,222884,1,8,0:0:0:0:
256,192,222952,1,8,0:0:0:0:
256,192,223020,1,0,0:0:0:0:
256,192,223157,1,12,0:0:0:0:
256,192,224248,1,8,0:0:0:0:
256,192,224316,1,8,0:0:0:0:
256,192,224384,1,0,0:0:0:0:
256,192,224452,1,8,0:0:0:0:
256,192,224520,1,0,0:0:0:0:
256,192,224657,1,8,0:0:0:0:
256,192,224725,1,8,0:0:0:0:
256,192,224793,1,0,0:0:0:0:
256,192,224861,1,8,0:0:0:0:
256,192,224929,1,0,0:0:0:0:
256,192,224998,1,0,0:0:0:0:
256,192,225066,1,8,0:0:0:0:
256,192,225134,1,8,0:0:0:0:
256,192,225202,1,8,0:0:0:0:
256,192,225270,1,8,0:0:0:0:
256,192,225338,1,0,0:0:0:0:
256,192,225475,1,0,0:0:0:0:
256,192,225543,1,0,0:0:0:0:
256,192,225611,1,8,0:0:0:0:
256,192,225748,1,0,0:0:0:0:
256,192,225884,1,0,0:0:0:0:
256,192,226020,1,8,0:0:0:0:
256,192,226088,1,8,0:0:0:0:
256,192,226157,1,0,0:0:0:0:
256,192,226225,1,0,0:0:0:0:
256,192,226293,1,8,0:0:0:0:
256,192,226429,1,0,0:0:0:0:
256,192,226498,1,0,0:0:0:0:
256,192,226566,1,0,0:0:0:0:
256,192,226634,1,0,0:0:0:0:
256,192,226702,1,8,0:0:0:0:
256,192,226838,1,0,0:0:0:0:
256,192,226907,1,0,0:0:0:0:
256,192,226975,1,8,0:0:0:0:
256,192,227111,1,0,0:0:0:0:
256,192,227179,1,8,0:0:0:0:
256,192,227248,1,0,0:0:0:0:
256,192,227384,1,8,0:0:0:0:
256,192,227520,1,0,0:0:0:0:
256,192,227657,1,0,0:0:0:0:
256,192,227725,1,0,0:0:0:0:
256,192,227793,1,8,0:0:0:0:
256,192,227929,1,0,0:0:0:0:
256,192,228066,1,0,0:0:0:0:
256,192,228202,1,8,0:0:0:0:
256,192,228270,1,8,0:0:0:0:
256,192,228338,1,0,0:0:0:0:
256,192,228407,1,8,0:0:0:0:
256,192,228475,1,8,0:0:0:0:
256,192,228611,1,0,0:0:0:0:
256,192,228748,1,0,0:0:0:0:
256,192,228816,1,0,0:0:0:0:
256,192,228884,1,8,0:0:0:0:
256,192,229020,1,0,0:0:0:0:
256,192,229157,1,8,0:0:0:0:
256,192,229225,1,8,0:0:0:0:
256,192,229293,1,8,0:0:0:0:
256,192,229429,1,0,0:0:0:0:
256,192,229566,1,8,0:0:0:0:
256,192,229702,1,0,0:0:0:0:
256,192,229838,1,0,0:0:0:0:
256,192,229907,1,0,0:0:0:0:
256,192,229975,1,8,0:0:0:0:
256,192,230111,1,8,0:0:0:0:
256,192,230179,1,0,0:0:0:0:
256,192,230248,1,0,0:0:0:0:
256,192,230384,1,0,0:0:0:0:
256,192,230520,1,8,0:0:0:0:
256,192,230657,1,0,0:0:0:0:
256,192,230793,1,8,0:0:0:0:
256,192,230861,1,8,0:0:0:0:
256,192,230929,1,8,0:0:0:0:
256,192,231066,1,0,0:0:0:0:
256,192,231202,1,8,0:0:0:0:
256,192,231270,1,0,0:0:0:0:
256,192,231338,1,0,0:0:0:0:
256,192,231475,1,0,0:0:0:0:
256,192,231611,1,8,0:0:0:0:
256,192,231679,1,8,0:0:0:0:
256,192,231748,1,0,0:0:0:0:
256,192,231816,1,8,0:0:0:0:
256,192,231884,1,8,0:0:0:0:
256,192,232020,1,0,0:0:0:0:
256,192,232157,1,0,0:0:0:0:
256,192,232293,1,8,0:0:0:0:
256,192,232361,1,0,0:0:0:0:
256,192,232429,1,0,0:0:0:0:
256,192,232566,1,0,0:0:0:0:
256,192,232702,1,8,0:0:0:0:
256,192,232838,1,0,0:0:0:0:
256,192,232907,1,8,0:0:0:0:
256,192,232975,1,0,0:0:0:0:
256,192,233111,1,8,0:0:0:0:
256,192,233179,1,0,0:0:0:0:
256,192,233248,1,0,0:0:0:0:
256,192,233384,1,8,0:0:0:0:
256,192,233452,1,0,0:0:0:0:
256,192,233520,1,0,0:0:0:0:
256,192,233588,1,0,0:0:0:0:
256,192,233657,1,0,0:0:0:0:
256,192,233793,1,8,0:0:0:0:
256,192,233861,1,0,0:0:0:0:
256,192,233929,1,0,0:0:0:0:
256,192,233998,1,8,0:0:0:0:
256,192,234066,1,8,0:0:0:0:
256,192,234202,1,0,0:0:0:0:
256,192,234338,1,0,0:0:0:0:
256,192,234475,1,0,0:0:0:0:
256,192,234611,1,0,0:0:0:0:
256,192,234747,1,8,0:0:0:0:
256,192,234815,1,8,0:0:0:0:
256,192,234884,1,0,0:0:0:0:
256,192,234952,1,0,0:0:0:0:
256,192,235020,1,8,0:0:0:0:
256,192,235156,1,0,0:0:0:0:
256,192,235225,1,0,0:0:0:0:
256,192,235293,1,0,0:0:0:0:
256,192,235361,1,0,0:0:0:0:
256,192,235429,1,8,0:0:0:0:
256,192,235565,1,0,0:0:0:0:
256,192,235634,1,0,0:0:0:0:
256,192,235702,1,8,0:0:0:0:
256,192,235838,1,0,0:0:0:0:
256,192,235906,1,8,0:0:0:0:
256,192,235975,1,0,0:0:0:0:
256,192,236111,1,8,0:0:0:0:
256,192,236247,1,0,0:0:0:0:
256,192,236384,1,0,0:0:0:0:
256,192,236452,1,0,0:0:0:0:
256,192,236520,1,8,0:0:0:0:
256,192,236656,1,0,0:0:0:0:
256,192,236793,1,0,0:0:0:0:
256,192,236929,1,8,0:0:0:0:
256,192,236997,1,8,0:0:0:0:
256,192,237065,1,0,0:0:0:0:
256,192,237134,1,8,0:0:0:0:
256,192,237202,1,8,0:0:0:0:
256,192,237338,1,0,0:0:0:0:
256,192,237475,1,0,0:0:0:0:
256,192,237543,1,0,0:0:0:0:
256,192,237611,1,8,0:0:0:0:
256,192,237747,1,0,0:0:0:0:
256,192,237884,1,8,0:0:0:0:
256,192,237952,1,8,0:0:0:0:
256,192,238020,1,8,0:0:0:0:
256,192,238156,1,0,0:0:0:0:
256,192,238293,1,8,0:0:0:0:
256,192,238429,1,0,0:0:0:0:
256,192,238565,1,0,0:0:0:0:
256,192,238634,1,0,0:0:0:0:
256,192,238702,1,8,0:0:0:0:
256,192,238838,1,8,0:0:0:0:
256,192,238906,1,0,0:0:0:0:
256,192,238975,1,0,0:0:0:0:
256,192,239111,1,0,0:0:0:0:
256,192,239247,1,8,0:0:0:0:
256,192,239384,1,0,0:0:0:0:
256,192,239520,1,8,0:0:0:0:
256,192,239588,1,8,0:0:0:0:
256,192,239656,1,8,0:0:0:0:
256,192,239793,1,0,0:0:0:0:
256,192,239929,1,8,0:0:0:0:
256,192,239997,1,0,0:0:0:0:
256,192,240065,1,0,0:0:0:0:
256,192,240202,1,0,0:0:0:0:
256,192,240338,1,8,0:0:0:0:
256,192,240406,1,8,0:0:0:0:
256,192,240475,1,0,0:0:0:0:
256,192,240543,1,8,0:0:0:0:
256,192,240611,1,8,0:0:0:0:
256,192,240747,1,0,0:0:0:0:
256,192,240884,1,0,0:0:0:0:
256,192,241020,1,8,0:0:0:0:
256,192,241088,1,0,0:0:0:0:
256,192,241156,1,0,0:0:0:0:
256,192,241293,1,0,0:0:0:0:
256,192,241429,1,8,0:0:0:0:
256,192,241565,1,0,0:0:0:0:
256,192,241634,1,8,0:0:0:0:
256,192,241702,1,0,0:0:0:0:
256,192,241838,1,8,0:0:0:0:
256,192,241906,1,0,0:0:0:0:
256,192,241975,1,0,0:0:0:0:
256,192,242111,1,8,0:0:0:0:
256,192,242179,1,0,0:0:0:0:
256,192,242247,1,0,0:0:0:0:
256,192,242315,1,0,0:0:0:0:
256,192,242384,1,0,0:0:0:0:
256,192,242520,1,12,0:0:0:0:
256,192,242656,1,12,0:0:0:0:
256,192,242793,1,0,0:0:0:0:
256,192,242930,1,0,0:0:0:0:
256,192,242998,1,0,0:0:0:0:
256,192,243066,1,8,0:0:0:0:
256,192,243203,1,0,0:0:0:0:
256,192,243339,1,0,0:0:0:0:
256,192,243475,1,8,0:0:0:0:
256,192,243543,1,8,0:0:0:0:
256,192,243612,1,0,0:0:0:0:
256,192,243680,1,0,0:0:0:0:
256,192,243748,1,8,0:0:0:0:
256,192,243884,1,0,0:0:0:0:
256,192,243953,1,0,0:0:0:0:
256,192,244021,1,0,0:0:0:0:
256,192,244089,1,0,0:0:0:0:
256,192,244157,1,8,0:0:0:0:
256,192,244293,1,0,0:0:0:0:
256,192,244362,1,0,0:0:0:0:
256,192,244430,1,8,0:0:0:0:
256,192,244566,1,0,0:0:0:0:
256,192,244634,1,8,0:0:0:0:
256,192,244703,1,0,0:0:0:0:
256,192,244839,1,8,0:0:0:0:
256,192,244975,1,0,0:0:0:0:
256,192,245112,1,0,0:0:0:0:
256,192,245180,1,0,0:0:0:0:
256,192,245248,1,8,0:0:0:0:
256,192,245384,1,0,0:0:0:0:
256,192,245521,1,0,0:0:0:0:
256,192,245657,1,8,0:0:0:0:
256,192,245725,1,8,0:0:0:0:
256,192,245793,1,0,0:0:0:0:
256,192,245862,1,8,0:0:0:0:
256,192,245930,1,8,0:0:0:0:
256,192,246066,1,0,0:0:0:0:
256,192,246203,1,0,0:0:0:0:
256,192,246271,1,0,0:0:0:0:
256,192,246339,1,8,0:0:0:0:
256,192,246475,1,0,0:0:0:0:
256,192,246612,1,8,0:0:0:0:
256,192,246680,1,8,0:0:0:0:
256,192,246748,1,8,0:0:0:0:
256,192,246884,1,0,0:0:0:0:
256,192,247021,1,8,0:0:0:0:
256,192,247157,1,0,0:0:0:0:
256,192,247293,1,0,0:0:0:0:
256,192,247362,1,0,0:0:0:0:
256,192,247430,1,8,0:0:0:0:
256,192,247566,1,8,0:0:0:0:
256,192,247634,1,0,0:0:0:0:
256,192,247703,1,0,0:0:0:0:
256,192,247839,1,0,0:0:0:0:
256,192,247975,1,8,0:0:0:0:
256,192,248112,1,0,0:0:0:0:
256,192,248248,1,8,0:0:0:0:
256,192,248316,1,8,0:0:0:0:
256,192,248384,1,8,0:0:0:0:
256,192,248521,1,0,0:0:0:0:
256,192,248657,1,8,0:0:0:0:
256,192,248725,1,0,0:0:0:0:
256,192,248793,1,0,0:0:0:0:
256,192,248930,1,0,0:0:0:0:
256,192,249066,1,8,0:0:0:0:
256,192,249134,1,8,0:0:0:0:
256,192,249203,1,0,0:0:0:0:
256,192,249271,1,8,0:0:0:0:
256,192,249339,1,8,0:0:0:0:
256,192,249475,1,0,0:0:0:0:
256,192,249612,1,0,0:0:0:0:
256,192,249748,1,8,0:0:0:0:
256,192,249816,1,0,0:0:0:0:
256,192,249884,1,0,0:0:0:0:
256,192,250021,1,0,0:0:0:0:
256,192,250157,1,8,0:0:0:0:
256,192,250293,1,0,0:0:0:0:
256,192,250362,1,8,0:0:0:0:
256,192,250430,1,0,0:0:0:0:
256,192,250566,1,8,0:0:0:0:
256,192,250634,1,0,0:0:0:0:
256,192,250703,1,0,0:0:0:0:
256,192,250839,1,8,0:0:0:0:
256,192,250907,1,0,0:0:0:0:
256,192,250975,1,0,0:0:0:0:
256,192,251043,1,0,0:0:0:0:
256,192,251112,1,0,0:0:0:0:
256,192,251248,1,8,0:0:0:0:
256,192,251316,1,0,0:0:0:0:
256,192,251384,1,0,0:0:0:0:
256,192,251453,1,8,0:0:0:0:
256,192,251521,1,8,0:0:0:0:
256,192,251657,1,0,0:0:0:0:
256,192,251793,1,0,0:0:0:0:
256,192,251930,1,0,0:0:0:0:
256,192,252066,1,0,0:0:0:0:
256,192,252202,1,8,0:0:0:0:
256,192,252270,1,8,0:0:0:0:
256,192,252339,1,0,0:0:0:0:
256,192,252407,1,0,0:0:0:0:
256,192,252475,1,8,0:0:0:0:
256,192,252611,1,0,0:0:0:0:
256,192,252680,1,0,0:0:0:0:
256,192,252748,1,0,0:0:0:0:
256,192,252816,1,0,0:0:0:0:
256,192,252884,1,8,0:0:0:0:
256,192,253020,1,0,0:0:0:0:
256,192,253089,1,0,0:0:0:0:
256,192,253157,1,8,0:0:0:0:
256,192,253293,1,0,0:0:0:0:
256,192,253361,1,8,0:0:0:0:
256,192,253430,1,0,0:0:0:0:
256,192,253566,1,8,0:0:0:0:
256,192,253702,1,0,0:0:0:0:
256,192,253839,1,0,0:0:0:0:
256,192,253907,1,0,0:0:0:0:
256,192,253975,1,8,0:0:0:0:
256,192,254111,1,0,0:0:0:0:
256,192,254248,1,0,0:0:0:0:
256,192,254384,1,8,0:0:0:0:
256,192,254452,1,8,0:0:0:0:
256,192,254520,1,0,0:0:0:0:
256,192,254589,1,8,0:0:0:0:
256,192,254657,1,8,0:0:0:0:
256,192,254793,1,0,0:0:0:0:
256,192,254930,1,0,0:0:0:0:
256,192,254998,1,0,0:0:0:0:
256,192,255066,1,8,0:0:0:0:
256,192,255202,1,0,0:0:0:0:
256,192,255339,1,8,0:0:0:0:
256,192,255407,1,8,0:0:0:0:
256,192,255475,1,8,0:0:0:0:
256,192,255611,1,0,0:0:0:0:
256,192,255748,1,8,0:0:0:0:
256,192,255884,1,0,0:0:0:0:
256,192,256020,1,0,0:0:0:0:
256,192,256089,1,0,0:0:0:0:
256,192,256157,1,8,0:0:0:0:
256,192,256293,1,8,0:0:0:0:
256,192,256361,1,0,0:0:0:0:
256,192,256430,1,0,0:0:0:0:
256,192,256566,1,0,0:0:0:0:
256,192,256702,1,8,0:0:0:0:
256,192,256839,1,0,0:0:0:0:
256,192,256975,1,8,0:0:0:0:
256,192,257043,1,8,0:0:0:0:
256,192,257111,1,8,0:0:0:0:
256,192,257248,1,0,0:0:0:0:
256,192,257384,1,8,0:0:0:0:
256,192,257452,1,0,0:0:0:0:
256,192,257520,1,0,0:0:0:0:
256,192,257657,1,0,0:0:0:0:
256,192,257793,1,8,0:0:0:0:
256,192,257861,1,8,0:0:0:0:
256,192,257930,1,0,0:0:0:0:
256,192,257998,1,8,0:0:0:0:
256,192,258066,1,8,0:0:0:0:
256,192,258202,1,0,0:0:0:0:
256,192,258339,1,0,0:0:0:0:
256,192,258475,1,8,0:0:0:0:
256,192,258543,1,0,0:0:0:0:
256,192,258611,1,0,0:0:0:0:
256,192,258748,1,0,0:0:0:0:
256,192,258884,1,8,0:0:0:0:
256,192,259020,1,0,0:0:0:0:
256,192,259089,1,8,0:0:0:0:
256,192,259157,1,0,0:0:0:0:
256,192,259293,1,8,0:0:0:0:
256,192,259361,1,0,0:0:0:0:
256,192,259430,1,0,0:0:0:0:
256,192,259566,1,8,0:0:0:0:
256,192,259634,1,0,0:0:0:0:
256,192,259702,1,0,0:0:0:0:
256,192,259770,1,0,0:0:0:0:
256,192,259839,1,0,0:0:0:0:
256,192,259975,1,12,0:0:0:0:
256,192,260111,1,12,0:0:0:0:
256,192,260248,1,4,0:0:0:0:
256,192,260793,1,8,0:0:0:0:
256,192,261202,1,0,0:0:0:0:
256,192,261338,1,0,0:0:0:0:
256,192,261884,1,8,0:0:0:0:
256,192,262429,1,0,0:0:0:0:
256,192,262974,1,8,0:0:0:0:
256,192,263383,1,0,0:0:0:0:
256,192,263519,1,0,0:0:0:0:
256,192,264065,1,8,0:0:0:0:
256,192,264611,1,0,0:0:0:0:
256,192,265156,1,8,0:0:0:0:
256,192,265565,1,0,0:0:0:0:
256,192,265701,1,0,0:0:0:0:
256,192,266247,1,8,0:0:0:0:
256,192,266793,1,4,0:0:0:0:
256,192,267611,12,0,268907,0:0:0:0:
256,192,268975,5,0,0:0:0:0:
256,192,269111,1,0,0:0:0:0:
256,192,269248,1,8,0:0:0:0:
256,192,269384,1,0,0:0:0:0:
256,192,269520,1,0,0:0:0:0:
256,192,269657,1,8,0:0:0:0:
256,192,269793,1,0,0:0:0:0:
256,192,269929,1,0,0:0:0:0:
256,192,270066,1,8,0:0:0:0:
256,192,270202,1,0,0:0:0:0:
256,192,270338,1,0,0:0:0:0:
256,192,270475,1,8,0:0:0:0:
256,192,270611,1,0,0:0:0:0:
256,192,270748,1,0,0:0:0:0:
256,192,270884,1,8,0:0:0:0:
256,192,271020,1,8,0:0:0:0:
256,192,271157,1,0,0:0:0:0:
256,192,271293,1,8,0:0:0:0:
256,192,271429,1,8,0:0:0:0:
256,192,271566,1,0,0:0:0:0:
256,192,271702,1,8,0:0:0:0:
256,192,271838,1,8,0:0:0:0:
256,192,271975,1,0,0:0:0:0:
256,192,272111,1,8,0:0:0:0:
256,192,272248,1,8,0:0:0:0:
256,192,272384,1,0,0:0:0:0:
256,192,272520,1,8,0:0:0:0:
256,192,272657,1,0,0:0:0:0:
256,192,272793,1,8,0:0:0:0:
256,192,272929,1,0,0:0:0:0:
256,192,273066,1,8,0:0:0:0:
256,192,273202,1,0,0:0:0:0:
256,192,273338,5,0,0:0:0:0:
256,192,273474,1,0,0:0:0:0:
256,192,273611,1,8,0:0:0:0:
256,192,273747,1,0,0:0:0:0:
256,192,273883,1,0,0:0:0:0:
256,192,274020,1,8,0:0:0:0:
256,192,274156,1,0,0:0:0:0:
256,192,274292,1,0,0:0:0:0:
256,192,274429,1,8,0:0:0:0:
256,192,274565,1,0,0:0:0:0:
256,192,274701,1,0,0:0:0:0:
256,192,274838,1,8,0:0:0:0:
256,192,274974,1,0,0:0:0:0:
256,192,275111,1,0,0:0:0:0:
256,192,275247,1,8,0:0:0:0:
256,192,275383,1,0,0:0:0:0:
256,192,275520,1,8,0:0:0:0:
256,192,275656,1,8,0:0:0:0:
256,192,275792,1,0,0:0:0:0:
256,192,275929,1,8,0:0:0:0:
256,192,276065,1,8,0:0:0:0:
256,192,276201,1,0,0:0:0:0:
256,192,276338,1,8,0:0:0:0:
256,192,276474,1,8,0:0:0:0:
256,192,276611,1,0,0:0:0:0:
256,192,276747,1,8,0:0:0:0:
256,192,276884,1,8,0:0:0:0:
256,192,277020,1,0,0:0:0:0:
256,192,277156,1,8,0:0:0:0:
256,192,277292,1,8,0:0:0:0:
256,192,277429,1,0,0:0:0:0:
256,192,277565,1,8,0:0:0:0:
256,192,277702,5,0,0:0:0:0:
256,192,277838,1,0,0:0:0:0:
256,192,277975,1,8,0:0:0:0:
256,192,278111,1,0,0:0:0:0:
256,192,278247,1,0,0:0:0:0:
256,192,278384,1,8,0:0:0:0:
256,192,278520,1,0,0:0:0:0:
256,192,278656,1,0,0:0:0:0:
256,192,278793,1,8,0:0:0:0:
256,192,278929,1,0,0:0:0:0:
256,192,279065,1,0,0:0:0:0:
256,192,279202,1,8,0:0:0:0:
256,192,279338,1,0,0:0:0:0:
256,192,279475,1,0,0:0:0:0:
256,192,279611,1,8,0:0:0:0:
256,192,279747,1,8,0:0:0:0:
256,192,279884,1,0,0:0:0:0:
256,192,280020,1,8,0:0:0:0:
256,192,280156,1,8,0:0:0:0:
256,192,280293,1,0,0:0:0:0:
256,192,280429,1,8,0:0:0:0:
256,192,280565,1,8,0:0:0:0:
256,192,280702,1,0,0:0:0:0:
256,192,280838,1,8,0:0:0:0:
256,192,280975,1,8,0:0:0:0:
256,192,281111,1,0,0:0:0:0:
256,192,281247,1,8,0:0:0:0:
256,192,281384,1,0,0:0:0:0:
256,192,281520,1,8,0:0:0:0:
256,192,281656,1,0,0:0:0:0:
256,192,281793,1,8,0:0:0:0:
256,192,281929,1,0,0:0:0:0:
256,192,282066,5,0,0:0:0:0:
256,192,282202,1,0,0:0:0:0:
256,192,282339,1,8,0:0:0:0:
256,192,282475,1,0,0:0:0:0:
256,192,282611,1,0,0:0:0:0:
256,192,282748,1,8,0:0:0:0:
256,192,282884,1,0,0:0:0:0:
256,192,283020,1,0,0:0:0:0:
256,192,283157,1,8,0:0:0:0:
256,192,283293,1,0,0:0:0:0:
256,192,283429,1,0,0:0:0:0:
256,192,283566,1,8,0:0:0:0:
256,192,283702,1,0,0:0:0:0:
256,192,283839,1,0,0:0:0:0:
256,192,283975,1,8,0:0:0:0:
256,192,284111,1,0,0:0:0:0:
256,192,284248,1,8,0:0:0:0:
256,192,284384,1,8,0:0:0:0:
256,192,284520,1,0,0:0:0:0:
256,192,284657,1,8,0:0:0:0:
256,192,284793,1,8,0:0:0:0:
256,192,284929,1,0,0:0:0:0:
256,192,285066,1,8,0:0:0:0:
256,192,285202,1,8,0:0:0:0:
256,192,285339,1,0,0:0:0:0:
256,192,285475,1,8,0:0:0:0:
256,192,285612,1,8,0:0:0:0:
256,192,285748,1,0,0:0:0:0:
256,192,285884,1,8,0:0:0:0:
256,192,286020,1,8,0:0:0:0:
256,192,286157,1,0,0:0:0:0:
256,192,286293,1,8,0:0:0:0:
256,192,286429,1,8,0:0:0:0:
256,192,286566,1,8,0:0:0:0:
256,192,286702,1,0,0:0:0:0:
256,192,286838,1,8,0:0:0:0:
256,192,286975,1,8,0:0:0:0:
256,192,287111,1,0,0:0:0:0:
256,192,287248,1,8,0:0:0:0:
256,192,287384,1,8,0:0:0:0:
256,192,287520,1,0,0:0:0:0:
256,192,287657,1,8,0:0:0:0:
256,192,287793,1,8,0:0:0:0:
256,192,287929,1,0,0:0:0:0:
256,192,288066,1,8,0:0:0:0:
256,192,288202,1,0,0:0:0:0:
256,192,288338,1,0,0:0:0:0:
256,192,288475,1,8,0:0:0:0:
256,192,288611,1,4,0:0:0:0:
256,192,289702,1,4,0:0:0:0:
256,192,290793,1,12,0:0:0:0:
256,192,291611,5,0,0:0:0:0:
256,192,291884,1,8,0:0:0:0:
256,192,292429,1,8,0:0:0:0:
256,192,292975,5,0,0:0:0:0:
256,192,293112,1,0,0:0:0:0:
256,192,293248,1,8,0:0:0:0:
256,192,293385,1,0,0:0:0:0:
256,192,293453,1,0,0:0:0:0:
256,192,293521,1,0,0:0:0:0:
256,192,293657,1,0,0:0:0:0:
256,192,293794,1,8,0:0:0:0:
256,192,293930,1,0,0:0:0:0:
256,192,293998,1,0,0:0:0:0:
256,192,294066,1,0,0:0:0:0:
256,192,294135,1,8,0:0:0:0:
256,192,294203,1,0,0:0:0:0:
256,192,294339,1,8,0:0:0:0:
256,192,294475,1,0,0:0:0:0:
256,192,294612,1,0,0:0:0:0:
256,192,294748,1,8,0:0:0:0:
256,192,294885,1,0,0:0:0:0:
256,192,295021,1,8,0:0:0:0:
256,192,295157,1,0,0:0:0:0:
256,192,295294,1,0,0:0:0:0:
256,192,295430,1,8,0:0:0:0:
256,192,295566,1,0,0:0:0:0:
256,192,295635,1,8,0:0:0:0:
256,192,295703,1,0,0:0:0:0:
256,192,295771,1,8,0:0:0:0:
256,192,295839,1,0,0:0:0:0:
256,192,295975,1,8,0:0:0:0:
256,192,296112,1,0,0:0:0:0:
256,192,296248,1,8,0:0:0:0:
256,192,296316,1,8,0:0:0:0:
256,192,296385,1,0,0:0:0:0:
256,192,296521,1,0,0:0:0:0:
256,192,296657,1,8,0:0:0:0:
256,192,296725,1,8,0:0:0:0:
256,192,296794,1,0,0:0:0:0:
256,192,296930,1,0,0:0:0:0:
256,192,297066,1,8,0:0:0:0:
256,192,297135,1,8,0:0:0:0:
256,192,297203,1,8,0:0:0:0:
256,192,297339,1,0,0:0:0:0:
256,192,297475,1,0,0:0:0:0:
256,192,297612,1,8,0:0:0:0:
256,192,297748,1,8,0:0:0:0:
256,192,297816,1,8,0:0:0:0:
256,192,297885,1,0,0:0:0:0:
256,192,297953,1,8,0:0:0:0:
256,192,298021,1,0,0:0:0:0:
256,192,298157,1,8,0:0:0:0:
256,192,298294,1,0,0:0:0:0:
256,192,298362,1,0,0:0:0:0:
256,192,298430,1,0,0:0:0:0:
256,192,298566,1,0,0:0:0:0:
256,192,298703,1,8,0:0:0:0:
256,192,298839,1,0,0:0:0:0:
256,192,298907,1,0,0:0:0:0:
256,192,298975,1,8,0:0:0:0:
256,192,299044,1,0,0:0:0:0:
256,192,299112,1,0,0:0:0:0:
256,192,299248,1,8,0:0:0:0:
256,192,299385,1,0,0:0:0:0:
256,192,299521,1,8,0:0:0:0:
256,192,299657,1,8,0:0:0:0:
256,192,299794,1,0,0:0:0:0:
256,192,299930,1,8,0:0:0:0:
256,192,300066,1,8,0:0:0:0:
256,192,300203,1,0,0:0:0:0:
256,192,300339,1,8,0:0:0:0:
256,192,300475,1,8,0:0:0:0:
256,192,300612,1,0,0:0:0:0:
256,192,300748,1,0,0:0:0:0:
256,192,300885,1,8,0:0:0:0:
256,192,301021,1,0,0:0:0:0:
256,192,301157,1,8,0:0:0:0:
256,192,301294,1,8,0:0:0:0:
256,192,301430,1,0,0:0:0:0:
256,192,301566,1,0,0:0:0:0:
256,192,301703,5,0,0:0:0:0:
256,192,301838,1,0,0:0:0:0:
256,192,301976,1,8,0:0:0:0:
256,192,302111,1,0,0:0:0:0:
256,192,302179,1,0,0:0:0:0:
256,192,302249,1,0,0:0:0:0:
256,192,302385,1,0,0:0:0:0:
256,192,302520,1,8,0:0:0:0:
256,192,302658,1,0,0:0:0:0:
256,192,302726,1,0,0:0:0:0:
256,192,302794,1,0,0:0:0:0:
256,192,302861,1,8,0:0:0:0:
256,192,302929,1,0,0:0:0:0:
256,192,303067,1,8,0:0:0:0:
256,192,303203,1,0,0:0:0:0:
256,192,303338,1,0,0:0:0:0:
256,192,303475,1,8,0:0:0:0:
256,192,303611,1,0,0:0:0:0:
256,192,303748,1,8,0:0:0:0:
256,192,303884,1,0,0:0:0:0:
256,192,304020,1,0,0:0:0:0:
256,192,304157,1,8,0:0:0:0:
256,192,304294,1,0,0:0:0:0:
256,192,304361,1,8,0:0:0:0:
256,192,304429,1,0,0:0:0:0:
256,192,304498,1,8,0:0:0:0:
256,192,304565,1,0,0:0:0:0:
256,192,304701,1,8,0:0:0:0:
256,192,304838,1,0,0:0:0:0:
256,192,304974,1,8,0:0:0:0:
256,192,305042,1,8,0:0:0:0:
256,192,305111,1,0,0:0:0:0:
256,192,305247,1,0,0:0:0:0:
256,192,305383,1,8,0:0:0:0:
256,192,305451,1,8,0:0:0:0:
256,192,305520,1,0,0:0:0:0:
256,192,305656,1,0,0:0:0:0:
256,192,305792,1,8,0:0:0:0:
256,192,305861,1,8,0:0:0:0:
256,192,305929,1,8,0:0:0:0:
256,192,306065,1,0,0:0:0:0:
256,192,306201,1,0,0:0:0:0:
256,192,306338,1,8,0:0:0:0:
256,192,306476,1,8,0:0:0:0:
256,192,306544,1,8,0:0:0:0:
256,192,306611,1,0,0:0:0:0:
256,192,306679,1,8,0:0:0:0:
256,192,306747,1,0,0:0:0:0:
256,192,306883,1,8,0:0:0:0:
256,192,307020,1,0,0:0:0:0:
256,192,307088,1,0,0:0:0:0:
256,192,307156,1,0,0:0:0:0:
256,192,307292,1,0,0:0:0:0:
256,192,307429,1,8,0:0:0:0:
256,192,307565,1,0,0:0:0:0:
256,192,307633,1,0,0:0:0:0:
256,192,307701,1,8,0:0:0:0:
256,192,307770,1,0,0:0:0:0:
256,192,307838,5,0,0:0:0:0:
256,192,307975,1,8,0:0:0:0:
256,192,308043,1,8,0:0:0:0:
256,192,308112,1,0,0:0:0:0:
256,192,308248,5,8,0:0:0:0:
256,192,308385,1,0,0:0:0:0:
256,192,308453,1,8,0:0:0:0:
256,192,308521,1,0,0:0:0:0:
256,192,308657,5,8,0:0:0:0:
256,192,308794,1,0,0:0:0:0:
256,192,308862,1,8,0:0:0:0:
256,192,308930,1,0,0:0:0:0:
256,192,309066,5,8,0:0:0:0:
256,192,309203,1,0,0:0:0:0:
256,192,309271,1,8,0:0:0:0:
256,192,309339,1,0,0:0:0:0:
256,192,309475,5,8,0:0:0:0:
256,192,309612,1,0,0:0:0:0:
256,192,309680,1,8,0:0:0:0:
256,192,309748,1,0,0:0:0:0:
256,192,309885,5,8,0:0:0:0:
256,192,310020,1,0,0:0:0:0:
256,192,310088,1,8,0:0:0:0:
256,192,310158,1,0,0:0:0:0:
256,192,310294,1,0,0:0:0:0:
256,192,310430,5,8,0:0:0:0:
256,192,310566,1,8,0:0:0:0:
256,192,310635,1,8,0:0:0:0:
256,192,310703,1,0,0:0:0:0:
256,192,310839,1,8,0:0:0:0:
256,192,310975,1,8,0:0:0:0:
256,192,311044,1,8,0:0:0:0:
256,192,311112,1,0,0:0:0:0:
256,192,311248,1,8,0:0:0:0:
256,192,311384,1,8,0:0:0:0:
256,192,311453,1,8,0:0:0:0:
256,192,311521,1,0,0:0:0:0:
256,192,311657,1,8,0:0:0:0:
256,192,311793,1,8,0:0:0:0:
256,192,311862,1,8,0:0:0:0:
256,192,311930,1,0,0:0:0:0:
256,192,312066,1,8,0:0:0:0:
256,192,312135,1,8,0:0:0:0:
256,192,312203,1,8,0:0:0:0:
256,192,312271,1,8,0:0:0:0:
256,192,312339,1,0,0:0:0:0:
256,192,312407,1,0,0:0:0:0:
256,192,312475,1,8,0:0:0:0:
256,192,312612,1,4,0:0:0:0:
256,192,312748,1,0,0:0:0:0:
256,192,312816,1,0,0:0:0:0:
256,192,312885,1,8,0:0:0:0:
256,192,313021,1,0,0:0:0:0:
256,192,313157,1,0,0:0:0:0:
256,192,313294,1,8,0:0:0:0:
256,192,313362,1,8,0:0:0:0:
256,192,313430,1,8,0:0:0:0:
256,192,313566,1,8,0:0:0:0:
256,192,313703,1,4,0:0:0:0:
256,192,313839,1,0,0:0:0:0:
256,192,313907,1,0,0:0:0:0:
256,192,313975,1,8,0:0:0:0:
256,192,314112,1,0,0:0:0:0:
256,192,314248,1,0,0:0:0:0:
256,192,314385,1,0,0:0:0:0:
256,192,314453,1,0,0:0:0:0:
256,192,314521,1,8,0:0:0:0:
256,192,314589,1,8,0:0:0:0:
256,192,314657,1,0,0:0:0:0:
256,192,314793,5,0,0:0:0:0:
256,192,315884,12,0,316838,0:0:0:0:
256,192,316985,5,4,0:0:0:0:
256,192,317485,1,8,0:0:0:0:
256,192,317860,1,0,0:0:0:0:
256,192,317985,1,0,0:0:0:0:
256,192,318235,1,0,0:0:0:0:
256,192,318485,1,8,0:0:0:0:
256,192,318735,1,0,0:0:0:0:
256,192,318985,1,0,0:0:0:0:
256,192,319110,1,0,0:0:0:0:
256,192,319235,1,0,0:0:0:0:
256,192,319485,1,8,0:0:0:0:
256,192,319860,1,0,0:0:0:0:
256,192,319985,1,0,0:0:0:0:
256,192,320235,1,0,0:0:0:0:
256,192,320485,1,8,0:0:0:0:
256,192,320610,1,0,0:0:0:0:
256,192,320735,1,0,0:0:0:0:
256,192,320985,1,0,0:0:0:0:
256,192,321110,1,0,0:0:0:0:
256,192,321235,1,0,0:0:0:0:
256,192,321485,1,8,0:0:0:0:
256,192,321735,1,0,0:0:0:0:
256,192,321860,1,0,0:0:0:0:
256,192,321985,1,0,0:0:0:0:
256,192,322235,1,0,0:0:0:0:
256,192,322485,1,8,0:0:0:0:
256,192,322735,1,0,0:0:0:0:
256,192,322985,1,0,0:0:0:0:
256,192,323110,1,0,0:0:0:0:
256,192,323235,1,0,0:0:0:0:
256,192,323485,1,8,0:0:0:0:
256,192,323610,1,8,0:0:0:0:
256,192,323735,1,0,0:0:0:0:
256,192,323985,1,0,0:0:0:0:
256,192,324110,1,0,0:0:0:0:
256,192,324235,1,0,0:0:0:0:
256,192,324360,1,0,0:0:0:0:
256,192,324485,1,8,0:0:0:0:
256,192,324735,1,8,0:0:0:0:
256,192,324985,1,4,0:0:0:0:
256,192,325110,1,4,0:0:0:0:
256,192,325360,1,4,0:0:0:0:
256,192,325485,1,4,0:0:0:0:
256,192,325735,1,8,0:0:0:0:
256,192,325985,1,0,0:0:0:0:
256,192,326110,1,0,0:0:0:0:
256,192,326235,1,8,0:0:0:0:
256,192,326485,1,0,0:0:0:0:
256,192,326735,1,8,0:0:0:0:
256,192,326985,1,0,0:0:0:0:
256,192,327110,1,0,0:0:0:0:
256,192,327235,1,0,0:0:0:0:
256,192,327485,1,8,0:0:0:0:
256,192,327610,1,8,0:0:0:0:
256,192,327735,1,0,0:0:0:0:
256,192,327985,1,0,0:0:0:0:
256,192,328110,1,0,0:0:0:0:
256,192,328235,1,8,0:0:0:0:
256,192,328360,1,8,0:0:0:0:
256,192,328485,1,0,0:0:0:0:
256,192,328735,1,8,0:0:0:0:
256,192,328985,1,4,0:0:0:0:
256,192,329110,1,4,0:0:0:0:
256,192,329360,1,4,0:0:0:0:
256,192,329485,1,4,0:0:0:0:
224,192,329735,1,8,0:0:0:0:
224,192,329985,1,0,0:0:0:0:
224,192,330110,1,0,0:0:0:0:
224,192,330235,1,8,0:0:0:0:
224,192,330485,1,0,0:0:0:0:
224,192,330735,1,8,0:0:0:0:
224,192,330860,1,8,0:0:0:0:
256,192,330985,1,4,0:0:0:0:
256,192,331110,1,4,0:0:0:0:
256,192,331360,1,4,0:0:0:0:
256,192,331485,1,4,0:0:0:0:
256,192,331735,1,8,0:0:0:0:
256,192,331985,1,4,0:0:0:0:
256,192,332110,1,4,0:0:0:0:
256,192,332235,1,8,0:0:0:0:
256,192,332360,1,8,0:0:0:0:
256,192,332485,1,4,0:0:0:0:
256,192,332610,1,4,0:0:0:0:
256,192,332735,1,8,0:0:0:0:
256,192,332860,1,8,0:0:0:0:
256,192,332985,2,4,L|256:32,4,140
256,192,334235,1,0,0:0:0:0:
256,192,334485,1,8,0:0:0:0:
256,192,334610,1,0,0:0:0:0:
256,192,334735,1,8,0:0:0:0:
256,192,335110,1,0,0:0:0:0:
256,192,335235,1,0,0:0:0:0:
256,192,335485,1,8,0:0:0:0:
256,192,335610,1,0,0:0:0:0:
256,192,335735,1,8,0:0:0:0:
256,192,335860,1,0,0:0:0:0:
256,192,336110,1,0,0:0:0:0:
256,192,336235,1,0,0:0:0:0:
256,192,336485,1,8,0:0:0:0:
256,192,336610,1,0,0:0:0:0:
256,192,336735,1,8,0:0:0:0:
256,192,336860,1,0,0:0:0:0:
224,192,337110,1,0,0:0:0:0:
224,192,337235,1,8,0:0:0:0:
256,192,337485,1,0,0:0:0:0:
256,192,337610,1,8,0:0:0:0:
256,192,337735,1,0,0:0:0:0:
256,192,337860,1,8,0:0:0:0:
256,192,338110,1,0,0:0:0:0:
256,192,338235,1,8,0:0:0:0:
256,192,338360,1,0,0:0:0:0:
256,192,338485,1,0,0:0:0:0:
256,192,338610,1,8,0:0:0:0:
256,192,338735,1,8,0:0:0:0:
256,192,338860,1,0,0:0:0:0:
256,192,339110,1,8,0:0:0:0:
256,192,339235,1,0,0:0:0:0:
256,192,339297,1,0,0:0:0:0:
256,192,339360,1,0,0:0:0:0:
256,192,339485,1,8,0:0:0:0:
288,192,339610,1,8,0:0:0:0:
288,192,339735,1,0,0:0:0:0:
288,192,339860,1,8,0:0:0:0:
288,192,340110,1,0,0:0:0:0:
256,192,340235,1,8,0:0:0:0:
256,192,340360,1,8,0:0:0:0:
256,192,340485,1,0,0:0:0:0:
256,192,340610,1,0,0:0:0:0:
256,192,340672,1,0,0:0:0:0:
256,192,340735,1,8,0:0:0:0:
256,192,340860,1,8,0:0:0:0:
256,192,340985,1,0,0:0:0:0:
256,192,341110,1,0,0:0:0:0:
256,192,341235,1,8,0:0:0:0:
256,192,341485,1,0,0:0:0:0:
256,192,341610,1,8,0:0:0:0:
256,192,341860,1,8,0:0:0:0:
256,192,342110,1,0,0:0:0:0:
256,192,342235,1,8,0:0:0:0:
256,192,342485,1,0,0:0:0:0:
256,192,342610,1,8,0:0:0:0:
256,192,342735,1,0,0:0:0:0:
256,192,342860,1,8,0:0:0:0:
256,192,343110,1,8,0:0:0:0:
256,192,343235,1,0,0:0:0:0:
256,192,343360,1,8,0:0:0:0:
256,192,343485,1,0,0:0:0:0:
256,192,343547,1,0,0:0:0:0:
256,192,343610,1,8,0:0:0:0:
256,192,343735,1,8,0:0:0:0:
256,192,343860,1,0,0:0:0:0:
256,192,344110,1,8,0:0:0:0:
256,192,344235,1,0,0:0:0:0:
256,192,344485,1,8,0:0:0:0:
192,160,344735,5,8,0:0:0:0:
256,192,344985,1,0,0:0:0:0:
256,192,345110,1,0,0:0:0:0:
256,192,345235,1,8,0:0:0:0:
224,224,345485,1,0,0:0:0:0:
224,192,345610,1,8,0:0:0:0:
224,224,345860,1,8,0:0:0:0:
192,192,346110,1,0,0:0:0:0:
192,192,346235,1,8,0:0:0:0:
192,192,346360,1,0,0:0:0:0:
192,192,346485,1,8,0:0:0:0:
192,192,346735,1,8,0:0:0:0:
224,192,346985,1,0,0:0:0:0:
224,192,347110,1,8,0:0:0:0:
224,192,347235,1,0,0:0:0:0:
224,192,347297,1,0,0:0:0:0:
224,192,347360,1,8,0:0:0:0:
224,192,347485,1,8,0:0:0:0:
224,192,347547,1,8,0:0:0:0:
224,192,347610,1,0,0:0:0:0:
224,160,347735,1,8,0:0:0:0:
224,160,347860,1,8,0:0:0:0:
224,160,347985,1,0,0:0:0:0:
192,160,348110,1,0,0:0:0:0:
192,160,348235,1,8,0:0:0:0:
192,160,348485,1,0,0:0:0:0:
125,226,348735,1,8,0:0:0:0:
125,226,348860,1,8,0:0:0:0:
256,192,348985,1,4,0:0:0:0:
256,192,349110,1,0,0:0:0:0:
256,192,349172,1,0,0:0:0:0:
256,192,349235,1,8,0:0:0:0:
256,192,349360,1,8,0:0:0:0:
256,192,349485,1,0,0:0:0:0:
256,192,349610,1,8,0:0:0:0:
256,224,349735,1,0,0:0:0:0:
224,192,349860,1,8,0:0:0:0:
224,192,349985,1,8,0:0:0:0:
224,192,350110,1,0,0:0:0:0:
224,192,350172,1,0,0:0:0:0:
224,192,350235,1,8,0:0:0:0:
224,192,350360,1,8,0:0:0:0:
256,192,350485,1,0,0:0:0:0:
256,192,350610,1,8,0:0:0:0:
256,192,350672,1,8,0:0:0:0:
256,192,350735,1,0,0:0:0:0:
256,192,350860,1,8,0:0:0:0:
256,192,350985,1,0,0:0:0:0:
256,192,351110,1,8,0:0:0:0:
256,192,351235,1,8,0:0:0:0:
256,192,351360,1,0,0:0:0:0:
256,192,351485,1,8,0:0:0:0:
256,192,351610,1,0,0:0:0:0:
256,192,351735,1,8,0:0:0:0:
256,192,351860,1,0,0:0:0:0:
256,192,351922,1,0,0:0:0:0:
256,192,351985,1,8,0:0:0:0:
256,192,352110,1,0,0:0:0:0:
256,192,352172,1,0,0:0:0:0:
256,192,352235,1,8,0:0:0:0:
224,192,352297,1,8,0:0:0:0:
256,192,352360,1,0,0:0:0:0:
288,192,352485,1,8,0:0:0:0:
288,192,352547,1,0,0:0:0:0:
256,192,352610,1,8,0:0:0:0:
256,192,352672,1,8,0:0:0:0:
256,192,352735,1,0,0:0:0:0:
256,192,352797,1,0,0:0:0:0:
256,192,352860,1,8,0:0:0:0:
256,192,352922,1,8,0:0:0:0:
256,192,352985,1,0,0:0:0:0:
288,192,353110,1,8,0:0:0:0:
256,192,353235,1,0,0:0:0:0:
256,192,353360,1,8,0:0:0:0:
256,192,353485,1,0,0:0:0:0:
256,192,353547,1,0,0:0:0:0:
256,192,353610,1,0,0:0:0:0:
256,192,353735,1,8,0:0:0:0:
256,192,353860,1,0,0:0:0:0:
256,192,353985,1,8,0:0:0:0:
256,192,354110,1,0,0:0:0:0:
256,192,354172,1,0,0:0:0:0:
256,192,354235,1,8,0:0:0:0:
256,160,354360,1,8,0:0:0:0:
256,160,354485,1,0,0:0:0:0:
256,160,354610,1,8,0:0:0:0:
224,192,354672,1,0,0:0:0:0:
224,192,354735,1,0,0:0:0:0:
224,160,354860,1,8,0:0:0:0:
256,192,354985,1,8,0:0:0:0:
256,192,355110,1,0,0:0:0:0:
256,192,355235,1,8,0:0:0:0:
256,160,355360,1,0,0:0:0:0:
224,160,355485,1,8,0:0:0:0:
256,160,355610,1,8,0:0:0:0:
256,160,355735,1,0,0:0:0:0:
256,160,355797,1,0,0:0:0:0:
192,224,355860,1,8,0:0:0:0:
224,192,355985,1,12,0:0:0:0:
224,160,356235,1,4,0:0:0:0:
128,128,356485,1,4,0:0:0:0:
160,192,356610,1,4,0:0:0:0:
160,192,356735,1,12,0:0:0:0:
160,192,356860,1,4,0:0:0:0:
160,192,357110,1,8,0:0:0:0:
160,128,357235,1,4,0:0:0:0:
192,192,357360,1,0,0:0:0:0:
224,192,357485,1,8,0:0:0:0:
192,192,357610,1,0,0:0:0:0:
192,224,357735,1,8,0:0:0:0:
192,192,357797,1,8,0:0:0:0:
192,192,357860,1,0,0:0:0:0:
192,192,357985,1,8,0:0:0:0:
192,160,358110,1,0,0:0:0:0:
192,192,358172,1,0,0:0:0:0:
192,192,358235,1,8,0:0:0:0:
192,192,358360,1,0,0:0:0:0:
160,192,358485,1,8,0:0:0:0:
128,192,358547,1,8,0:0:0:0:
128,192,358610,1,0,0:0:0:0:
96,192,358672,1,0,0:0:0:0:
128,192,358735,1,8,0:0:0:0:
128,224,358860,1,0,0:0:0:0:
160,192,358985,1,8,0:0:0:0:
160,192,359110,1,0,0:0:0:0:
128,192,359172,1,0,0:0:0:0:
160,192,359235,1,8,0:0:0:0:
160,192,359360,1,8,0:0:0:0:
128,192,359485,1,0,0:0:0:0:
192,192,359610,1,8,0:0:0:0:
160,160,359735,1,0,0:0:0:0:
160,160,359860,1,8,0:0:0:0:
160,160,359922,1,8,0:0:0:0:
160,160,359985,1,0,0:0:0:0:
160,160,360110,1,0,0:0:0:0:
160,160,360172,1,0,0:0:0:0:
160,160,360235,1,8,0:0:0:0:
160,160,360360,1,0,0:0:0:0:
160,160,360422,1,0,0:0:0:0:
160,160,360485,1,8,0:0:0:0:
160,160,360547,1,8,0:0:0:0:
160,160,360610,1,0,0:0:0:0:
192,192,360672,1,0,0:0:0:0:
192,192,360735,1,8,0:0:0:0:
192,160,360860,1,0,0:0:0:0:
160,160,360985,1,8,0:0:0:0:
160,128,361110,1,8,0:0:0:0:
160,192,361172,1,8,0:0:0:0:
192,192,361235,1,0,0:0:0:0:
192,192,361360,1,8,0:0:0:0:
192,192,361485,1,0,0:0:0:0:
192,192,361610,1,0,0:0:0:0:
192,192,361672,1,8,0:0:0:0:
192,192,361735,1,0,0:0:0:0:
160,160,361860,1,8,0:0:0:0:
160,160,361985,1,0,0:0:0:0:
160,160,362110,1,8,0:0:0:0:
87,168,362172,1,8,0:0:0:0:
87,168,362235,1,0,0:0:0:0:
192,160,362360,1,0,0:0:0:0:
192,160,362422,1,8,0:0:0:0:
192,160,362485,1,0,0:0:0:0:
192,160,362547,1,0,0:0:0:0:
192,160,362610,1,8,0:0:0:0:
192,160,362735,1,8,0:0:0:0:
192,160,362860,1,0,0:0:0:0:
192,160,362922,1,0,0:0:0:0:
192,160,362985,1,8,0:0:0:0:
192,160,363110,1,0,0:0:0:0:
192,160,363235,1,8,0:0:0:0:
205,133,363360,1,8,0:0:0:0:
205,133,363485,1,0,0:0:0:0:
160,160,363610,1,8,0:0:0:0:
192,160,363735,1,0,0:0:0:0:
192,160,363797,1,0,0:0:0:0:
192,160,363860,1,8,0:0:0:0:
222,252,363922,1,8,0:0:0:0:
222,252,363985,1,0,0:0:0:0:
192,160,364235,1,8,0:0:0:0:
192,160,364485,1,0,0:0:0:0:
276,166,364610,1,0,0:0:0:0:
205,133,364735,1,8,0:0:0:0:
205,133,364860,1,8,0:0:0:0:
256,192,364985,5,12,0:0:0:0:
224,192,365110,1,0,0:0:0:0:
224,192,365172,1,0,0:0:0:0:
224,192,365235,1,8,0:0:0:0:
256,192,365360,1,8,0:0:0:0:
256,192,365485,1,0,0:0:0:0:
256,192,365547,1,0,0:0:0:0:
256,192,365610,1,8,0:0:0:0:
256,192,365735,1,0,0:0:0:0:
224,192,365797,1,8,0:0:0:0:
224,192,365860,1,0,0:0:0:0:
224,192,365922,1,8,0:0:0:0:
224,192,365985,1,0,0:0:0:0:
224,192,366110,1,8,0:0:0:0:
224,192,366235,1,0,0:0:0:0:
224,192,366360,1,8,0:0:0:0:
224,192,366485,1,0,0:0:0:0:
224,192,366547,1,8,0:0:0:0:
224,192,366610,1,0,0:0:0:0:
224,192,366672,1,8,0:0:0:0:
224,192,366735,1,0,0:0:0:0:
224,192,366860,1,8,0:0:0:0:
256,192,366985,5,8,0:0:0:0:
224,192,367110,1,0,0:0:0:0:
224,192,367172,1,0,0:0:0:0:
224,192,367235,1,8,0:0:0:0:
256,192,367360,1,8,0:0:0:0:
256,192,367485,1,0,0:0:0:0:
256,192,367547,1,0,0:0:0:0:
256,192,367610,1,8,0:0:0:0:
256,192,367735,1,0,0:0:0:0:
224,192,367797,1,8,0:0:0:0:
224,192,367860,1,0,0:0:0:0:
224,192,367922,1,8,0:0:0:0:
224,192,367985,1,0,0:0:0:0:
224,192,368110,1,8,0:0:0:0:
224,192,368235,1,0,0:0:0:0:
224,192,368360,1,8,0:0:0:0:
224,192,368485,1,0,0:0:0:0:
224,192,368547,1,8,0:0:0:0:
224,192,368610,1,0,0:0:0:0:
224,192,368672,1,8,0:0:0:0:
224,192,368735,1,0,0:0:0:0:
224,192,368860,1,8,0:0:0:0:
256,192,368985,5,8,0:0:0:0:
224,192,369110,1,0,0:0:0:0:
224,192,369172,1,0,0:0:0:0:
224,192,369235,1,8,0:0:0:0:
256,192,369360,1,8,0:0:0:0:
256,192,369485,1,0,0:0:0:0:
256,192,369547,1,0,0:0:0:0:
256,192,369610,1,8,0:0:0:0:
256,192,369735,1,0,0:0:0:0:
224,192,369797,1,8,0:0:0:0:
224,192,369860,1,0,0:0:0:0:
224,192,369922,1,8,0:0:0:0:
224,192,369985,1,0,0:0:0:0:
224,192,370110,1,8,0:0:0:0:
224,192,370235,1,0,0:0:0:0:
224,192,370360,1,8,0:0:0:0:
224,192,370485,1,0,0:0:0:0:
224,192,370547,1,8,0:0:0:0:
224,192,370610,1,0,0:0:0:0:
224,192,370672,1,8,0:0:0:0:
224,192,370735,1,0,0:0:0:0:
224,192,370860,1,8,0:0:0:0:
256,192,370985,5,8,0:0:0:0:
224,192,371110,1,0,0:0:0:0:
224,192,371172,1,0,0:0:0:0:
224,192,371235,1,8,0:0:0:0:
256,192,371360,1,8,0:0:0:0:
256,192,371485,1,0,0:0:0:0:
256,192,371547,1,0,0:0:0:0:
256,192,371610,1,8,0:0:0:0:
256,192,371735,1,0,0:0:0:0:
224,192,371797,1,8,0:0:0:0:
224,192,371860,1,0,0:0:0:0:
224,192,371922,1,8,0:0:0:0:
224,192,371985,1,0,0:0:0:0:
224,192,372110,1,8,0:0:0:0:
224,192,372235,1,0,0:0:0:0:
224,192,372360,1,8,0:0:0:0:
224,192,372485,1,0,0:0:0:0:
224,192,372547,1,0,0:0:0:0:
224,192,372610,1,8,0:0:0:0:
224,192,372672,1,0,0:0:0:0:
224,192,372735,1,8,0:0:0:0:
160,192,372797,1,8,0:0:0:0:
224,192,372860,1,0,0:0:0:0:
256,192,372985,5,4,0:0:0:0:
224,192,373110,1,8,0:0:0:0:
224,192,373172,1,8,0:0:0:0:
224,192,373235,1,0,0:0:0:0:
256,192,373360,1,0,0:0:0:0:
256,192,373485,1,8,0:0:0:0:
256,192,373547,1,8,0:0:0:0:
256,192,373610,1,0,0:0:0:0:
256,192,373735,1,8,0:0:0:0:
224,192,373797,1,0,0:0:0:0:
224,192,373860,1,8,0:0:0:0:
224,192,373922,1,0,0:0:0:0:
224,192,373985,1,8,0:0:0:0:
224,192,374110,1,0,0:0:0:0:
224,192,374235,1,8,0:0:0:0:
224,192,374360,1,0,0:0:0:0:
224,192,374485,1,8,0:0:0:0:
224,192,374547,1,0,0:0:0:0:
224,192,374610,1,8,0:0:0:0:
224,192,374672,1,0,0:0:0:0:
224,192,374735,1,8,0:0:0:0:
224,192,374860,1,8,0:0:0:0:
256,192,374985,5,0,0:0:0:0:
224,192,375110,1,8,0:0:0:0:
224,192,375172,1,8,0:0:0:0:
224,192,375235,1,0,0:0:0:0:
256,192,375360,1,0,0:0:0:0:
256,192,375485,1,8,0:0:0:0:
256,192,375547,1,8,0:0:0:0:
256,192,375610,1,0,0:0:0:0:
256,192,375735,1,8,0:0:0:0:
224,192,375797,1,0,0:0:0:0:
224,192,375860,1,8,0:0:0:0:
224,192,375922,1,0,0:0:0:0:
224,192,375985,1,8,0:0:0:0:
224,192,376110,1,0,0:0:0:0:
224,192,376235,1,8,0:0:0:0:
224,192,376360,1,0,0:0:0:0:
224,192,376485,1,8,0:0:0:0:
224,192,376547,1,0,0:0:0:0:
224,192,376610,1,8,0:0:0:0:
224,192,376672,1,0,0:0:0:0:
224,192,376735,1,8,0:0:0:0:
224,192,376860,1,8,0:0:0:0:
256,192,376985,5,0,0:0:0:0:
224,192,377110,1,8,0:0:0:0:
224,192,377172,1,8,0:0:0:0:
224,192,377235,1,0,0:0:0:0:
256,192,377360,1,0,0:0:0:0:
256,192,377485,1,8,0:0:0:0:
256,192,377547,1,8,0:0:0:0:
256,192,377610,1,0,0:0:0:0:
256,192,377735,1,8,0:0:0:0:
224,192,377797,1,0,0:0:0:0:
224,192,377860,1,8,0:0:0:0:
224,192,377922,1,0,0:0:0:0:
224,192,377985,1,8,0:0:0:0:
224,192,378110,1,0,0:0:0:0:
224,192,378235,1,8,0:0:0:0:
224,192,378360,1,0,0:0:0:0:
224,192,378485,1,8,0:0:0:0:
224,192,378547,1,0,0:0:0:0:
224,192,378610,1,8,0:0:0:0:
224,192,378672,1,0,0:0:0:0:
224,192,378735,1,8,0:0:0:0:
224,192,378860,1,8,0:0:0:0:
256,192,378985,5,0,0:0:0:0:
224,192,379110,1,8,0:0:0:0:
224,192,379172,1,8,0:0:0:0:
224,192,379235,1,8,0:0:0:0:
256,192,379360,1,0,0:0:0:0:
256,192,379485,1,8,0:0:0:0:
256,192,379547,1,8,0:0:0:0:
256,192,379610,1,0,0:0:0:0:
256,192,379735,1,8,0:0:0:0:
224,192,379797,1,0,0:0:0:0:
224,192,379860,1,8,0:0:0:0:
224,192,379922,1,8,0:0:0:0:
224,192,379985,1,0,0:0:0:0:
224,192,380110,1,8,0:0:0:0:
224,192,380235,1,0,0:0:0:0:
224,192,380360,1,8,0:0:0:0:
224,192,380485,1,0,0:0:0:0:
224,192,380610,1,8,0:0:0:0:
224,192,380735,1,8,0:0:0:0:
96,192,380797,1,8,0:0:0:0:
224,192,380860,1,8,0:0:0:0:
96,192,380985,1,4,0:0:0:0:
160,224,381110,1,8,0:0:0:0:
160,256,381485,1,0,0:0:0:0:
192,224,381860,1,8,0:0:0:0:
192,192,382485,1,0,0:0:0:0:
224,192,383110,1,8,0:0:0:0:
128,160,383485,1,0,0:0:0:0:
128,160,383860,1,8,0:0:0:0:
128,160,384485,1,0,0:0:0:0:
160,192,385110,1,8,0:0:0:0:
192,192,385235,1,0,0:0:0:0:
192,192,385485,1,0,0:0:0:0:
192,192,385860,1,8,0:0:0:0:
211,155,386485,1,0,0:0:0:0:
223,195,387110,1,8,0:0:0:0:
223,195,387235,1,0,0:0:0:0:
223,195,387485,1,8,0:0:0:0:
223,195,387860,1,0,0:0:0:0:
223,195,387922,1,0,0:0:0:0:
223,195,387985,1,8,0:0:0:0:
223,195,388110,1,0,0:0:0:0:
223,195,388235,1,8,0:0:0:0:
223,195,388360,1,0,0:0:0:0:
223,195,388485,1,12,0:0:0:0:
223,195,388610,1,0,0:0:0:0:
223,195,388735,1,12,0:0:0:0:
223,195,388860,1,0,0:0:0:0:
223,195,388985,1,12,0:0:0:0:
223,195,389110,1,0,0:0:0:0:
223,195,389172,1,0,0:0:0:0:
223,195,389235,1,8,0:0:0:0:
223,195,389360,1,0,0:0:0:0:
223,195,389485,1,0,0:0:0:0:
223,195,389610,1,8,0:0:0:0:
223,195,389735,1,0,0:0:0:0:
223,195,389860,1,0,0:0:0:0:
223,195,389985,1,8,0:0:0:0:
223,195,390110,1,0,0:0:0:0:
223,195,390235,1,8,0:0:0:0:
223,195,390360,1,0,0:0:0:0:
223,195,390422,1,0,0:0:0:0:
223,195,390485,1,0,0:0:0:0:
223,195,390610,1,8,0:0:0:0:
223,195,390735,1,0,0:0:0:0:
223,195,390860,1,8,0:0:0:0:
223,195,390985,1,0,0:0:0:0:
223,195,391110,1,0,0:0:0:0:
223,195,391235,1,8,0:0:0:0:
223,195,391360,1,0,0:0:0:0:
160,192,391422,1,0,0:0:0:0:
223,195,391485,1,0,0:0:0:0:
223,195,391610,1,8,0:0:0:0:
223,195,391735,1,0,0:0:0:0:
223,195,391860,1,0,0:0:0:0:
223,195,391985,1,8,0:0:0:0:
223,195,392110,1,0,0:0:0:0:
223,195,392235,1,8,0:0:0:0:
223,195,392360,1,0,0:0:0:0:
160,192,392422,1,0,0:0:0:0:
223,195,392485,1,0,0:0:0:0:
223,195,392610,1,8,0:0:0:0:
223,195,392735,1,0,0:0:0:0:
223,195,392860,1,0,0:0:0:0:
192,192,392922,1,0,0:0:0:0:
223,195,392985,1,8,0:0:0:0:
223,195,393110,1,0,0:0:0:0:
192,192,393172,1,0,0:0:0:0:
223,195,393235,1,8,0:0:0:0:
223,195,393360,1,0,0:0:0:0:
223,195,393485,1,8,0:0:0:0:
223,195,393610,1,8,0:0:0:0:
223,195,393735,1,0,0:0:0:0:
223,195,393860,1,0,0:0:0:0:
192,192,393922,1,0,0:0:0:0:
223,195,393985,1,8,0:0:0:0:
223,195,394110,1,0,0:0:0:0:
223,195,394235,1,8,0:0:0:0:
223,195,394360,1,0,0:0:0:0:
223,195,394485,1,0,0:0:0:0:
223,195,394610,1,8,0:0:0:0:
223,195,394735,1,0,0:0:0:0:
223,195,394860,1,0,0:0:0:0:
192,192,394922,1,0,0:0:0:0:
223,195,394985,1,8,0:0:0:0:
223,195,395110,1,0,0:0:0:0:
223,195,395235,1,8,0:0:0:0:
223,195,395360,1,0,0:0:0:0:
223,195,395485,1,8,0:0:0:0:
223,195,395610,1,0,0:0:0:0:
192,192,395672,1,8,0:0:0:0:
223,195,395735,1,0,0:0:0:0:
223,195,395860,1,0,0:0:0:0:
192,192,395922,1,0,0:0:0:0:
223,195,395985,1,8,0:0:0:0:
223,195,396110,1,0,0:0:0:0:
223,195,396235,1,8,0:0:0:0:
223,195,396485,1,0,0:0:0:0:
160,192,396610,1,0,0:0:0:0:
223,195,396735,1,8,0:0:0:0:
187,162,396860,1,8,0:0:0:0:
187,162,396985,1,4,0:0:0:0:
271,186,397110,1,0,0:0:0:0:
271,186,397485,1,0,0:0:0:0:
187,162,397860,1,0,0:0:0:0:
187,162,397985,1,8,0:0:0:0:
187,162,398110,1,0,0:0:0:0:
187,162,398360,1,0,0:0:0:0:
187,162,398485,1,0,0:0:0:0:
187,162,398735,1,8,0:0:0:0:
187,162,398985,1,0,0:0:0:0:
187,162,399110,1,0,0:0:0:0:
187,162,399360,1,8,0:0:0:0:
187,162,399485,1,0,0:0:0:0:
187,162,399735,1,0,0:0:0:0:
218,162,399860,1,0,0:0:0:0:
244,176,399985,1,8,0:0:0:0:
244,176,400110,1,0,0:0:0:0:
244,176,400360,1,0,0:0:0:0:
244,176,400485,1,8,0:0:0:0:
192,128,400735,1,0,0:0:0:0:
192,128,400860,1,0,0:0:0:0:
192,128,400922,1,0,0:0:0:0:
192,128,400985,1,8,0:0:0:0:
192,128,401110,1,0,0:0:0:0:
192,128,401360,1,0,0:0:0:0:
192,128,401485,1,8,0:0:0:0:
192,128,401735,1,0,0:0:0:0:
192,128,401860,1,0,0:0:0:0:
192,128,401985,1,8,0:0:0:0:
192,128,402110,1,0,0:0:0:0:
192,128,402360,1,0,0:0:0:0:
160,160,402485,1,8,0:0:0:0:
160,160,402610,1,0,0:0:0:0:
160,160,402735,1,8,0:0:0:0:
160,160,402860,1,0,0:0:0:0:
256,160,402985,5,8,0:0:0:0:
224,160,403110,1,8,0:0:0:0:
224,160,403235,1,0,0:0:0:0:
224,160,403485,1,8,0:0:0:0:
224,160,403610,1,8,0:0:0:0:
224,160,403735,1,0,0:0:0:0:
224,160,403860,1,0,0:0:0:0:
224,160,403985,1,8,0:0:0:0:
128,128,404110,1,0,0:0:0:0:
128,128,404235,1,8,0:0:0:0:
128,128,404360,1,0,0:0:0:0:
128,128,404422,1,0,0:0:0:0:
128,128,404485,1,8,0:0:0:0:
128,128,404547,1,8,0:0:0:0:
128,128,404610,1,8,0:0:0:0:
128,128,404672,1,8,0:0:0:0:
128,128,404735,1,0,0:0:0:0:
128,128,404797,1,0,0:0:0:0:
128,128,404860,1,8,0:0:0:0:
128,128,404985,1,4,0:0:0:0:
223,195,405110,1,0,0:0:0:0:
160,192,405172,1,0,0:0:0:0:
223,195,405235,1,8,0:0:0:0:
223,195,405360,1,0,0:0:0:0:
223,195,405485,1,0,0:0:0:0:
160,192,405547,1,0,0:0:0:0:
223,195,405610,1,8,0:0:0:0:
223,195,405735,1,8,0:0:0:0:
160,192,405797,1,8,0:0:0:0:
223,195,405860,1,0,0:0:0:0:
160,192,405922,1,0,0:0:0:0:
223,195,405985,1,8,0:0:0:0:
223,195,406110,1,0,0:0:0:0:
160,192,406172,1,0,0:0:0:0:
223,195,406235,1,8,0:0:0:0:
223,195,406360,1,8,0:0:0:0:
223,195,406485,1,0,0:0:0:0:
160,192,406547,1,8,0:0:0:0:
223,195,406610,1,0,0:0:0:0:
160,192,406672,1,0,0:0:0:0:
160,192,406735,1,8,0:0:0:0:
223,195,406860,1,8,0:0:0:0:
223,195,406985,1,0,0:0:0:0:
160,192,407047,1,0,0:0:0:0:
223,195,407110,1,8,0:0:0:0:
223,195,407235,1,8,0:0:0:0:
223,195,407360,1,0,0:0:0:0:
160,192,407422,1,0,0:0:0:0:
223,195,407485,1,0,0:0:0:0:
160,192,407610,1,8,0:0:0:0:
223,195,407735,1,0,0:0:0:0:
160,192,407797,1,0,0:0:0:0:
223,195,407860,1,8,0:0:0:0:
160,192,407922,1,8,0:0:0:0:
223,195,407985,1,0,0:0:0:0:
223,195,408110,1,0,0:0:0:0:
160,192,408172,1,8,0:0:0:0:
223,195,408235,1,0,0:0:0:0:
160,192,408360,1,8,0:0:0:0:
223,195,408485,1,0,0:0:0:0:
160,128,408547,1,0,0:0:0:0:
223,195,408610,1,8,0:0:0:0:
160,192,408672,1,8,0:0:0:0:
223,195,408735,1,0,0:0:0:0:
160,128,408797,1,0,0:0:0:0:
223,195,408860,1,8,0:0:0:0:
223,195,408985,1,8,0:0:0:0:
223,195,409110,1,0,0:0:0:0:
160,128,409172,1,0,0:0:0:0:
223,195,409235,1,8,0:0:0:0:
223,195,409360,1,0,0:0:0:0:
223,195,409485,1,0,0:0:0:0:
160,128,409547,1,0,0:0:0:0:
223,195,409610,1,8,0:0:0:0:
223,195,409735,1,8,0:0:0:0:
160,128,409797,1,8,0:0:0:0:
223,195,409860,1,0,0:0:0:0:
160,128,409922,1,8,0:0:0:0:
160,128,409985,1,0,0:0:0:0:
223,195,410110,1,8,0:0:0:0:
160,128,410172,1,8,0:0:0:0:
223,195,410235,1,0,0:0:0:0:
223,195,410360,1,8,0:0:0:0:
223,195,410485,1,0,0:0:0:0:
223,195,410610,1,8,0:0:0:0:
128,128,410672,1,8,0:0:0:0:
223,195,410735,1,0,0:0:0:0:
223,195,410860,1,0,0:0:0:0:
223,195,410985,1,8,0:0:0:0:
128,128,411047,1,8,0:0:0:0:
223,195,411110,1,0,0:0:0:0:
223,195,411235,1,0,0:0:0:0:
223,195,411360,1,8,0:0:0:0:
128,128,411485,1,0,0:0:0:0:
128,128,411547,1,0,0:0:0:0:
128,128,411610,1,8,0:0:0:0:
224,224,411735,1,0,0:0:0:0:
224,224,411797,1,0,0:0:0:0:
224,224,411860,1,8,0:0:0:0:
224,224,411922,1,8,0:0:0:0:
224,224,411985,1,0,0:0:0:0:
224,224,412110,1,0,0:0:0:0:
224,224,412235,1,8,0:0:0:0:
224,224,412360,1,0,0:0:0:0:
192,128,412485,1,8,0:0:0:0:
192,128,412610,1,0,0:0:0:0:
223,195,412735,1,8,0:0:0:0:
325,162,412776,1,8,0:0:0:0:
325,162,412818,1,8,0:0:0:0:
325,162,412860,1,0,0:0:0:0:
160,160,412985,5,4,0:0:0:0:
192,160,413110,1,0,0:0:0:0:
160,160,413235,1,8,0:0:0:0:
160,128,413485,1,0,0:0:0:0:
160,128,413610,1,0,0:0:0:0:
160,128,413735,1,8,0:0:0:0:
160,128,413985,1,8,0:0:0:0:
160,128,414110,1,0,0:0:0:0:
160,128,414235,1,8,0:0:0:0:
160,128,414485,1,0,0:0:0:0:
160,128,414735,1,8,0:0:0:0:
160,128,414985,1,0,0:0:0:0:
160,128,415110,1,0,0:0:0:0:
160,128,415235,1,8,0:0:0:0:
160,128,415485,1,0,0:0:0:0:
192,160,415610,1,8,0:0:0:0:
224,160,415735,1,8,0:0:0:0:
192,160,415985,1,8,0:0:0:0:
192,160,416110,1,0,0:0:0:0:
192,160,416235,1,8,0:0:0:0:
160,160,416485,1,8,0:0:0:0:
160,160,416735,1,0,0:0:0:0:
224,160,416985,1,8,0:0:0:0:
224,160,417110,1,8,0:0:0:0:
224,160,417235,1,0,0:0:0:0:
224,128,417485,1,8,0:0:0:0:
224,128,417610,1,8,0:0:0:0:
224,128,417735,1,0,0:0:0:0:
224,128,417860,1,0,0:0:0:0:
224,128,417985,1,8,0:0:0:0:
224,128,418110,1,0,0:0:0:0:
224,128,418235,1,8,0:0:0:0:
224,128,418485,1,0,0:0:0:0:
224,128,418735,1,8,0:0:0:0:
224,128,418860,1,0,0:0:0:0:
224,128,418985,1,8,0:0:0:0:
224,128,419110,1,0,0:0:0:0:
224,128,419235,1,8,0:0:0:0:
224,128,419485,1,8,0:0:0:0:
224,128,419610,1,8,0:0:0:0:
224,128,419735,1,0,0:0:0:0:
224,128,419985,1,0,0:0:0:0:
224,128,420047,1,0,0:0:0:0:
224,128,420110,1,0,0:0:0:0:
224,128,420172,1,0,0:0:0:0:
224,128,420235,1,8,0:0:0:0:
224,128,420360,1,0,0:0:0:0:
224,128,420485,1,12,0:0:0:0:
160,128,420735,1,4,0:0:0:0:
160,128,420985,1,12,0:0:0:0:
192,128,421110,1,0,0:0:0:0:
224,160,421172,1,0,0:0:0:0:
192,128,421235,1,8,0:0:0:0:
128,128,421360,1,0,0:0:0:0:
192,128,421485,1,0,0:0:0:0:
223,195,421610,1,8,0:0:0:0:
223,195,421735,1,0,0:0:0:0:
223,195,421860,1,0,0:0:0:0:
223,195,421985,1,0,0:0:0:0:
223,195,422110,1,0,0:0:0:0:
224,160,422172,1,0,0:0:0:0:
223,195,422235,1,8,0:0:0:0:
223,195,422360,1,0,0:0:0:0:
223,195,422485,1,0,0:0:0:0:
223,195,422610,1,8,0:0:0:0:
223,195,422735,1,0,0:0:0:0:
223,195,422860,1,8,0:0:0:0:
224,160,422922,1,8,0:0:0:0:
223,195,422985,1,8,0:0:0:0:
223,195,423110,1,0,0:0:0:0:
223,195,423235,1,8,0:0:0:0:
223,195,423360,1,0,0:0:0:0:
224,160,423422,1,0,0:0:0:0:
223,195,423485,1,0,0:0:0:0:
223,195,423610,1,8,0:0:0:0:
223,195,423735,1,0,0:0:0:0:
223,195,423860,1,0,0:0:0:0:
223,195,423985,1,8,0:0:0:0:
223,195,424110,1,0,0:0:0:0:
223,195,424235,1,8,0:0:0:0:
223,195,424360,1,0,0:0:0:0:
224,160,424422,1,0,0:0:0:0:
223,195,424485,1,0,0:0:0:0:
223,195,424610,1,8,0:0:0:0:
223,195,424735,1,0,0:0:0:0:
224,160,424797,1,0,0:0:0:0:
223,195,424860,1,8,0:0:0:0:
224,160,424922,1,8,0:0:0:0:
223,195,424985,1,0,0:0:0:0:
223,195,425110,1,0,0:0:0:0:
223,195,425235,1,8,0:0:0:0:
223,195,425360,1,0,0:0:0:0:
192,224,425422,1,0,0:0:0:0:
223,195,425485,1,0,0:0:0:0:
223,195,425610,1,8,0:0:0:0:
223,195,425735,1,0,0:0:0:0:
223,195,425860,1,0,0:0:0:0:
223,195,425985,1,0,0:0:0:0:
223,195,426110,1,0,0:0:0:0:
192,224,426172,1,0,0:0:0:0:
223,195,426235,1,8,0:0:0:0:
223,195,426360,1,0,0:0:0:0:
223,195,426485,1,0,0:0:0:0:
223,195,426610,1,8,0:0:0:0:
192,192,426672,1,0,0:0:0:0:
223,195,426735,1,0,0:0:0:0:
192,192,426797,1,0,0:0:0:0:
223,195,426860,5,8,0:0:0:0:
192,192,426922,1,0,0:0:0:0:
223,195,426985,1,8,0:0:0:0:
223,195,427110,1,0,0:0:0:0:
223,195,427235,1,8,0:0:0:0:
223,195,427360,1,0,0:0:0:0:
192,160,427422,1,0,0:0:0:0:
223,195,427485,1,0,0:0:0:0:
223,195,427610,1,8,0:0:0:0:
223,195,427735,1,0,0:0:0:0:
223,195,427860,1,0,0:0:0:0:
192,128,427922,1,0,0:0:0:0:
223,195,427985,1,8,0:0:0:0:
223,195,428235,1,8,0:0:0:0:
256,192,428485,1,8,0:0:0:0:
223,195,428610,1,0,0:0:0:0:
223,195,428735,1,8,0:0:0:0:
223,195,428860,1,0,0:0:0:0:
256,192,428985,1,12,0:0:0:0:
256,192,429110,1,0,0:0:0:0:
256,192,429172,1,0,0:0:0:0:
256,192,429235,1,8,0:0:0:0:
256,192,429360,1,8,0:0:0:0:
256,192,429485,1,0,0:0:0:0:
256,192,429610,1,8,0:0:0:0:
256,224,429735,1,0,0:0:0:0:
224,192,429860,1,8,0:0:0:0:
192,128,429922,1,8,0:0:0:0:
224,192,429985,1,0,0:0:0:0:
224,192,430110,1,0,0:0:0:0:
224,192,430172,1,0,0:0:0:0:
224,192,430235,1,8,0:0:0:0:
224,192,430360,1,0,0:0:0:0:
256,192,430485,1,8,0:0:0:0:
256,192,430610,1,8,0:0:0:0:
256,192,430735,1,0,0:0:0:0:
256,192,430860,1,8,0:0:0:0:
256,192,430922,1,8,0:0:0:0:
256,192,430985,1,0,0:0:0:0:
256,192,431110,1,8,0:0:0:0:
256,192,431235,1,0,0:0:0:0:
256,192,431360,1,8,0:0:0:0:
256,192,431485,1,8,0:0:0:0:
256,192,431610,1,0,0:0:0:0:
256,192,431735,1,8,0:0:0:0:
256,192,431860,1,0,0:0:0:0:
256,192,431922,1,0,0:0:0:0:
256,192,431985,1,8,0:0:0:0:
256,192,432110,1,0,0:0:0:0:
256,192,432172,1,8,0:0:0:0:
256,192,432235,1,0,0:0:0:0:
224,192,432297,1,0,0:0:0:0:
256,192,432360,1,8,0:0:0:0:
288,192,432485,1,8,0:0:0:0:
288,192,432547,1,0,0:0:0:0:
256,192,432610,1,0,0:0:0:0:
256,192,432672,1,8,0:0:0:0:
256,192,432735,1,0,0:0:0:0:
256,192,432797,1,0,0:0:0:0:
256,192,432860,1,8,0:0:0:0:
256,192,432922,1,0,0:0:0:0:
256,192,432985,1,8,0:0:0:0:
288,192,433110,1,0,0:0:0:0:
256,192,433235,1,8,0:0:0:0:
256,192,433360,1,0,0:0:0:0:
256,192,433485,1,8,0:0:0:0:
256,192,433547,1,8,0:0:0:0:
256,192,433610,1,0,0:0:0:0:
256,192,433735,1,0,0:0:0:0:
256,192,433860,1,8,0:0:0:0:
256,192,433985,1,0,0:0:0:0:
256,192,434110,1,8,0:0:0:0:
256,192,434172,1,8,0:0:0:0:
256,192,434235,1,0,0:0:0:0:
256,160,434360,1,0,0:0:0:0:
256,160,434485,1,8,0:0:0:0:
256,160,434610,1,0,0:0:0:0:
224,192,434672,1,0,0:0:0:0:
224,192,434735,1,8,0:0:0:0:
224,160,434860,1,8,0:0:0:0:
256,192,434985,1,0,0:0:0:0:
256,192,435110,1,8,0:0:0:0:
256,192,435235,1,0,0:0:0:0:
256,160,435360,1,8,0:0:0:0:
224,160,435485,1,8,0:0:0:0:
256,160,435610,1,0,0:0:0:0:
160,192,435672,1,8,0:0:0:0:
256,160,435735,1,0,0:0:0:0:
256,160,435797,1,0,0:0:0:0:
192,224,435860,1,8,0:0:0:0:
224,192,435985,1,4,0:0:0:0:
224,160,436235,1,12,0:0:0:0:
128,128,436485,1,4,0:0:0:0:
160,192,436610,1,4,0:0:0:0:
160,192,436735,1,12,0:0:0:0:
160,192,436860,1,12,0:0:0:0:
160,192,437110,1,0,0:0:0:0:
160,128,437235,1,12,0:0:0:0:
192,192,437360,1,0,0:0:0:0:
160,192,437422,1,0,0:0:0:0:
224,192,437485,1,8,0:0:0:0:
192,192,437610,1,8,0:0:0:0:
192,224,437735,1,0,0:0:0:0:
192,192,437860,1,8,0:0:0:0:
192,192,437922,1,8,0:0:0:0:
192,192,437985,1,0,0:0:0:0:
192,160,438110,1,0,0:0:0:0:
192,192,438172,1,0,0:0:0:0:
192,192,438235,1,8,0:0:0:0:
192,192,438360,1,0,0:0:0:0:
160,192,438485,1,8,0:0:0:0:
128,192,438547,1,8,0:0:0:0:
128,192,438610,1,0,0:0:0:0:
96,192,438672,1,0,0:0:0:0:
128,192,438735,1,8,0:0:0:0:
128,224,438860,1,0,0:0:0:0:
160,192,438985,1,8,0:0:0:0:
160,192,439110,1,0,0:0:0:0:
128,192,439172,1,0,0:0:0:0:
160,192,439235,1,8,0:0:0:0:
160,192,439360,1,8,0:0:0:0:
128,192,439485,1,0,0:0:0:0:
192,192,439610,1,8,0:0:0:0:
160,160,439735,1,0,0:0:0:0:
160,160,439860,1,8,0:0:0:0:
160,160,439922,1,8,0:0:0:0:
160,160,439985,1,0,0:0:0:0:
160,160,440110,1,0,0:0:0:0:
160,160,440172,1,0,0:0:0:0:
160,160,440235,1,8,0:0:0:0:
160,160,440360,1,0,0:0:0:0:
160,160,440422,1,0,0:0:0:0:
160,160,440485,1,8,0:0:0:0:
160,160,440547,1,0,0:0:0:0:
160,160,440610,1,8,0:0:0:0:
192,192,440672,1,8,0:0:0:0:
192,192,440735,1,0,0:0:0:0:
192,160,440860,1,8,0:0:0:0:
160,160,440985,1,0,0:0:0:0:
160,128,441110,1,0,0:0:0:0:
160,192,441172,1,0,0:0:0:0:
192,192,441235,1,8,0:0:0:0:
192,192,441360,1,0,0:0:0:0:
192,192,441485,1,8,0:0:0:0:
192,192,441610,1,8,0:0:0:0:
192,192,441672,1,8,0:0:0:0:
192,192,441735,1,0,0:0:0:0:
160,160,441860,1,0,0:0:0:0:
160,160,441985,1,8,0:0:0:0:
160,160,442110,1,0,0:0:0:0:
87,168,442172,1,0,0:0:0:0:
87,168,442235,1,8,0:0:0:0:
192,160,442360,1,8,0:0:0:0:
192,160,442422,1,8,0:0:0:0:
192,160,442485,1,0,0:0:0:0:
192,160,442547,1,0,0:0:0:0:
192,160,442610,1,8,0:0:0:0:
192,160,442735,1,8,0:0:0:0:
192,160,442860,1,0,0:0:0:0:
192,160,442922,1,0,0:0:0:0:
192,160,442985,1,8,0:0:0:0:
192,160,443110,1,0,0:0:0:0:
192,160,443235,1,8,0:0:0:0:
205,133,443360,1,8,0:0:0:0:
205,133,443485,1,0,0:0:0:0:
160,160,443610,1,8,0:0:0:0:
192,160,443735,1,0,0:0:0:0:
192,160,443797,1,0,0:0:0:0:
192,160,443860,1,8,0:0:0:0:
222,252,443922,1,8,0:0:0:0:
222,252,443985,1,0,0:0:0:0:
192,160,444235,1,8,0:0:0:0:
192,160,444485,1,0,0:0:0:0:
276,166,444610,1,0,0:0:0:0:
205,133,444735,1,8,0:0:0:0:
205,133,444860,1,8,0:0:0:0:
256,192,444985,5,12,0:0:0:0:
224,192,445110,1,0,0:0:0:0:
224,192,445172,1,0,0:0:0:0:
224,192,445235,1,8,0:0:0:0:
256,192,445360,1,12,0:0:0:0:
256,192,445485,1,0,0:0:0:0:
256,192,445547,1,0,0:0:0:0:
256,192,445610,1,8,0:0:0:0:
256,192,445735,1,0,0:0:0:0:
224,192,445797,1,8,0:0:0:0:
224,192,445860,1,0,0:0:0:0:
224,192,445922,1,8,0:0:0:0:
224,192,445985,1,0,0:0:0:0:
224,192,446110,1,8,0:0:0:0:
224,192,446235,1,0,0:0:0:0:
224,192,446360,1,8,0:0:0:0:
224,192,446485,1,0,0:0:0:0:
224,192,446547,1,8,0:0:0:0:
224,192,446610,1,0,0:0:0:0:
224,192,446672,1,8,0:0:0:0:
224,192,446735,1,0,0:0:0:0:
224,192,446860,1,8,0:0:0:0:
256,192,446985,5,8,0:0:0:0:
224,192,447110,1,0,0:0:0:0:
224,192,447172,1,0,0:0:0:0:
224,192,447235,1,8,0:0:0:0:
256,192,447360,1,8,0:0:0:0:
256,192,447485,1,0,0:0:0:0:
256,192,447547,1,0,0:0:0:0:
256,192,447610,1,8,0:0:0:0:
256,192,447735,1,0,0:0:0:0:
224,192,447797,1,8,0:0:0:0:
224,192,447860,1,0,0:0:0:0:
224,192,447922,1,8,0:0:0:0:
224,192,447985,1,0,0:0:0:0:
224,192,448110,1,8,0:0:0:0:
224,192,448235,1,0,0:0:0:0:
224,192,448360,1,8,0:0:0:0:
224,192,448485,1,0,0:0:0:0:
224,192,448547,1,8,0:0:0:0:
224,192,448610,1,0,0:0:0:0:
224,192,448672,1,8,0:0:0:0:
224,192,448735,1,0,0:0:0:0:
224,192,448860,1,8,0:0:0:0:
256,192,448985,5,12,0:0:0:0:
224,192,449110,1,0,0:0:0:0:
224,192,449172,1,0,0:0:0:0:
224,192,449235,1,8,0:0:0:0:
256,192,449360,1,12,0:0:0:0:
256,192,449485,1,0,0:0:0:0:
256,192,449547,1,0,0:0:0:0:
256,192,449610,1,8,0:0:0:0:
256,192,449735,1,0,0:0:0:0:
224,192,449797,1,8,0:0:0:0:
224,192,449860,1,0,0:0:0:0:
224,192,449922,1,8,0:0:0:0:
224,192,449985,1,0,0:0:0:0:
224,192,450110,1,8,0:0:0:0:
224,192,450235,1,0,0:0:0:0:
224,192,450360,1,8,0:0:0:0:
224,192,450485,1,0,0:0:0:0:
224,192,450547,1,8,0:0:0:0:
224,192,450610,1,0,0:0:0:0:
224,192,450672,1,8,0:0:0:0:
224,192,450735,1,0,0:0:0:0:
224,192,450860,1,8,0:0:0:0:
256,192,450985,5,8,0:0:0:0:
224,192,451110,1,0,0:0:0:0:
224,192,451172,1,0,0:0:0:0:
224,192,451235,1,8,0:0:0:0:
256,192,451360,1,8,0:0:0:0:
256,192,451485,1,0,0:0:0:0:
256,192,451547,1,0,0:0:0:0:
256,192,451610,1,8,0:0:0:0:
256,192,451735,1,0,0:0:0:0:
224,192,451797,1,8,0:0:0:0:
224,192,451860,1,0,0:0:0:0:
224,192,451922,1,8,0:0:0:0:
224,192,451985,1,0,0:0:0:0:
224,192,452110,1,8,0:0:0:0:
224,192,452235,1,0,0:0:0:0:
224,192,452360,1,8,0:0:0:0:
224,192,452485,1,0,0:0:0:0:
224,192,452547,1,0,0:0:0:0:
224,192,452610,1,8,0:0:0:0:
224,192,452672,1,0,0:0:0:0:
224,192,452735,1,8,0:0:0:0:
160,192,452797,1,8,0:0:0:0:
224,192,452860,1,0,0:0:0:0:
256,192,452985,5,4,0:0:0:0:
224,192,453110,1,8,0:0:0:0:
224,192,453172,1,8,0:0:0:0:
224,192,453235,1,0,0:0:0:0:
256,192,453360,1,4,0:0:0:0:
256,192,453485,1,8,0:0:0:0:
256,192,453547,1,8,0:0:0:0:
256,192,453610,1,0,0:0:0:0:
256,192,453735,1,8,0:0:0:0:
224,192,453797,1,0,0:0:0:0:
224,192,453860,1,8,0:0:0:0:
224,192,453922,1,0,0:0:0:0:
224,192,453985,1,8,0:0:0:0:
224,192,454110,1,0,0:0:0:0:
224,192,454235,1,8,0:0:0:0:
224,192,454360,1,0,0:0:0:0:
224,192,454485,1,8,0:0:0:0:
224,192,454547,1,0,0:0:0:0:
224,192,454610,1,8,0:0:0:0:
224,192,454672,1,0,0:0:0:0:
224,192,454735,1,8,0:0:0:0:
224,192,454860,1,8,0:0:0:0:
256,192,454985,5,0,0:0:0:0:
224,192,455110,1,8,0:0:0:0:
224,192,455172,1,8,0:0:0:0:
224,192,455235,1,0,0:0:0:0:
256,192,455360,1,0,0:0:0:0:
256,192,455485,1,8,0:0:0:0:
256,192,455547,1,8,0:0:0:0:
256,192,455610,1,0,0:0:0:0:
256,192,455735,1,8,0:0:0:0:
224,192,455797,1,0,0:0:0:0:
224,192,455860,1,8,0:0:0:0:
224,192,455922,1,0,0:0:0:0:
224,192,455985,1,8,0:0:0:0:
224,192,456110,1,0,0:0:0:0:
224,192,456235,1,8,0:0:0:0:
224,192,456360,1,0,0:0:0:0:
224,192,456485,1,8,0:0:0:0:
224,192,456547,1,0,0:0:0:0:
224,192,456610,1,8,0:0:0:0:
224,192,456672,1,0,0:0:0:0:
224,192,456735,1,8,0:0:0:0:
224,192,456860,1,8,0:0:0:0:
256,192,456985,5,4,0:0:0:0:
224,192,457110,1,8,0:0:0:0:
224,192,457172,1,8,0:0:0:0:
224,192,457235,1,0,0:0:0:0:
256,192,457360,1,4,0:0:0:0:
256,192,457485,1,8,0:0:0:0:
256,192,457547,1,8,0:0:0:0:
256,192,457610,1,0,0:0:0:0:
256,192,457735,1,8,0:0:0:0:
224,192,457797,1,0,0:0:0:0:
224,192,457860,1,8,0:0:0:0:
224,192,457922,1,0,0:0:0:0:
224,192,457985,1,8,0:0:0:0:
224,192,458110,1,0,0:0:0:0:
224,192,458235,1,8,0:0:0:0:
224,192,458360,1,0,0:0:0:0:
224,192,458485,1,8,0:0:0:0:
224,192,458547,1,0,0:0:0:0:
224,192,458610,1,8,0:0:0:0:
224,192,458672,1,0,0:0:0:0:
224,192,458735,1,8,0:0:0:0:
224,192,458860,1,8,0:0:0:0:
256,192,458985,5,0,0:0:0:0:
224,192,459110,1,8,0:0:0:0:
224,192,459172,1,8,0:0:0:0:
224,192,459235,1,0,0:0:0:0:
256,192,459360,1,0,0:0:0:0:
256,192,459485,1,8,0:0:0:0:
256,192,459547,1,8,0:0:0:0:
256,192,459610,1,0,0:0:0:0:
256,192,459735,1,8,0:0:0:0:
224,192,459797,1,0,0:0:0:0:
224,192,459860,1,8,0:0:0:0:
224,192,459922,1,8,0:0:0:0:
224,192,459985,1,0,0:0:0:0:
224,192,460110,1,8,0:0:0:0:
224,192,460235,1,0,0:0:0:0:
224,192,460360,1,8,0:0:0:0:
224,192,460485,1,0,0:0:0:0:
224,192,460610,1,8,0:0:0:0:
224,192,460672,1,8,0:0:0:0:
96,192,460735,1,0,0:0:0:0:
224,192,460860,1,8,0:0:0:0:
96,192,460985,1,4,0:0:0:0:
160,224,461110,1,0,0:0:0:0:
160,256,461485,1,8,0:0:0:0:
192,224,461860,1,0,0:0:0:0:
192,192,462485,1,8,0:0:0:0:
224,192,463110,1,0,0:0:0:0:
128,160,463485,1,8,0:0:0:0:
128,160,463860,1,0,0:0:0:0:
128,160,464485,1,8,0:0:0:0:
160,192,465110,1,8,0:0:0:0:
192,192,465235,1,0,0:0:0:0:
192,192,465485,1,0,0:0:0:0:
192,192,465860,1,8,0:0:0:0:
211,155,466485,1,8,0:0:0:0:
223,195,467110,1,0,0:0:0:0:
223,195,467235,1,8,0:0:0:0:
97,116,467485,1,0,0:0:0:0:
97,116,467547,1,0,0:0:0:0:
170,127,467610,1,0,0:0:0:0:
97,116,467735,1,8,0:0:0:0:
223,195,467860,1,0,0:0:0:0:
223,195,467922,1,0,0:0:0:0:
223,195,467985,1,8,0:0:0:0:
223,195,468110,1,0,0:0:0:0:
223,195,468235,1,8,0:0:0:0:
223,195,468360,1,0,0:0:0:0:
223,195,468485,1,12,0:0:0:0:
223,195,468610,1,0,0:0:0:0:
223,195,468735,1,12,0:0:0:0:
223,195,468860,1,0,0:0:0:0:
223,195,468985,1,12,0:0:0:0:
223,195,469110,1,0,0:0:0:0:
223,195,469172,1,0,0:0:0:0:
223,195,469235,1,8,0:0:0:0:
223,195,469360,1,0,0:0:0:0:
223,195,469485,1,0,0:0:0:0:
223,195,469610,1,8,0:0:0:0:
223,195,469735,1,0,0:0:0:0:
223,195,469860,1,0,0:0:0:0:
223,195,469985,1,8,0:0:0:0:
223,195,470110,1,0,0:0:0:0:
223,195,470235,1,8,0:0:0:0:
223,195,470360,1,0,0:0:0:0:
223,195,470422,1,0,0:0:0:0:
223,195,470485,1,0,0:0:0:0:
223,195,470610,1,8,0:0:0:0:
223,195,470735,1,0,0:0:0:0:
223,195,470860,1,8,0:0:0:0:
223,195,470985,1,0,0:0:0:0:
223,195,471110,1,0,0:0:0:0:
223,195,471235,1,8,0:0:0:0:
223,195,471360,1,0,0:0:0:0:
160,192,471422,1,0,0:0:0:0:
223,195,471485,1,0,0:0:0:0:
223,195,471610,1,8,0:0:0:0:
223,195,471735,1,0,0:0:0:0:
223,195,471860,1,0,0:0:0:0:
223,195,471985,1,8,0:0:0:0:
223,195,472110,1,0,0:0:0:0:
223,195,472235,1,8,0:0:0:0:
223,195,472360,1,0,0:0:0:0:
160,192,472422,1,0,0:0:0:0:
223,195,472485,1,0,0:0:0:0:
223,195,472610,1,8,0:0:0:0:
223,195,472735,1,0,0:0:0:0:
223,195,472860,1,0,0:0:0:0:
192,192,472922,1,0,0:0:0:0:
223,195,472985,1,8,0:0:0:0:
223,195,473110,1,0,0:0:0:0:
192,192,473172,1,0,0:0:0:0:
223,195,473235,1,8,0:0:0:0:
223,195,473360,1,0,0:0:0:0:
223,195,473485,1,8,0:0:0:0:
223,195,473610,1,8,0:0:0:0:
223,195,473735,1,0,0:0:0:0:
223,195,473860,1,0,0:0:0:0:
192,192,473922,1,0,0:0:0:0:
223,195,473985,1,8,0:0:0:0:
223,195,474110,1,0,0:0:0:0:
223,195,474235,1,8,0:0:0:0:
223,195,474360,1,0,0:0:0:0:
223,195,474485,1,0,0:0:0:0:
223,195,474610,1,8,0:0:0:0:
223,195,474735,1,0,0:0:0:0:
223,195,474860,1,0,0:0:0:0:
192,192,474922,1,0,0:0:0:0:
223,195,474985,1,8,0:0:0:0:
223,195,475110,1,0,0:0:0:0:
223,195,475235,5,8,0:0:0:0:
223,195,475360,1,0,0:0:0:0:
223,195,475485,1,8,0:0:0:0:
223,195,475610,1,0,0:0:0:0:
192,192,475672,1,8,0:0:0:0:
223,195,475735,1,0,0:0:0:0:
223,195,475860,1,0,0:0:0:0:
192,192,475922,1,0,0:0:0:0:
223,195,475985,5,8,0:0:0:0:
223,195,476110,1,0,0:0:0:0:
223,195,476235,1,8,0:0:0:0:
223,195,476485,1,0,0:0:0:0:
160,192,476610,1,0,0:0:0:0:
223,195,476735,1,0,0:0:0:0:
187,162,476860,1,8,0:0:0:0:
187,162,476985,1,4,0:0:0:0:
256,192,477367,1,4,0:0:0:0:
256,192,478242,5,8,0:0:0:0:
256,192,478742,1,8,0:0:0:0:
256,192,478992,5,0,0:0:0:0:
256,192,479117,1,0,0:0:0:0:
256,192,479242,5,8,0:0:0:0:
256,192,479367,5,0,0:0:0:0:
256,192,479492,1,0,0:0:0:0:
256,192,479617,5,8,0:0:0:0:
256,192,479742,5,0,0:0:0:0:
256,192,479992,5,8,0:0:0:0:
256,192,480117,1,8,0:0:0:0:
256,192,480179,1,8,0:0:0:0:
256,192,480242,1,8,0:0:0:0:
256,192,480367,1,8,0:0:0:0:
256,192,480492,1,8,0:0:0:0:
256,192,480554,1,8,0:0:0:0:
256,192,480617,1,8,0:0:0:0:
256,192,480742,1,8,0:0:0:0:
256,192,480867,1,8,0:0:0:0:
256,192,480992,5,4,0:0:0:0:
256,192,481367,1,4,0:0:0:0:
256,192,482242,5,8,0:0:0:0:
256,192,482742,1,8,0:0:0:0:
256,192,482992,1,8,0:0:0:0:
256,192,483117,1,8,0:0:0:0:
256,192,483242,1,8,0:0:0:0:
256,192,483367,5,0,0:0:0:0:
256,192,483492,1,0,0:0:0:0:
256,192,483617,1,0,0:0:0:0:
256,192,483742,1,0,0:0:0:0:
256,192,483867,5,8,0:0:0:0:
256,192,483929,1,8,0:0:0:0:
256,192,483992,1,8,0:0:0:0:
256,192,484054,1,8,0:0:0:0:
256,192,484117,5,0,0:0:0:0:
256,192,484242,5,8,0:0:0:0:
256,192,484367,1,8,0:0:0:0:
256,192,484492,5,0,0:0:0:0:
256,192,484617,5,8,0:0:0:0:
256,192,484679,5,0,0:0:0:0:
256,192,484742,5,8,0:0:0:0:
256,192,484804,5,0,0:0:0:0:
256,192,484867,5,8,0:0:0:0:
256,192,484992,5,4,0:0:0:0:
256,192,485367,1,4,0:0:0:0:
256,192,486242,5,8,0:0:0:0:
256,192,486742,1,8,0:0:0:0:
256,192,486992,5,4,0:0:0:0:
256,192,487117,5,8,0:0:0:0:
256,192,487242,1,8,0:0:0:0:
256,192,487367,5,4,0:0:0:0:
256,192,487492,5,8,0:0:0:0:
256,192,487617,1,8,0:0:0:0:
256,192,487742,5,0,0:0:0:0:
256,192,487992,5,8,0:0:0:0:
256,192,488117,1,8,0:0:0:0:
256,192,488179,1,8,0:0:0:0:
256,192,488242,1,8,0:0:0:0:
256,192,488367,1,8,0:0:0:0:
256,192,488429,1,8,0:0:0:0:
256,192,488492,1,8,0:0:0:0:
256,192,488554,1,8,0:0:0:0:
256,192,488617,1,8,0:0:0:0:
256,192,488742,1,8,0:0:0:0:
256,192,488867,1,8,0:0:0:0:
256,192,488992,5,4,0:0:0:0:
256,192,489367,1,4,0:0:0:0:
256,192,489992,1,4,0:0:0:0:
256,192,490242,5,8,0:0:0:0:
256,192,490367,5,4,0:0:0:0:
256,192,490742,5,8,0:0:0:0:
256,192,490992,5,4,0:0:0:0:
256,192,491117,5,8,0:0:0:0:
256,192,491179,1,8,0:0:0:0:
256,192,491242,1,8,0:0:0:0:
256,192,491367,5,4,0:0:0:0:
256,192,491492,5,8,0:0:0:0:
256,192,491617,1,8,0:0:0:0:
256,192,491742,5,4,0:0:0:0:
256,192,491867,5,8,0:0:0:0:
256,192,491992,1,8,0:0:0:0:
256,192,492054,1,8,0:0:0:0:
256,192,492117,5,0,0:0:0:0:
256,192,492179,1,0,0:0:0:0:
256,192,492242,1,0,0:0:0:0:
256,192,492367,1,0,0:0:0:0:
256,192,492492,1,0,0:0:0:0:
256,192,492617,1,0,0:0:0:0:
256,192,492679,1,0,0:0:0:0:
256,192,492742,5,8,0:0:0:0:
256,192,492867,1,8,0:0:0:0:
256,192,492992,5,4,0:0:0:0:
256,192,493242,5,8,0:0:0:0:
256,192,493367,5,0,0:0:0:0:
256,192,493492,5,8,0:0:0:0:
256,192,493617,5,0,0:0:0:0:
256,192,493742,5,8,0:0:0:0:
256,192,493804,5,0,0:0:0:0:
256,192,493867,5,8,0:0:0:0:
256,192,493992,5,4,0:0:0:0:
256,192,494117,5,8,0:0:0:0:
256,192,494242,1,8,0:0:0:0:
256,192,494367,5,0,0:0:0:0:
256,192,494492,5,8,0:0:0:0:
256,192,494554,5,0,0:0:0:0:
256,192,494617,5,8,0:0:0:0:
256,192,494679,5,0,0:0:0:0:
256,192,494742,5,8,0:0:0:0:
256,192,494867,1,8,0:0:0:0:
256,192,494992,5,4,0:0:0:0:
256,192,495117,5,8,0:0:0:0:
256,192,495179,1,8,0:0:0:0:
256,192,495242,1,8,0:0:0:0:
256,192,495367,5,0,0:0:0:0:
256,192,495429,1,0,0:0:0:0:
256,192,495492,5,8,0:0:0:0:
256,192,495554,1,8,0:0:0:0:
256,192,495617,1,8,0:0:0:0:
256,192,495742,5,0,0:0:0:0:
256,192,495867,5,8,0:0:0:0:
256,192,495992,5,4,0:0:0:0:
256,192,496117,5,8,0:0:0:0:
256,192,496179,5,0,0:0:0:0:
256,192,496242,5,8,0:0:0:0:
256,192,496304,5,0,0:0:0:0:
256,192,496367,5,8,0:0:0:0:
256,192,496492,1,8,0:0:0:0:
256,192,496617,1,8,0:0:0:0:
256,192,496742,1,8,0:0:0:0:
256,192,496867,1,8,0:0:0:0:
256,192,496992,5,4,0:0:0:0:
256,192,497242,5,8,0:0:0:0:
256,192,497367,5,0,0:0:0:0:
256,192,497492,5,8,0:0:0:0:
256,192,497554,5,0,0:0:0:0:
256,192,497617,5,8,0:0:0:0:
256,192,497679,5,0,0:0:0:0:
256,192,497742,5,8,0:0:0:0:
256,192,497804,5,0,0:0:0:0:
256,192,497867,5,8,0:0:0:0:
256,192,497992,5,4,0:0:0:0:
256,192,498117,5,8,0:0:0:0:
256,192,498179,1,8,0:0:0:0:
256,192,498242,5,0,0:0:0:0:
256,192,498367,1,0,0:0:0:0:
256,192,498492,5,8,0:0:0:0:
256,192,498554,5,0,0:0:0:0:
256,192,498617,5,8,0:0:0:0:
256,192,498742,1,8,0:0:0:0:
256,192,498867,5,0,0:0:0:0:
256,192,498992,1,4,0:0:0:0:
256,192,499117,5,8,0:0:0:0:
256,192,499179,1,8,0:0:0:0:
256,192,499242,1,8,0:0:0:0:
256,192,499304,1,8,0:0:0:0:
256,192,499367,5,0,0:0:0:0:
256,192,499492,5,8,0:0:0:0:
256,192,499617,5,0,0:0:0:0:
256,192,499742,5,8,0:0:0:0:
256,192,499804,5,0,0:0:0:0:
256,192,499867,5,8,0:0:0:0:
256,192,499992,5,4,0:0:0:0:
256,192,500117,5,8,0:0:0:0:
256,192,500179,5,0,0:0:0:0:
256,192,500242,5,8,0:0:0:0:
256,192,500367,5,0,0:0:0:0:
256,192,500492,5,8,0:0:0:0:
256,192,500617,1,8,0:0:0:0:
256,192,500742,1,8,0:0:0:0:
256,192,500867,1,8,0:0:0:0:
256,192,500992,5,4,0:0:0:0:
256,192,501242,5,8,0:0:0:0:
256,192,501304,1,8,0:0:0:0:
256,192,501367,5,0,0:0:0:0:
256,192,501492,5,8,0:0:0:0:
256,192,501617,5,0,0:0:0:0:
256,192,501742,1,0,0:0:0:0:
256,192,501867,5,8,0:0:0:0:
256,192,501992,5,4,0:0:0:0:
256,192,502117,5,8,0:0:0:0:
256,192,502179,1,8,0:0:0:0:
256,192,502242,1,8,0:0:0:0:
256,192,502367,5,0,0:0:0:0:
256,192,502492,5,8,0:0:0:0:
256,192,502554,1,8,0:0:0:0:
256,192,502617,5,0,0:0:0:0:
256,192,502679,1,0,0:0:0:0:
256,192,502742,5,8,0:0:0:0:
256,192,502867,1,8,0:0:0:0:
256,192,502992,5,4,0:0:0:0:
256,192,503117,5,8,0:0:0:0:
256,192,503242,5,0,0:0:0:0:
256,192,503304,5,8,0:0:0:0:
256,192,503367,5,0,0:0:0:0:
256,192,503492,5,8,0:0:0:0:
256,192,503617,5,0,0:0:0:0:
256,192,503742,5,8,0:0:0:0:
256,192,503867,1,8,0:0:0:0:
256,192,503992,5,4,0:0:0:0:
256,192,504117,5,8,0:0:0:0:
256,192,504179,1,8,0:0:0:0:
256,192,504242,1,8,0:0:0:0:
256,192,504367,5,0,0:0:0:0:
256,192,504492,5,8,0:0:0:0:
256,192,504554,1,8,0:0:0:0:
256,192,504617,5,0,0:0:0:0:
256,192,504679,1,0,0:0:0:0:
256,192,504742,5,8,0:0:0:0:
256,192,504867,1,8,0:0:0:0:
256,192,504992,5,4,0:0:0:0:
256,192,505242,5,8,0:0:0:0:
256,192,505367,5,0,0:0:0:0:
256,192,505429,1,0,0:0:0:0:
256,192,505492,5,8,0:0:0:0:
256,192,505617,1,8,0:0:0:0:
256,192,505742,5,0,0:0:0:0:
256,192,505867,1,0,0:0:0:0:
256,192,505992,1,4,0:0:0:0:
256,192,506117,5,8,0:0:0:0:
256,192,506179,5,0,0:0:0:0:
256,192,506242,5,8,0:0:0:0:
256,192,506304,1,8,0:0:0:0:
256,192,506367,5,0,0:0:0:0:
256,192,506429,5,8,0:0:0:0:
256,192,506492,5,0,0:0:0:0:
256,192,506617,1,0,0:0:0:0:
256,192,506742,5,8,0:0:0:0:
256,192,506867,1,8,0:0:0:0:
256,192,506992,5,4,0:0:0:0:
256,192,507117,5,8,0:0:0:0:
256,192,507179,5,0,0:0:0:0:
256,192,507242,5,8,0:0:0:0:
256,192,507367,5,0,0:0:0:0:
256,192,507492,5,8,0:0:0:0:
256,192,507617,5,0,0:0:0:0:
256,192,507742,5,8,0:0:0:0:
256,192,507804,5,0,0:0:0:0:
256,192,507867,5,8,0:0:0:0:
256,192,507992,5,4,0:0:0:0:
256,192,508117,5,8,0:0:0:0:
256,192,508242,1,8,0:0:0:0:
256,192,508367,5,0,0:0:0:0:
256,192,508492,5,8,0:0:0:0:
256,192,508554,1,8,0:0:0:0:
256,192,508617,1,8,0:0:0:0:
256,192,508742,1,8,0:0:0:0:
256,192,508804,1,8,0:0:0:0:
256,192,508867,1,8,0:0:0:0:
256,192,508992,5,4,0:0:0:0:
256,192,509242,5,8,0:0:0:0:
256,192,509367,5,0,0:0:0:0:
256,192,509492,5,8,0:0:0:0:
256,192,509554,1,8,0:0:0:0:
256,192,509617,1,8,0:0:0:0:
256,192,509679,1,8,0:0:0:0:
256,192,509742,1,8,0:0:0:0:
256,192,509804,1,8,0:0:0:0:
256,192,509867,1,8,0:0:0:0:
256,192,509992,5,0,0:0:0:0:
256,192,510242,5,8,0:0:0:0:
256,192,510367,5,0,0:0:0:0:
256,192,510492,5,8,0:0:0:0:
256,192,510554,1,8,0:0:0:0:
256,192,510617,1,8,0:0:0:0:
256,192,510679,1,8,0:0:0:0:
256,192,510742,5,0,0:0:0:0:
256,192,510867,5,8,0:0:0:0:
256,192,510992,5,0,0:0:0:0:
256,192,511242,5,8,0:0:0:0:
256,192,511367,5,0,0:0:0:0:
256,192,511617,1,0,0:0:0:0:
256,192,511742,5,8,0:0:0:0:
256,192,511867,1,8,0:0:0:0:
256,192,511992,5,0,0:0:0:0:
256,192,512054,5,8,0:0:0:0:
256,192,512117,5,0,0:0:0:0:
256,192,512242,5,8,0:0:0:0:
256,192,512367,1,8,0:0:0:0:
256,192,512492,1,8,0:0:0:0:
256,192,512554,5,0,0:0:0:0:
256,192,512617,5,8,0:0:0:0:
256,192,512742,1,8,0:0:0:0:
256,192,512804,5,0,0:0:0:0:
256,192,512867,5,8,0:0:0:0:
256,192,512992,5,0,0:0:0:0:
256,192,513242,5,8,0:0:0:0:
256,192,513304,5,0,0:0:0:0:
256,192,513367,5,8,0:0:0:0:
256,192,513429,5,0,0:0:0:0:
256,192,513492,5,8,0:0:0:0:
256,192,513554,5,0,0:0:0:0:
256,192,513617,5,8,0:0:0:0:
256,192,513679,5,0,0:0:0:0:
256,192,513742,5,8,0:0:0:0:
256,192,513804,5,0,0:0:0:0:
256,192,513867,5,8,0:0:0:0:
256,192,513992,5,0,0:0:0:0:
256,192,514242,5,8,0:0:0:0:
256,192,514304,1,8,0:0:0:0:
256,192,514367,5,0,0:0:0:0:
256,192,514429,1,0,0:0:0:0:
256,192,514492,5,8,0:0:0:0:
256,192,514617,1,8,0:0:0:0:
256,192,514742,5,0,0:0:0:0:
256,192,514867,5,8,0:0:0:0:
256,192,514992,5,0,0:0:0:0:
256,192,515242,5,8,0:0:0:0:
256,192,515367,5,0,0:0:0:0:
256,192,515617,1,0,0:0:0:0:
256,192,515742,5,8,0:0:0:0:
256,192,515804,1,8,0:0:0:0:
256,192,515867,1,8,0:0:0:0:
256,192,515929,1,8,0:0:0:0:
256,192,515992,5,0,0:0:0:0:
256,192,516117,1,0,0:0:0:0:
256,192,516367,1,0,0:0:0:0:
256,192,516492,5,8,0:0:0:0:
256,192,516617,1,8,0:0:0:0:
256,192,516742,5,0,0:0:0:0:
256,192,516867,1,0,0:0:0:0:
256,192,516992,1,0,0:0:0:0:
256,192,517242,5,8,0:0:0:0:
256,192,517367,5,0,0:0:0:0:
256,192,517617,1,0,0:0:0:0:
256,192,517679,1,0,0:0:0:0:
256,192,517742,5,8,0:0:0:0:
256,192,517804,1,8,0:0:0:0:
256,192,517867,1,8,0:0:0:0:
256,192,517929,1,8,0:0:0:0:
256,192,517992,5,0,0:0:0:0:
256,192,518242,5,8,0:0:0:0:
256,192,518367,5,0,0:0:0:0:
256,192,518617,1,0,0:0:0:0:
256,192,518679,1,0,0:0:0:0:
256,192,518742,5,8,0:0:0:0:
256,192,518867,1,8,0:0:0:0:
256,192,518992,5,0,0:0:0:0:
256,192,519242,5,8,0:0:0:0:
256,192,519367,5,0,0:0:0:0:
256,192,519617,1,0,0:0:0:0:
256,192,519742,5,8,0:0:0:0:
256,192,519867,1,8,0:0:0:0:
256,192,519992,5,0,0:0:0:0:
256,192,520117,1,0,0:0:0:0:
256,192,520367,1,0,0:0:0:0:
256,192,520492,5,8,0:0:0:0:
256,192,520554,5,0,0:0:0:0:
256,192,520617,5,8,0:0:0:0:
256,192,520679,1,8,0:0:0:0:
256,192,520742,5,0,0:0:0:0:
256,192,520867,5,8,0:0:0:0:
256,192,520992,5,0,0:0:0:0:
256,192,521242,5,8,0:0:0:0:
256,192,521367,5,0,0:0:0:0:
256,192,521492,5,8,0:0:0:0:
256,192,521554,1,8,0:0:0:0:
256,192,521617,1,8,0:0:0:0:
256,192,521679,1,8,0:0:0:0:
256,192,521742,5,0,0:0:0:0:
256,192,521867,1,0,0:0:0:0:
256,192,521992,1,0,0:0:0:0:
256,192,522242,5,8,0:0:0:0:
256,192,522304,1,8,0:0:0:0:
256,192,522367,5,0,0:0:0:0:
256,192,522617,1,0,0:0:0:0:
256,192,522742,5,8,0:0:0:0:
256,192,522867,1,8,0:0:0:0:
256,192,522992,5,0,0:0:0:0:
256,192,523117,5,8,0:0:0:0:
256,192,523242,5,0,0:0:0:0:
256,192,523367,1,0,0:0:0:0:
256,192,523492,5,8,0:0:0:0:
256,192,523617,5,0,0:0:0:0:
256,192,523742,1,0,0:0:0:0:
256,192,523992,1,0,0:0:0:0:
256,192,524054,1,0,0:0:0:0:
256,192,524117,5,8,0:0:0:0:
256,192,524179,1,8,0:0:0:0:
256,192,524242,5,0,0:0:0:0:
256,192,524304,5,8,0:0:0:0:
256,192,524367,5,0,0:0:0:0:
256,192,524429,5,8,0:0:0:0:
256,192,524492,5,0,0:0:0:0:
256,192,524554,1,0,0:0:0:0:
256,192,524617,1,0,0:0:0:0:
256,192,524742,1,0,0:0:0:0:
256,192,524867,1,0,0:0:0:0:
256,192,524992,1,4,0:0:0:0:
256,192,525367,1,4,0:0:0:0:
256,192,526992,1,0,0:0:0:0:
256,192,527117,5,8,0:0:0:0:
256,192,527242,1,8,0:0:0:0:
256,192,527367,5,0,0:0:0:0:
256,192,527492,5,8,0:0:0:0:
256,192,527617,1,8,0:0:0:0:
256,192,527742,5,0,0:0:0:0:
256,192,527867,5,8,0:0:0:0:
256,192,527992,1,8,0:0:0:0:
256,192,528117,1,8,0:0:0:0:
256,192,528179,1,8,0:0:0:0:
256,192,528242,1,8,0:0:0:0:
256,192,528367,1,8,0:0:0:0:
256,192,528492,1,8,0:0:0:0:
256,192,528554,1,8,0:0:0:0:
256,192,528617,1,8,0:0:0:0:
256,192,528742,1,8,0:0:0:0:
256,192,528867,1,8,0:0:0:0:
256,192,528992,5,4,0:0:0:0:
256,192,529367,1,4,0:0:0:0:
256,192,530992,5,8,0:0:0:0:
256,192,531117,1,8,0:0:0:0:
256,192,531242,1,8,0:0:0:0:
256,192,531304,1,8,0:0:0:0:
256,192,531367,5,0,0:0:0:0:
256,192,531492,1,0,0:0:0:0:
256,192,531617,1,0,0:0:0:0:
256,192,531742,1,0,0:0:0:0:
256,192,531804,1,0,0:0:0:0:
256,192,531867,5,8,0:0:0:0:
256,192,531992,1,8,0:0:0:0:
256,192,532117,5,0,0:0:0:0:
256,192,532242,1,0,0:0:0:0:
256,192,532367,1,0,0:0:0:0:
256,192,532492,1,0,0:0:0:0:
256,192,532617,5,8,0:0:0:0:
256,192,532679,1,8,0:0:0:0:
256,192,532742,1,8,0:0:0:0:
256,192,532867,1,8,0:0:0:0:
256,192,532992,5,4,0:0:0:0:
256,192,533367,1,4,0:0:0:0:
256,192,534992,1,4,0:0:0:0:
256,192,535117,5,8,0:0:0:0:
256,192,535242,1,8,0:0:0:0:
256,192,535367,5,4,0:0:0:0:
256,192,535492,5,8,0:0:0:0:
256,192,535617,5,0,0:0:0:0:
256,192,535742,1,0,0:0:0:0:
256,192,535867,1,0,0:0:0:0:
256,192,535992,5,8,0:0:0:0:
256,192,536117,1,8,0:0:0:0:
256,192,536179,1,8,0:0:0:0:
256,192,536242,1,8,0:0:0:0:
256,192,536367,1,8,0:0:0:0:
256,192,536492,1,8,0:0:0:0:
256,192,536554,1,8,0:0:0:0:
256,192,536617,1,8,0:0:0:0:
256,192,536679,1,8,0:0:0:0:
256,192,536742,1,8,0:0:0:0:
256,192,536867,1,8,0:0:0:0:
256,192,536992,5,4,0:0:0:0:
256,192,537367,1,4,0:0:0:0:
256,192,537992,1,4,0:0:0:0:
256,192,538367,1,4,0:0:0:0:
256,192,538992,1,4,0:0:0:0:
256,192,539117,5,8,0:0:0:0:
256,192,539179,1,8,0:0:0:0:
256,192,539242,5,0,0:0:0:0:
256,192,539367,5,12,0:0:0:0:
256,192,539492,5,0,0:0:0:0:
256,192,539554,1,0,0:0:0:0:
256,192,539617,5,8,0:0:0:0:
256,192,539742,5,0,0:0:0:0:
256,192,540742,5,12,0:0:0:0:
256,192,540992,5,0,0:0:0:0:
256,192,541054,1,0,0:0:0:0:
256,192,541117,5,8,0:0:0:0:
256,192,541242,1,8,0:0:0:0:
256,192,541367,5,0,0:0:0:0:
256,192,541492,5,8,0:0:0:0:
256,192,541554,1,8,0:0:0:0:
256,192,541617,5,0,0:0:0:0:
256,192,541742,5,8,0:0:0:0:
256,192,541867,1,8,0:0:0:0:
256,192,541992,5,0,0:0:0:0:
256,192,542054,1,0,0:0:0:0:
256,192,542117,1,0,0:0:0:0:
256,192,542179,1,0,0:0:0:0:
256,192,542242,5,8,0:0:0:0:
256,192,542367,5,0,0:0:0:0:
256,192,542492,5,8,0:0:0:0:
256,192,542554,5,0,0:0:0:0:
256,192,542617,5,8,0:0:0:0:
256,192,542742,1,8,0:0:0:0:
256,192,542804,1,8,0:0:0:0:
256,192,542867,1,8,0:0:0:0:
256,192,542992,5,0,0:0:0:0:
256,192,543117,5,8,0:0:0:0:
256,192,543179,1,8,0:0:0:0:
256,192,543242,1,8,0:0:0:0:
256,192,543367,5,0,0:0:0:0:
256,192,543492,5,8,0:0:0:0:
256,192,543617,5,0,0:0:0:0:
256,192,543679,5,8,0:0:0:0:
256,192,543742,5,0,0:0:0:0:
256,192,543867,5,8,0:0:0:0:
256,192,543992,5,0,0:0:0:0:
256,192,544054,1,0,0:0:0:0:
256,192,544117,5,8,0:0:0:0:
256,192,544179,1,8,0:0:0:0:
256,192,544242,5,0,0:0:0:0:
256,192,544367,1,0,0:0:0:0:
256,192,544492,5,8,0:0:0:0:
256,192,544617,1,8,0:0:0:0:
256,192,544867,1,8,0:0:0:0:
256,192,544992,5,0,0:0:0:0:
256,192,545117,5,8,0:0:0:0:
256,192,545179,5,0,0:0:0:0:
256,192,545242,5,8,0:0:0:0:
256,192,545367,5,0,0:0:0:0:
256,192,545492,5,8,0:0:0:0:
256,192,545617,1,8,0:0:0:0:
256,192,545742,1,8,0:0:0:0:
256,192,545867,1,8,0:0:0:0:
256,192,545992,5,0,0:0:0:0:
256,192,546117,1,0,0:0:0:0:
256,192,546242,5,8,0:0:0:0:
256,192,546304,1,8,0:0:0:0:
256,192,546367,5,0,0:0:0:0:
256,192,546492,1,0,0:0:0:0:
256,192,546617,5,8,0:0:0:0:
256,192,546679,5,0,0:0:0:0:
256,192,546742,5,8,0:0:0:0:
256,192,546867,1,8,0:0:0:0:
256,192,546992,5,0,0:0:0:0:
256,192,547117,5,8,0:0:0:0:
256,192,547179,1,8,0:0:0:0:
256,192,547242,1,8,0:0:0:0:
256,192,547304,1,8,0:0:0:0:
256,192,547367,5,0,0:0:0:0:
256,192,547492,5,8,0:0:0:0:
256,192,547617,5,0,0:0:0:0:
256,192,547679,1,0,0:0:0:0:
256,192,547742,5,8,0:0:0:0:
256,192,547867,1,8,0:0:0:0:
256,192,547992,5,0,0:0:0:0:
256,192,548054,5,8,0:0:0:0:
256,192,548117,5,0,0:0:0:0:
256,192,548242,5,8,0:0:0:0:
256,192,548367,5,0,0:0:0:0:
256,192,548492,5,8,0:0:0:0:
256,192,548617,5,0,0:0:0:0:
256,192,548742,1,0,0:0:0:0:
256,192,548867,1,0,0:0:0:0:
256,192,548992,1,0,0:0:0:0:
256,192,549117,5,8,0:0:0:0:
256,192,549179,5,0,0:0:0:0:
256,192,549242,5,8,0:0:0:0:
256,192,549367,5,0,0:0:0:0:
256,192,549492,5,8,0:0:0:0:
256,192,549554,1,8,0:0:0:0:
256,192,549617,5,0,0:0:0:0:
256,192,549742,1,0,0:0:0:0:
256,192,549867,5,8,0:0:0:0:
256,192,549992,5,0,0:0:0:0:
256,192,550117,5,8,0:0:0:0:
256,192,550179,1,8,0:0:0:0:
256,192,550242,1,8,0:0:0:0:
256,192,550367,5,0,0:0:0:0:
256,192,550492,5,8,0:0:0:0:
256,192,550617,1,8,0:0:0:0:
256,192,550867,1,8,0:0:0:0:
256,192,550992,5,0,0:0:0:0:
256,192,551054,1,0,0:0:0:0:
256,192,551117,5,8,0:0:0:0:
256,192,551242,1,8,0:0:0:0:
256,192,551367,5,0,0:0:0:0:
256,192,551492,5,8,0:0:0:0:
256,192,551554,5,0,0:0:0:0:
256,192,551617,5,8,0:0:0:0:
256,192,551742,5,0,0:0:0:0:
256,192,551867,5,8,0:0:0:0:
256,192,551992,5,0,0:0:0:0:
256,192,552054,1,0,0:0:0:0:
256,192,552117,5,8,0:0:0:0:
256,192,552179,1,8,0:0:0:0:
256,192,552242,5,0,0:0:0:0:
256,192,552367,1,0,0:0:0:0:
256,192,552492,5,8,0:0:0:0:
256,192,552554,5,0,0:0:0:0:
256,192,552617,5,8,0:0:0:0:
256,192,552742,5,0,0:0:0:0:
256,192,552867,5,8,0:0:0:0:
256,192,552992,5,0,0:0:0:0:
256,192,553054,1,0,0:0:0:0:
256,192,553117,1,0,0:0:0:0:
256,192,553242,5,8,0:0:0:0:
256,192,553367,5,0,0:0:0:0:
256,192,553429,1,0,0:0:0:0:
256,192,553492,5,8,0:0:0:0:
256,192,553617,1,8,0:0:0:0:
256,192,553742,5,0,0:0:0:0:
256,192,553867,5,8,0:0:0:0:
256,192,553992,5,0,0:0:0:0:
256,192,554054,1,0,0:0:0:0:
256,192,554117,5,8,0:0:0:0:
256,192,554242,1,8,0:0:0:0:
256,192,554367,5,0,0:0:0:0:
256,192,554429,1,0,0:0:0:0:
256,192,554492,5,8,0:0:0:0:
256,192,554617,1,8,0:0:0:0:
256,192,554679,1,8,0:0:0:0:
256,192,554742,1,8,0:0:0:0:
256,192,554867,1,8,0:0:0:0:
256,192,554992,5,0,0:0:0:0:
256,192,555054,1,0,0:0:0:0:
256,192,555117,1,0,0:0:0:0:
256,192,555179,1,0,0:0:0:0:
256,192,555242,5,8,0:0:0:0:
256,192,555367,5,0,0:0:0:0:
256,192,555429,1,0,0:0:0:0:
256,192,555492,1,0,0:0:0:0:
256,192,555554,1,0,0:0:0:0:
256,192,555617,5,8,0:0:0:0:
256,192,555742,1,8,0:0:0:0:
256,192,555867,1,8,0:0:0:0:
256,192,555992,5,0,0:0:0:0:
256,192,556117,1,0,0:0:0:0:
256,192,556242,1,0,0:0:0:0:
256,192,556367,1,0,0:0:0:0:
256,192,556492,1,0,0:0:0:0:
256,192,556554,1,0,0:0:0:0:
256,192,556617,1,0,0:0:0:0:
256,192,556742,1,0,0:0:0:0:
256,192,556867,5,12,0:0:0:0:
256,192,556992,5,4,0:0:0:0:
256,192,558242,5,8,0:0:0:0:
256,192,558742,5,0,0:0:0:0:
256,192,559242,1,0,0:0:0:0:
256,192,559742,5,8,0:0:0:0:
256,192,560242,5,0,0:0:0:0:
256,192,560367,5,8,0:0:0:0:
256,192,560492,1,8,0:0:0:0:
256,192,560617,1,8,0:0:0:0:
256,192,560742,5,0,0:0:0:0:
256,192,560867,1,0,0:0:0:0:
256,192,561242,1,0,0:0:0:0:
256,192,561492,1,0,0:0:0:0:
256,192,562242,5,8,0:0:0:0:
256,192,562742,1,8,0:0:0:0:
256,192,563242,5,0,0:0:0:0:
256,192,563492,1,0,0:0:0:0:
256,192,563742,5,8,0:0:0:0:
256,192,564242,1,8,0:0:0:0:
256,192,564367,1,8,0:0:0:0:
256,192,564492,1,8,0:0:0:0:
256,192,564617,1,8,0:0:0:0:
256,192,564742,1,8,0:0:0:0:
256,192,564867,1,8,0:0:0:0:
256,192,564992,5,0,0:0:0:0:
256,192,565117,1,0,0:0:0:0:
256,192,565242,5,8,0:0:0:0:
256,192,565304,1,8,0:0:0:0:
256,192,565367,1,8,0:0:0:0:
256,192,565429,1,8,0:0:0:0:
256,192,565492,1,8,0:0:0:0:
256,192,565617,1,8,0:0:0:0:
256,192,565679,1,8,0:0:0:0:
256,192,565742,1,8,0:0:0:0:
256,192,565804,1,8,0:0:0:0:
256,192,565867,1,8,0:0:0:0:
256,192,565992,5,0,0:0:0:0:
256,192,566117,1,0,0:0:0:0:
256,192,566242,5,8,0:0:0:0:
256,192,566367,1,8,0:0:0:0:
256,192,566429,1,8,0:0:0:0:
256,192,566492,1,8,0:0:0:0:
256,192,566617,1,8,0:0:0:0:
256,192,566679,1,8,0:0:0:0:
256,192,566742,1,8,0:0:0:0:
256,192,566867,1,8,0:0:0:0:
256,192,566992,5,0,0:0:0:0:
256,192,567117,1,0,0:0:0:0:
256,192,567242,5,8,0:0:0:0:
256,192,567304,1,8,0:0:0:0:
256,192,567367,1,8,0:0:0:0:
256,192,567429,1,8,0:0:0:0:
256,192,567492,1,8,0:0:0:0:
256,192,567617,1,8,0:0:0:0:
256,192,567742,1,8,0:0:0:0:
256,192,567804,1,8,0:0:0:0:
256,192,567867,1,8,0:0:0:0:
256,192,567992,5,0,0:0:0:0:
256,192,568117,1,0,0:0:0:0:
256,192,568242,5,8,0:0:0:0:
256,192,568367,1,8,0:0:0:0:
256,192,568429,5,0,0:0:0:0:
256,192,568492,5,8,0:0:0:0:
256,192,568554,5,0,0:0:0:0:
256,192,568617,5,8,0:0:0:0:
256,192,568679,5,0,0:0:0:0:
256,192,568742,5,8,0:0:0:0:
256,192,568867,1,8,0:0:0:0:
256,192,568992,5,0,0:0:0:0:
256,192,569117,1,0,0:0:0:0:
256,192,569242,5,8,0:0:0:0:
256,192,569304,1,8,0:0:0:0:
256,192,569367,1,8,0:0:0:0:
256,192,569429,1,8,0:0:0:0:
256,192,569492,1,8,0:0:0:0:
256,192,569617,1,8,0:0:0:0:
256,192,569679,1,8,0:0:0:0:
256,192,569742,1,8,0:0:0:0:
256,192,569867,1,8,0:0:0:0:
256,192,569992,5,0,0:0:0:0:
256,192,570117,1,0,0:0:0:0:
256,192,570242,5,8,0:0:0:0:
256,192,570367,1,8,0:0:0:0:
256,192,570429,1,8,0:0:0:0:
256,192,570492,1,8,0:0:0:0:
256,192,570617,1,8,0:0:0:0:
256,192,570679,1,8,0:0:0:0:
256,192,570742,1,8,0:0:0:0:
256,192,570867,1,8,0:0:0:0:
256,192,570992,5,0,0:0:0:0:
256,192,571117,1,0,0:0:0:0:
256,192,571242,5,8,0:0:0:0:
256,192,571304,1,8,0:0:0:0:
256,192,571367,1,8,0:0:0:0:
256,192,571429,1,8,0:0:0:0:
256,192,571492,1,8,0:0:0:0:
256,192,571617,1,8,0:0:0:0:
256,192,571742,1,8,0:0:0:0:
256,192,571804,1,8,0:0:0:0:
256,192,571867,1,8,0:0:0:0:
256,192,571929,1,8,0:0:0:0:
256,192,571992,5,0,0:0:0:0:
256,192,572054,1,0,0:0:0:0:
256,192,572117,5,8,0:0:0:0:
256,192,572242,1,8,0:0:0:0:
256,192,572367,5,0,0:0:0:0:
256,192,572429,1,0,0:0:0:0:
256,192,572492,5,8,0:0:0:0:
256,192,572617,5,0,0:0:0:0:
256,192,572679,1,0,0:0:0:0:
256,192,572742,5,8,0:0:0:0:
256,192,572867,1,8,0:0:0:0:
256,192,572992,5,0,0:0:0:0:
256,192,573054,1,0,0:0:0:0:
256,192,573117,1,0,0:0:0:0:
256,192,573179,1,0,0:0:0:0:
256,192,573242,5,8,0:0:0:0:
256,192,573367,5,0,0:0:0:0:
256,192,573429,1,0,0:0:0:0:
256,192,573492,1,0,0:0:0:0:
256,192,573554,1,0,0:0:0:0:
256,192,573617,5,8,0:0:0:0:
256,192,573742,1,8,0:0:0:0:
256,192,573867,1,8,0:0:0:0:
256,192,573992,5,0,0:0:0:0:
256,192,574054,1,0,0:0:0:0:
256,192,574117,1,0,0:0:0:0:
256,192,574179,1,0,0:0:0:0:
256,192,574242,5,8,0:0:0:0:
256,192,574367,5,0,0:0:0:0:
256,192,574429,1,0,0:0:0:0:
256,192,574492,1,0,0:0:0:0:
256,192,574554,1,0,0:0:0:0:
256,192,574617,5,8,0:0:0:0:
256,192,574742,1,8,0:0:0:0:
256,192,574867,1,8,0:0:0:0:
256,192,574992,5,0,0:0:0:0:
256,192,575054,1,0,0:0:0:0:
256,192,575117,1,0,0:0:0:0:
256,192,575179,1,0,0:0:0:0:
256,192,575242,5,8,0:0:0:0:
256,192,575367,5,0,0:0:0:0:
256,192,575429,1,0,0:0:0:0:
256,192,575492,1,0,0:0:0:0:
256,192,575554,1,0,0:0:0:0:
256,192,575617,1,0,0:0:0:0:
256,192,575742,1,0,0:0:0:0:
256,192,575867,5,8,0:0:0:0:
256,192,575992,5,0,0:0:0:0:
256,192,576054,1,0,0:0:0:0:
256,192,576117,1,0,0:0:0:0:
256,192,576179,1,0,0:0:0:0:
256,192,576242,5,8,0:0:0:0:
256,192,576367,5,0,0:0:0:0:
256,192,576429,1,0,0:0:0:0:
256,192,576492,5,8,0:0:0:0:
256,192,576554,5,0,0:0:0:0:
256,192,576617,5,8,0:0:0:0:
256,192,576679,1,8,0:0:0:0:
256,192,576742,5,0,0:0:0:0:
256,192,576867,5,8,0:0:0:0:
256,192,576992,5,0,0:0:0:0:
256,192,577054,1,0,0:0:0:0:
256,192,577117,1,0,0:0:0:0:
256,192,577179,1,0,0:0:0:0:
256,192,577242,5,8,0:0:0:0:
256,192,577367,5,0,0:0:0:0:
256,192,577492,5,8,0:0:0:0:
256,192,577554,5,0,0:0:0:0:
256,192,577617,5,8,0:0:0:0:
256,192,577679,5,0,0:0:0:0:
256,192,577742,5,8,0:0:0:0:
256,192,577804,5,0,0:0:0:0:
256,192,577867,5,8,0:0:0:0:
256,192,577992,5,0,0:0:0:0:
256,192,578054,1,0,0:0:0:0:
256,192,578117,5,8,0:0:0:0:
256,192,578242,1,8,0:0:0:0:
256,192,578367,5,0,0:0:0:0:
256,192,578429,1,0,0:0:0:0:
256,192,578492,1,0,0:0:0:0:
256,192,578554,1,0,0:0:0:0:
256,192,578617,5,8,0:0:0:0:
256,192,578742,1,8,0:0:0:0:
256,192,578867,1,8,0:0:0:0:
256,192,578992,5,0,0:0:0:0:
256,192,579054,1,0,0:0:0:0:
256,192,579117,1,0,0:0:0:0:
256,192,579179,1,0,0:0:0:0:
256,192,579242,5,8,0:0:0:0:
256,192,579367,5,0,0:0:0:0:
256,192,579429,1,0,0:0:0:0:
256,192,579492,5,8,0:0:0:0:
256,192,579617,1,8,0:0:0:0:
256,192,579742,5,0,0:0:0:0:
256,192,579867,5,8,0:0:0:0:
256,192,579992,5,0,0:0:0:0:
256,192,580054,1,0,0:0:0:0:
256,192,580117,1,0,0:0:0:0:
256,192,580179,1,0,0:0:0:0:
256,192,580242,5,8,0:0:0:0:
256,192,580304,1,8,0:0:0:0:
256,192,580367,1,8,0:0:0:0:
256,192,580492,1,8,0:0:0:0:
256,192,580617,1,8,0:0:0:0:
256,192,580742,5,0,0:0:0:0:
256,192,580867,1,0,0:0:0:0:
256,192,580992,1,0,0:0:0:0:
256,192,581054,1,0,0:0:0:0:
256,192,581117,5,8,0:0:0:0:
256,192,581242,1,8,0:0:0:0:
256,192,581367,5,0,0:0:0:0:
256,192,581429,1,0,0:0:0:0:
256,192,581492,5,8,0:0:0:0:
256,192,581617,1,8,0:0:0:0:
256,192,581742,5,0,0:0:0:0:
256,192,581867,5,8,0:0:0:0:
256,192,581992,5,0,0:0:0:0:
256,192,582054,1,0,0:0:0:0:
256,192,582117,1,0,0:0:0:0:
256,192,582179,1,0,0:0:0:0:
256,192,582242,5,8,0:0:0:0:
256,192,582367,5,0,0:0:0:0:
256,192,582429,1,0,0:0:0:0:
256,192,582492,5,8,0:0:0:0:
256,192,582617,1,8,0:0:0:0:
256,192,582742,5,0,0:0:0:0:
256,192,582867,5,8,0:0:0:0:
256,192,582992,5,0,0:0:0:0:
256,192,583054,1,0,0:0:0:0:
256,192,583117,1,0,0:0:0:0:
256,192,583179,1,0,0:0:0:0:
256,192,583242,5,8,0:0:0:0:
256,192,583367,5,0,0:0:0:0:
256,192,583429,1,0,0:0:0:0:
256,192,583492,1,0,0:0:0:0:
256,192,583554,1,0,0:0:0:0:
256,192,583617,5,8,0:0:0:0:
256,192,583742,5,0,0:0:0:0:
256,192,583804,1,0,0:0:0:0:
256,192,583867,5,8,0:0:0:0:
256,192,583992,5,0,0:0:0:0:
256,192,584117,5,8,0:0:0:0:
256,192,584179,5,0,0:0:0:0:
256,192,584242,5,8,0:0:0:0:
256,192,584367,5,0,0:0:0:0:
256,192,584492,5,8,0:0:0:0:
256,192,584554,5,0,0:0:0:0:
256,192,584617,5,8,0:0:0:0:
256,192,584679,5,0,0:0:0:0:
256,192,584742,5,8,0:0:0:0:
256,192,584804,5,0,0:0:0:0:
256,192,584867,5,8,0:0:0:0:
256,192,584992,5,0,0:0:0:0:
256,192,585117,1,0,0:0:0:0:
256,192,585179,1,0,0:0:0:0:
256,192,585242,5,8,0:0:0:0:
256,192,585367,5,0,0:0:0:0:
256,192,585429,1,0,0:0:0:0:
256,192,585492,1,0,0:0:0:0:
256,192,585554,1,0,0:0:0:0:
256,192,585617,5,8,0:0:0:0:
256,192,585742,1,8,0:0:0:0:
256,192,585867,1,8,0:0:0:0:
256,192,585992,5,0,0:0:0:0:
256,192,586117,1,0,0:0:0:0:
256,192,586179,1,0,0:0:0:0:
256,192,586242,5,8,0:0:0:0:
256,192,586367,5,0,0:0:0:0:
256,192,586429,1,0,0:0:0:0:
256,192,586492,1,0,0:0:0:0:
256,192,586554,1,0,0:0:0:0:
256,192,586617,5,8,0:0:0:0:
256,192,586742,5,0,0:0:0:0:
256,192,586867,5,8,0:0:0:0:
256,192,586992,5,0,0:0:0:0:
256,192,587054,1,0,0:0:0:0:
256,192,587117,5,8,0:0:0:0:
256,192,587242,1,8,0:0:0:0:
256,192,587367,5,0,0:0:0:0:
256,192,587429,1,0,0:0:0:0:
256,192,587492,1,0,0:0:0:0:
256,192,587554,1,0,0:0:0:0:
256,192,587617,5,8,0:0:0:0:
256,192,587742,5,0,0:0:0:0:
256,192,587867,1,0,0:0:0:0:
256,192,587992,5,8,0:0:0:0:
256,192,588054,1,8,0:0:0:0:
256,192,588117,5,0,0:0:0:0:
256,192,588179,1,0,0:0:0:0:
256,192,588242,5,8,0:0:0:0:
256,192,588304,5,0,0:0:0:0:
256,192,588367,5,8,0:0:0:0:
256,192,588429,1,8,0:0:0:0:
256,192,588492,5,0,0:0:0:0:
256,192,588617,1,0,0:0:0:0:
256,192,588742,1,0,0:0:0:0:
256,192,588867,1,0,0:0:0:0:
256,192,588992,1,4,0:0:0:0:
256,192,603992,5,4,0:0:0:0:
256,192,604117,5,4,0:0:0:0:
256,192,604242,1,4,0:0:0:0:
256,192,604367,1,4,0:0:0:0:
256,192,604492,1,0,0:0:0:0:
256,192,604554,1,0,0:0:0:0:
256,192,604617,1,0,0:0:0:0:
256,192,604742,5,8,0:0:0:0:
256,192,604804,1,8,0:0:0:0:
256,192,604867,1,8,0:0:0:0:
256,192,604992,5,4,0:0:0:0:
256,192,605242,5,8,0:0:0:0:
256,192,605367,5,4,0:0:0:0:
256,192,606992,1,0,0:0:0:0:
256,192,607117,1,0,0:0:0:0:
256,192,607242,5,8,0:0:0:0:
256,192,607367,5,0,0:0:0:0:
256,192,607492,1,0,0:0:0:0:
256,192,607617,5,8,0:0:0:0:
256,192,607742,5,0,0:0:0:0:
256,192,607867,1,0,0:0:0:0:
256,192,607992,5,8,0:0:0:0:
256,192,608117,1,8,0:0:0:0:
256,192,608179,1,8,0:0:0:0:
256,192,608242,1,8,0:0:0:0:
256,192,608367,1,8,0:0:0:0:
256,192,608492,1,8,0:0:0:0:
256,192,608554,1,8,0:0:0:0:
256,192,608617,1,8,0:0:0:0:
256,192,608679,1,8,0:0:0:0:
256,192,608742,1,8,0:0:0:0:
256,192,608867,1,8,0:0:0:0:
256,192,608992,5,4,0:0:0:0:
256,192,609242,5,8,0:0:0:0:
256,192,609367,5,4,0:0:0:0:
256,192,610992,5,8,0:0:0:0:
256,192,611054,5,0,0:0:0:0:
256,192,611117,5,8,0:0:0:0:
256,192,611242,5,0,0:0:0:0:
256,192,611304,1,0,0:0:0:0:
256,192,611367,1,0,0:0:0:0:
256,192,611429,1,0,0:0:0:0:
256,192,611492,5,8,0:0:0:0:
256,192,611617,5,0,0:0:0:0:
256,192,611679,1,0,0:0:0:0:
256,192,611742,5,8,0:0:0:0:
256,192,611867,1,8,0:0:0:0:
256,192,611992,1,8,0:0:0:0:
256,192,612054,1,8,0:0:0:0:
256,192,612117,5,0,0:0:0:0:
256,192,612242,5,8,0:0:0:0:
256,192,612367,1,8,0:0:0:0:
256,192,612492,5,0,0:0:0:0:
256,192,612617,1,0,0:0:0:0:
256,192,612679,1,0,0:0:0:0:
256,192,612742,5,8,0:0:0:0:
256,192,612867,1,8,0:0:0:0:
256,192,612992,5,4,0:0:0:0:
256,192,613242,5,8,0:0:0:0:
256,192,613367,5,4,0:0:0:0:
256,192,614992,1,4,0:0:0:0:
256,192,615117,5,8,0:0:0:0:
256,192,615242,1,8,0:0:0:0:
256,192,615367,5,4,0:0:0:0:
256,192,615492,5,8,0:0:0:0:
256,192,615617,1,8,0:0:0:0:
256,192,615742,5,0,0:0:0:0:
256,192,615867,1,0,0:0:0:0:
256,192,615992,5,8,0:0:0:0:
256,192,616117,1,8,0:0:0:0:
256,192,616179,1,8,0:0:0:0:
256,192,616242,1,8,0:0:0:0:
256,192,616367,1,8,0:0:0:0:
256,192,616429,1,8,0:0:0:0:
256,192,616492,1,8,0:0:0:0:
256,192,616617,1,8,0:0:0:0:
256,192,616742,1,8,0:0:0:0:
256,192,616867,1,8,0:0:0:0:
256,192,616992,5,4,0:0:0:0:
256,192,617242,5,12,0:0:0:0:
256,192,617367,5,4,0:0:0:0:
256,192,617992,1,4,0:0:0:0:
256,192,618242,5,12,0:0:0:0:
256,192,618367,5,4,0:0:0:0:
256,192,618992,1,4,0:0:0:0:
256,192,619117,5,8,0:0:0:0:
256,192,619179,1,8,0:0:0:0:
256,192,619242,1,8,0:0:0:0:
256,192,619367,5,4,0:0:0:0:
256,192,619492,5,8,0:0:0:0:
256,192,619554,1,8,0:0:0:0:
256,192,619617,1,8,0:0:0:0:
256,192,619742,5,4,0:0:0:0:
256,192,619867,5,8,0:0:0:0:
256,192,620742,1,12,0:0:0:0:
256,192,620992,5,0,0:0:0:0:
256,192,621054,1,0,0:0:0:0:
256,192,621117,1,0,0:0:0:0:
256,192,621179,1,0,0:0:0:0:
256,192,621242,5,8,0:0:0:0:
256,192,621367,5,0,0:0:0:0:
256,192,621429,1,0,0:0:0:0:
256,192,621492,1,0,0:0:0:0:
256,192,621554,1,0,0:0:0:0:
256,192,621617,5,8,0:0:0:0:
256,192,621679,1,8,0:0:0:0:
256,192,621742,5,0,0:0:0:0:
256,192,621867,5,8,0:0:0:0:
256,192,621992,5,0,0:0:0:0:
256,192,622054,1,0,0:0:0:0:
256,192,622117,1,0,0:0:0:0:
256,192,622179,1,0,0:0:0:0:
256,192,622242,5,8,0:0:0:0:
256,192,622367,5,0,0:0:0:0:
256,192,622429,5,8,0:0:0:0:
256,192,622492,5,0,0:0:0:0:
256,192,622617,5,8,0:0:0:0:
256,192,622742,5,0,0:0:0:0:
256,192,622867,5,8,0:0:0:0:
256,192,622992,5,0,0:0:0:0:
256,192,623054,1,0,0:0:0:0:
256,192,623117,5,8,0:0:0:0:
256,192,623242,1,8,0:0:0:0:
256,192,623367,5,0,0:0:0:0:
256,192,623429,1,0,0:0:0:0:
256,192,623492,5,8,0:0:0:0:
256,192,623617,5,0,0:0:0:0:
256,192,623742,1,0,0:0:0:0:
256,192,623867,5,8,0:0:0:0:
256,192,623992,5,0,0:0:0:0:
256,192,624054,1,0,0:0:0:0:
256,192,624117,1,0,0:0:0:0:
256,192,624179,1,0,0:0:0:0:
256,192,624242,5,8,0:0:0:0:
256,192,624367,5,0,0:0:0:0:
256,192,624429,5,8,0:0:0:0:
256,192,624492,5,0,0:0:0:0:
256,192,624617,5,8,0:0:0:0:
256,192,624742,1,8,0:0:0:0:
256,192,624867,1,8,0:0:0:0:
256,192,624992,5,0,0:0:0:0:
256,192,625054,1,0,0:0:0:0:
256,192,625117,1,0,0:0:0:0:
256,192,625179,1,0,0:0:0:0:
256,192,625242,5,8,0:0:0:0:
256,192,625367,5,0,0:0:0:0:
256,192,625492,5,8,0:0:0:0:
256,192,625617,1,8,0:0:0:0:
256,192,625742,1,8,0:0:0:0:
256,192,625867,1,8,0:0:0:0:
256,192,625992,5,0,0:0:0:0:
256,192,626054,1,0,0:0:0:0:
256,192,626117,1,0,0:0:0:0:
256,192,626179,1,0,0:0:0:0:
256,192,626242,5,8,0:0:0:0:
256,192,626367,5,0,0:0:0:0:
256,192,626429,1,0,0:0:0:0:
256,192,626492,5,8,0:0:0:0:
256,192,626617,5,0,0:0:0:0:
256,192,626742,5,8,0:0:0:0:
256,192,626804,5,0,0:0:0:0:
256,192,626867,5,8,0:0:0:0:
256,192,626992,5,0,0:0:0:0:
256,192,627054,1,0,0:0:0:0:
256,192,627117,5,8,0:0:0:0:
256,192,627242,1,8,0:0:0:0:
256,192,627367,5,0,0:0:0:0:
256,192,627429,1,0,0:0:0:0:
256,192,627492,1,0,0:0:0:0:
256,192,627554,1,0,0:0:0:0:
256,192,627617,5,8,0:0:0:0:
256,192,627742,1,8,0:0:0:0:
256,192,627804,1,8,0:0:0:0:
256,192,627867,5,0,0:0:0:0:
256,192,627992,1,0,0:0:0:0:
256,192,628054,1,0,0:0:0:0:
256,192,628117,1,0,0:0:0:0:
256,192,628179,1,0,0:0:0:0:
256,192,628242,5,8,0:0:0:0:
256,192,628367,5,0,0:0:0:0:
256,192,628492,5,8,0:0:0:0:
256,192,628617,1,8,0:0:0:0:
256,192,628742,5,0,0:0:0:0:
256,192,628867,5,8,0:0:0:0:
256,192,628992,5,0,0:0:0:0:
256,192,629054,1,0,0:0:0:0:
256,192,629117,5,8,0:0:0:0:
256,192,629242,1,8,0:0:0:0:
256,192,629367,5,0,0:0:0:0:
256,192,629429,1,0,0:0:0:0:
256,192,629492,5,8,0:0:0:0:
256,192,629554,5,0,0:0:0:0:
256,192,629617,5,8,0:0:0:0:
256,192,629679,1,8,0:0:0:0:
256,192,629742,5,0,0:0:0:0:
256,192,629867,5,8,0:0:0:0:
256,192,629992,5,0,0:0:0:0:
256,192,630054,1,0,0:0:0:0:
256,192,630117,5,8,0:0:0:0:
256,192,630242,1,8,0:0:0:0:
256,192,630367,5,0,0:0:0:0:
256,192,630429,1,0,0:0:0:0:
256,192,630492,5,8,0:0:0:0:
256,192,630617,5,0,0:0:0:0:
256,192,630742,5,8,0:0:0:0:
256,192,630867,5,0,0:0:0:0:
256,192,630992,1,0,0:0:0:0:
256,192,631054,1,0,0:0:0:0:
256,192,631117,1,0,0:0:0:0:
256,192,631179,1,0,0:0:0:0:
256,192,631242,5,8,0:0:0:0:
256,192,631367,5,0,0:0:0:0:
256,192,631429,1,0,0:0:0:0:
256,192,631492,5,8,0:0:0:0:
256,192,631617,1,8,0:0:0:0:
256,192,631742,5,0,0:0:0:0:
256,192,631867,5,8,0:0:0:0:
256,192,631992,5,0,0:0:0:0:
256,192,632054,5,8,0:0:0:0:
256,192,632117,5,0,0:0:0:0:
256,192,632179,5,8,0:0:0:0:
256,192,632242,5,0,0:0:0:0:
256,192,632367,5,8,0:0:0:0:
256,192,632492,5,0,0:0:0:0:
256,192,632554,1,0,0:0:0:0:
256,192,632617,5,8,0:0:0:0:
256,192,632742,5,0,0:0:0:0:
256,192,632867,5,8,0:0:0:0:
256,192,632992,5,0,0:0:0:0:
256,192,633054,1,0,0:0:0:0:
256,192,633117,5,8,0:0:0:0:
256,192,633242,5,0,0:0:0:0:
256,192,633367,1,0,0:0:0:0:
256,192,633429,1,0,0:0:0:0:
256,192,633492,5,8,0:0:0:0:
256,192,633617,5,0,0:0:0:0:
256,192,633742,1,0,0:0:0:0:
256,192,633867,5,8,0:0:0:0:
256,192,633992,5,0,0:0:0:0:
256,192,634054,1,0,0:0:0:0:
256,192,634117,5,8,0:0:0:0:
256,192,634242,1,8,0:0:0:0:
256,192,634367,5,0,0:0:0:0:
256,192,634429,1,0,0:0:0:0:
256,192,634492,1,0,0:0:0:0:
256,192,634554,1,0,0:0:0:0:
256,192,634617,5,8,0:0:0:0:
256,192,634742,1,8,0:0:0:0:
256,192,634804,1,8,0:0:0:0:
256,192,634867,1,8,0:0:0:0:
256,192,634992,5,0,0:0:0:0:
256,192,635117,5,8,0:0:0:0:
256,192,635179,5,0,0:0:0:0:
256,192,635242,5,8,0:0:0:0:
256,192,635367,5,0,0:0:0:0:
256,192,635429,1,0,0:0:0:0:
256,192,635492,5,8,0:0:0:0:
256,192,635617,1,8,0:0:0:0:
256,192,635742,5,0,0:0:0:0:
256,192,635804,1,0,0:0:0:0:
256,192,635867,5,8,0:0:0:0:
256,192,635929,1,8,0:0:0:0:
256,192,635992,5,0,0:0:0:0:
256,192,636117,1,0,0:0:0:0:
256,192,636242,5,8,0:0:0:0:
256,192,636367,5,0,0:0:0:0:
256,192,636492,5,8,0:0:0:0:
256,192,636554,1,8,0:0:0:0:
256,192,636617,5,0,0:0:0:0:
256,192,636742,1,0,0:0:0:0:
256,192,636867,1,0,0:0:0:0:
256,192,636992,5,12,0:0:0:0:
256,192,637492,5,4,0:0:0:0:
256,192,637992,1,4,0:0:0:0:
256,192,638492,1,4,0:0:0:0:
256,192,638992,1,4,0:0:0:0:
256,192,639492,1,4,0:0:0:0:
256,192,639992,1,4,0:0:0:0:
256,192,640492,1,4,0:0:0:0:
256,192,640742,1,4,0:0:0:0:
256,192,640992,5,12,0:0:0:0:
256,192,641492,5,4,0:0:0:0:
256,192,641992,1,4,0:0:0:0:
256,192,642492,1,4,0:0:0:0:
256,192,642992,1,4,0:0:0:0:
256,192,643492,1,4,0:0:0:0:
256,192,643992,1,4,0:0:0:0:
256,192,644492,1,4,0:0:0:0:
256,192,644992,5,12,0:0:0:0:
256,192,645492,5,4,0:0:0:0:
256,192,645992,1,4,0:0:0:0:
256,192,646492,1,4,0:0:0:0:
256,192,646992,1,4,0:0:0:0:
256,192,647492,1,4,0:0:0:0:
256,192,647992,1,4,0:0:0:0:
256,192,648492,1,4,0:0:0:0:
256,192,648742,1,4,0:0:0:0:
256,192,648992,5,12,0:0:0:0:
256,192,649492,5,4,0:0:0:0:
256,192,649992,1,4,0:0:0:0:
256,192,650492,1,4,0:0:0:0:
256,192,650992,1,0,0:0:0:0:
256,192,651242,5,8,0:0:0:0:
256,192,651367,1,8,0:0:0:0:
256,192,651617,5,0,0:0:0:0:
256,192,651742,5,8,0:0:0:0:
256,192,651992,1,8,0:0:0:0:
256,192,652117,5,0,0:0:0:0:
256,192,652492,5,8,0:0:0:0:
256,192,652617,5,0,0:0:0:0:
256,192,652992,1,4,0:0:0:0:
256,192,653242,5,8,0:0:0:0:
256,192,654242,1,8,0:0:0:0:
256,192,654742,5,0,0:0:0:0:
256,192,655242,1,0,0:0:0:0:
256,192,655492,1,0,0:0:0:0:
256,192,655742,5,8,0:0:0:0:
256,192,656242,1,8,0:0:0:0:
256,192,656617,5,0,0:0:0:0:
256,192,656742,5,8,0:0:0:0:
256,192,656867,1,8,0:0:0:0:
256,192,657242,5,0,0:0:0:0:
256,192,657492,1,0,0:0:0:0:
256,192,658242,5,8,0:0:0:0:
256,192,658742,1,8,0:0:0:0:
256,192,659242,5,0,0:0:0:0:
256,192,659492,5,8,0:0:0:0:
256,192,659742,1,8,0:0:0:0:
256,192,660242,5,0,0:0:0:0:
256,192,660617,5,8,0:0:0:0:
256,192,660742,1,8,0:0:0:0:
256,192,660867,1,8,0:0:0:0:
256,192,661242,1,8,0:0:0:0:
256,192,661492,5,0,0:0:0:0:
256,192,662242,5,8,0:0:0:0:
256,192,662742,5,0,0:0:0:0:
256,192,663242,5,8,0:0:0:0:
256,192,663492,5,0,0:0:0:0:
256,192,663742,5,8,0:0:0:0:
256,192,664242,5,0,0:0:0:0:
256,192,664617,5,8,0:0:0:0:
256,192,664742,1,8,0:0:0:0:
256,192,664867,1,8,0:0:0:0:
256,192,665242,1,8,0:0:0:0:
256,192,665492,5,0,0:0:0:0:
256,192,666242,5,8,0:0:0:0:
256,192,666492,5,0,0:0:0:0:
256,192,666742,5,8,0:0:0:0:
256,192,667242,1,8,0:0:0:0:
256,192,667492,5,0,0:0:0:0:
256,192,667742,5,8,0:0:0:0:
256,192,668242,1,8,0:0:0:0:
256,192,668617,1,8,0:0:0:0:
256,192,668742,1,8,0:0:0:0:
256,192,668867,1,8,0:0:0:0:
256,192,668992,5,4,0:0:0:0:
256,192,669367,1,4,0:0:0:0:
256,192,670242,5,8,0:0:0:0:
256,192,670742,1,8,0:0:0:0:
256,192,670992,5,0,0:0:0:0:
256,192,671117,1,0,0:0:0:0:
256,192,671242,5,8,0:0:0:0:
256,192,671367,5,0,0:0:0:0:
256,192,671492,1,0,0:0:0:0:
256,192,671617,5,8,0:0:0:0:
256,192,671742,5,0,0:0:0:0:
256,192,671867,1,0,0:0:0:0:
256,192,671992,5,8,0:0:0:0:
256,192,672117,1,8,0:0:0:0:
256,192,672179,1,8,0:0:0:0:
256,192,672242,1,8,0:0:0:0:
256,192,672367,1,8,0:0:0:0:
256,192,672492,1,8,0:0:0:0:
256,192,672554,1,8,0:0:0:0:
256,192,672617,1,8,0:0:0:0:
256,192,672679,1,8,0:0:0:0:
256,192,672742,1,8,0:0:0:0:
256,192,672867,1,8,0:0:0:0:
256,192,672992,5,4,0:0:0:0:
256,192,673367,1,4,0:0:0:0:
256,192,674242,5,8,0:0:0:0:
256,192,674742,1,8,0:0:0:0:
256,192,674992,5,0,0:0:0:0:
256,192,675117,1,0,0:0:0:0:
256,192,675242,5,8,0:0:0:0:
256,192,675367,1,8,0:0:0:0:
256,192,675429,1,8,0:0:0:0:
256,192,675492,5,0,0:0:0:0:
256,192,675617,1,0,0:0:0:0:
256,192,675742,1,0,0:0:0:0:
256,192,675804,1,0,0:0:0:0:
256,192,675867,5,8,0:0:0:0:
256,192,675992,1,8,0:0:0:0:
256,192,676117,5,0,0:0:0:0:
256,192,676242,1,0,0:0:0:0:
256,192,676367,5,8,0:0:0:0:
256,192,676492,5,0,0:0:0:0:
256,192,676617,5,8,0:0:0:0:
256,192,676679,5,0,0:0:0:0:
256,192,676742,5,8,0:0:0:0:
256,192,676804,5,0,0:0:0:0:
256,192,676867,5,8,0:0:0:0:
256,192,676992,5,4,0:0:0:0:
256,192,677367,1,4,0:0:0:0:
256,192,678242,5,8,0:0:0:0:
256,192,678742,1,8,0:0:0:0:
256,192,678992,5,4,0:0:0:0:
256,192,679117,5,8,0:0:0:0:
256,192,679242,1,8,0:0:0:0:
256,192,679367,5,4,0:0:0:0:
256,192,679492,5,8,0:0:0:0:
256,192,679617,1,8,0:0:0:0:
256,192,679742,5,0,0:0:0:0:
256,192,679867,1,0,0:0:0:0:
256,192,679992,5,8,0:0:0:0:
256,192,680117,1,8,0:0:0:0:
256,192,680179,1,8,0:0:0:0:
256,192,680242,1,8,0:0:0:0:
256,192,680367,1,8,0:0:0:0:
256,192,680492,1,8,0:0:0:0:
256,192,680554,1,8,0:0:0:0:
256,192,680617,1,8,0:0:0:0:
256,192,680742,1,8,0:0:0:0:
256,192,680867,1,8,0:0:0:0:
256,192,680992,5,4,0:0:0:0:
256,192,681242,5,8,0:0:0:0:
256,192,681367,5,0,0:0:0:0:
256,192,681992,1,4,0:0:0:0:
256,192,682242,5,8,0:0:0:0:
256,192,682367,5,4,0:0:0:0:
256,192,682992,1,4,0:0:0:0:
256,192,683117,5,8,0:0:0:0:
256,192,683179,1,8,0:0:0:0:
256,192,683242,1,8,0:0:0:0:
256,192,683367,5,4,0:0:0:0:
256,192,683492,5,8,0:0:0:0:
256,192,683554,1,8,0:0:0:0:
256,192,683617,1,8,0:0:0:0:
256,192,683742,5,4,0:0:0:0:
256,192,683867,5,8,0:0:0:0:
256,192,683992,5,0,0:0:0:0:
256,192,684054,1,0,0:0:0:0:
256,192,684117,1,0,0:0:0:0:
256,192,684179,1,0,0:0:0:0:
256,192,684242,5,8,0:0:0:0:
256,192,684367,1,8,0:0:0:0:
256,192,684492,5,0,0:0:0:0:
256,192,684617,5,8,0:0:0:0:
256,192,684742,5,0,0:0:0:0:
256,192,684804,5,8,0:0:0:0:
256,192,684867,5,0,0:0:0:0:
256,192,684992,5,12,0:0:0:0:
256,192,688314,5,8,0:0:0:0:
256,192,688376,1,8,0:0:0:0:
256,192,688439,1,8,0:0:0:0:
256,192,688501,1,8,0:0:0:0:
256,192,688564,1,0,0:0:0:0:
256,192,688626,1,8,0:0:0:0:
256,192,688689,1,0,0:0:0:0:
256,192,688814,1,8,0:0:0:0:
256,192,688876,1,8,0:0:0:0:
256,192,688939,1,8,0:0:0:0:
256,192,689001,1,8,0:0:0:0:
256,192,689064,1,0,0:0:0:0:
256,192,689189,1,0,0:0:0:0:
256,192,689314,1,4,0:0:0:0:
256,192,689564,1,0,0:0:0:0:
256,192,689689,1,8,0:0:0:0:
256,192,689814,1,0,0:0:0:0:
256,192,689939,1,0,0:0:0:0:
256,192,690001,1,0,0:0:0:0:
256,192,690064,1,8,0:0:0:0:
256,192,690189,1,8,0:0:0:0:
256,192,690314,1,4,0:0:0:0:
256,192,690439,1,8,0:0:0:0:
256,192,690564,1,0,0:0:0:0:
256,192,690689,1,0,0:0:0:0:
256,192,690814,1,8,0:0:0:0:
256,192,690876,1,8,0:0:0:0:
256,192,690939,1,8,0:0:0:0:
256,192,691064,1,0,0:0:0:0:
256,192,691189,1,8,0:0:0:0:
256,192,691314,1,0,0:0:0:0:
256,192,691439,1,0,0:0:0:0:
256,192,691501,1,0,0:0:0:0:
256,192,691564,1,8,0:0:0:0:
256,192,691689,1,0,0:0:0:0:
256,192,691814,1,8,0:0:0:0:
256,192,691876,1,8,0:0:0:0:
256,192,691939,1,8,0:0:0:0:
256,192,692001,1,8,0:0:0:0:
256,192,692064,1,0,0:0:0:0:
256,192,692189,1,8,0:0:0:0:
256,192,692314,1,4,0:0:0:0:
256,192,692439,1,0,0:0:0:0:
256,192,692501,1,0,0:0:0:0:
256,192,692564,1,8,0:0:0:0:
256,192,692689,1,0,0:0:0:0:
256,192,692814,1,8,0:0:0:0:
256,192,692939,1,8,0:0:0:0:
256,192,693001,1,8,0:0:0:0:
256,192,693064,1,0,0:0:0:0:
256,192,693189,1,8,0:0:0:0:
256,192,693314,1,0,0:0:0:0:
256,192,693439,1,0,0:0:0:0:
256,192,693564,1,8,0:0:0:0:
256,192,693689,1,0,0:0:0:0:
256,192,693814,1,8,0:0:0:0:
256,192,693876,1,8,0:0:0:0:
256,192,693939,1,8,0:0:0:0:
256,192,694064,1,0,0:0:0:0:
256,192,694189,1,8,0:0:0:0:
256,192,694314,1,4,0:0:0:0:
256,192,694439,1,8,0:0:0:0:
256,192,694501,1,8,0:0:0:0:
256,192,694564,1,8,0:0:0:0:
256,192,694689,1,0,0:0:0:0:
256,192,694814,1,0,0:0:0:0:
256,192,694939,1,8,0:0:0:0:
256,192,695064,1,0,0:0:0:0:
256,192,695126,1,0,0:0:0:0:
256,192,695189,1,8,0:0:0:0:
256,192,695314,1,0,0:0:0:0:
256,192,695564,1,0,0:0:0:0:
256,192,695689,1,0,0:0:0:0:
256,192,695814,1,8,0:0:0:0:
256,192,695939,1,0,0:0:0:0:
256,192,696064,1,8,0:0:0:0:
256,192,696314,1,4,0:0:0:0:
256,192,696564,1,8,0:0:0:0:
256,192,696626,1,8,0:0:0:0:
256,192,696689,1,0,0:0:0:0:
256,192,696814,1,8,0:0:0:0:
256,192,696939,1,8,0:0:0:0:
256,192,697064,1,0,0:0:0:0:
256,192,697189,1,8,0:0:0:0:
256,192,697314,1,0,0:0:0:0:
256,192,697439,1,8,0:0:0:0:
256,192,697501,1,8,0:0:0:0:
256,192,697564,1,0,0:0:0:0:
256,192,697689,1,0,0:0:0:0:
256,192,697814,1,8,0:0:0:0:
256,192,697939,1,8,0:0:0:0:
256,192,698064,1,0,0:0:0:0:
256,192,698189,1,8,0:0:0:0:
256,192,698314,1,4,0:0:0:0:
256,192,698439,1,8,0:0:0:0:
256,192,698501,1,8,0:0:0:0:
256,192,698564,1,8,0:0:0:0:
256,192,698689,1,0,0:0:0:0:
256,192,698814,1,8,0:0:0:0:
256,192,698876,1,8,0:0:0:0:
256,192,698939,1,8,0:0:0:0:
256,192,699064,1,0,0:0:0:0:
256,192,699189,1,8,0:0:0:0:
256,192,699314,1,0,0:0:0:0:
256,192,699439,1,8,0:0:0:0:
256,192,699564,1,8,0:0:0:0:
256,192,699626,1,8,0:0:0:0:
256,192,699689,1,0,0:0:0:0:
256,192,699751,1,0,0:0:0:0:
256,192,699814,1,8,0:0:0:0:
256,192,699939,1,8,0:0:0:0:
256,192,700001,1,8,0:0:0:0:
256,192,700064,1,0,0:0:0:0:
256,192,700189,1,8,0:0:0:0:
256,192,700314,1,4,0:0:0:0:
256,192,700439,1,8,0:0:0:0:
256,192,700564,1,8,0:0:0:0:
256,192,700626,1,8,0:0:0:0:
256,192,700689,1,0,0:0:0:0:
256,192,700814,1,8,0:0:0:0:
256,192,700939,1,0,0:0:0:0:
256,192,701064,1,0,0:0:0:0:
256,192,701189,1,8,0:0:0:0:
256,192,701314,1,0,0:0:0:0:
256,192,701564,1,8,0:0:0:0:
256,192,701689,1,0,0:0:0:0:
256,192,701814,1,8,0:0:0:0:
256,192,701876,1,8,0:0:0:0:
256,192,701939,1,8,0:0:0:0:
256,192,702001,1,8,0:0:0:0:
256,192,702064,1,0,0:0:0:0:
256,192,702189,1,8,0:0:0:0:
256,192,702314,1,4,0:0:0:0:
256,192,702439,1,8,0:0:0:0:
256,192,702501,1,8,0:0:0:0:
256,192,702564,1,0,0:0:0:0:
256,192,702689,1,0,0:0:0:0:
256,192,702814,1,0,0:0:0:0:
256,192,702876,1,0,0:0:0:0:
256,192,702939,1,8,0:0:0:0:
256,192,703064,1,0,0:0:0:0:
256,192,703189,1,8,0:0:0:0:
256,192,703314,1,0,0:0:0:0:
256,192,703564,1,0,0:0:0:0:
256,192,703689,1,8,0:0:0:0:
256,192,703814,1,8,0:0:0:0:
256,192,703939,1,0,0:0:0:0:
256,192,704064,1,8,0:0:0:0:
256,192,704314,1,4,0:0:0:0:
256,192,704439,1,0,0:0:0:0:
256,192,704501,1,0,0:0:0:0:
256,192,704564,1,8,0:0:0:0:
256,192,704689,1,0,0:0:0:0:
256,192,704751,1,0,0:0:0:0:
256,192,704814,1,8,0:0:0:0:
256,192,704876,1,8,0:0:0:0:
256,192,704939,1,8,0:0:0:0:
256,192,705001,1,8,0:0:0:0:
256,192,705064,1,0,0:0:0:0:
256,192,705189,1,8,0:0:0:0:
256,192,705314,1,0,0:0:0:0:
256,192,705439,1,8,0:0:0:0:
256,192,705564,1,0,0:0:0:0:
256,192,705689,1,0,0:0:0:0:
256,192,705814,1,8,0:0:0:0:
256,192,705939,1,8,0:0:0:0:
256,192,706064,1,0,0:0:0:0:
256,192,706189,1,8,0:0:0:0:
256,192,706314,1,0,0:0:0:0:
256,192,706439,1,0,0:0:0:0:
256,192,706564,1,8,0:0:0:0:
256,192,706689,1,0,0:0:0:0:
256,192,706814,1,0,0:0:0:0:
256,192,706939,1,8,0:0:0:0:
256,192,707064,1,8,0:0:0:0:
256,192,707189,1,8,0:0:0:0:
256,192,707314,1,0,0:0:0:0:
256,192,707439,1,8,0:0:0:0:
256,192,707564,1,0,0:0:0:0:
256,192,707689,1,0,0:0:0:0:
256,192,707814,1,0,0:0:0:0:
256,192,707939,1,8,0:0:0:0:
256,192,708064,1,0,0:0:0:0:
256,192,708189,1,8,0:0:0:0:
256,192,708314,1,0,0:0:0:0:
256,192,708439,1,0,0:0:0:0:
256,192,708564,1,8,0:0:0:0:
256,192,708689,1,8,0:0:0:0:
256,192,708814,1,0,0:0:0:0:
256,192,708939,1,0,0:0:0:0:
256,192,709064,1,8,0:0:0:0:
256,192,709189,1,8,0:0:0:0:
256,192,709314,1,0,0:0:0:0:
256,192,709439,1,8,0:0:0:0:
256,192,709564,1,8,0:0:0:0:
256,192,709689,1,0,0:0:0:0:
256,192,709814,1,8,0:0:0:0:
256,192,709939,1,0,0:0:0:0:
256,192,710064,1,0,0:0:0:0:
256,192,710189,1,8,0:0:0:0:
256,192,710314,1,0,0:0:0:0:
256,192,710439,1,8,0:0:0:0:
256,192,710564,1,0,0:0:0:0:
256,192,710689,1,0,0:0:0:0:
256,192,710814,1,8,0:0:0:0:
256,192,710939,1,0,0:0:0:0:
256,192,711064,1,8,0:0:0:0:
256,192,711189,1,8,0:0:0:0:
256,192,711314,1,0,0:0:0:0:
256,192,711439,1,8,0:0:0:0:
256,192,711564,1,0,0:0:0:0:
256,192,711689,1,0,0:0:0:0:
256,192,711814,1,0,0:0:0:0:
256,192,711939,1,8,0:0:0:0:
256,192,712064,1,0,0:0:0:0:
256,192,712189,1,8,0:0:0:0:
256,192,712314,1,0,0:0:0:0:
256,192,712439,1,0,0:0:0:0:
256,192,712564,1,8,0:0:0:0:
256,192,712689,1,8,0:0:0:0:
256,192,712814,1,0,0:0:0:0:
256,192,713064,1,8,0:0:0:0:
256,192,713126,1,8,0:0:0:0:
256,192,713189,1,8,0:0:0:0:
256,192,713251,1,8,0:0:0:0:
256,192,713314,1,0,0:0:0:0:
256,192,713439,1,0,0:0:0:0:
256,192,713564,1,0,0:0:0:0:
256,192,713689,1,8,0:0:0:0:
256,192,713814,1,0,0:0:0:0:
256,192,713939,1,8,0:0:0:0:
256,192,714064,1,0,0:0:0:0:
256,192,714126,1,0,0:0:0:0:
256,192,714189,1,8,0:0:0:0:
256,192,714251,1,8,0:0:0:0:
256,192,714314,1,0,0:0:0:0:
256,192,714439,1,8,0:0:0:0:
256,192,714564,1,0,0:0:0:0:
256,192,714689,1,0,0:0:0:0:
256,192,714814,1,8,0:0:0:0:
256,192,714939,1,8,0:0:0:0:
256,192,715001,1,8,0:0:0:0:
256,192,715064,1,8,0:0:0:0:
256,192,715189,1,0,0:0:0:0:
256,192,715314,1,0,0:0:0:0:
256,192,715439,1,8,0:0:0:0:
256,192,715564,1,0,0:0:0:0:
256,192,715689,1,0,0:0:0:0:
256,192,715814,1,8,0:0:0:0:
256,192,715939,1,8,0:0:0:0:
256,192,716064,1,0,0:0:0:0:
256,192,716189,1,0,0:0:0:0:
256,192,716314,1,8,0:0:0:0:
256,192,716376,1,8,0:0:0:0:
256,192,716439,1,0,0:0:0:0:
256,192,716564,1,0,0:0:0:0:
256,192,716689,1,8,0:0:0:0:
256,192,716814,1,0,0:0:0:0:
256,192,717064,1,8,0:0:0:0:
256,192,717126,1,8,0:0:0:0:
256,192,717189,1,8,0:0:0:0:
256,192,717251,1,8,0:0:0:0:
256,192,717314,1,0,0:0:0:0:
256,192,717439,1,8,0:0:0:0:
256,192,717564,1,0,0:0:0:0:
256,192,717689,1,0,0:0:0:0:
256,192,717814,1,0,0:0:0:0:
256,192,717876,1,8,0:0:0:0:
256,192,717939,1,8,0:0:0:0:
256,192,718064,1,8,0:0:0:0:
256,192,718189,1,0,0:0:0:0:
256,192,718314,1,0,0:0:0:0:
256,192,718439,1,8,0:0:0:0:
256,192,718564,1,8,0:0:0:0:
256,192,718689,1,0,0:0:0:0:
256,192,718814,1,0,0:0:0:0:
256,192,718939,1,8,0:0:0:0:
256,192,719064,1,8,0:0:0:0:
256,192,719126,1,8,0:0:0:0:
256,192,719189,1,0,0:0:0:0:
256,192,719314,1,0,0:0:0:0:
256,192,719439,1,0,0:0:0:0:
256,192,719564,1,8,0:0:0:0:
256,192,719689,1,0,0:0:0:0:
256,192,719751,1,0,0:0:0:0:
256,192,719814,1,8,0:0:0:0:
256,192,719939,1,0,0:0:0:0:
256,192,720064,1,8,0:0:0:0:
256,192,720189,1,0,0:0:0:0:
256,192,720314,12,0,721064,0:0:0:0:
256,192,721314,5,12,0:0:0:0:
256,192,721564,1,8,0:0:0:0:
256,192,721689,1,0,0:0:0:0:
256,192,721814,1,8,0:0:0:0:
256,192,721939,1,0,0:0:0:0:
256,192,722064,1,0,0:0:0:0:
256,192,722189,1,0,0:0:0:0:
256,192,722314,1,8,0:0:0:0:
256,192,722376,1,8,0:0:0:0:
256,192,722439,1,8,0:0:0:0:
256,192,722564,1,0,0:0:0:0:
256,192,722689,1,0,0:0:0:0:
256,192,722939,1,0,0:0:0:0:
256,192,723064,1,8,0:0:0:0:
256,192,723126,1,8,0:0:0:0:
256,192,723189,1,0,0:0:0:0:
256,192,723314,1,8,0:0:0:0:
256,192,723439,1,8,0:0:0:0:
256,192,723501,1,8,0:0:0:0:
256,192,723564,1,0,0:0:0:0:
256,192,723689,1,0,0:0:0:0:
256,192,723939,1,0,0:0:0:0:
256,192,724064,1,0,0:0:0:0:
256,192,724189,1,8,0:0:0:0:
256,192,724314,1,8,0:0:0:0:
256,192,724376,1,8,0:0:0:0:
256,192,724439,1,0,0:0:0:0:
256,192,724501,1,0,0:0:0:0:
256,192,724564,1,8,0:0:0:0:
256,192,724689,1,0,0:0:0:0:
256,192,724814,1,8,0:0:0:0:
256,192,724939,1,0,0:0:0:0:
256,192,725064,1,0,0:0:0:0:
256,192,725189,1,8,0:0:0:0:
256,192,725314,1,12,0:0:0:0:
256,192,725564,1,8,0:0:0:0:
256,192,725689,1,0,0:0:0:0:
256,192,725814,1,8,0:0:0:0:
256,192,725939,1,0,0:0:0:0:
256,192,726064,1,0,0:0:0:0:
256,192,726189,1,0,0:0:0:0:
256,192,726314,1,8,0:0:0:0:
256,192,726376,1,8,0:0:0:0:
256,192,726439,1,0,0:0:0:0:
256,192,726564,1,0,0:0:0:0:
256,192,726689,1,0,0:0:0:0:
256,192,726939,1,0,0:0:0:0:
256,192,727001,1,0,0:0:0:0:
256,192,727064,1,0,0:0:0:0:
256,192,727189,1,0,0:0:0:0:
256,192,727314,1,8,0:0:0:0:
256,192,727376,1,8,0:0:0:0:
256,192,727439,1,0,0:0:0:0:
256,192,727564,1,8,0:0:0:0:
256,192,727689,1,0,0:0:0:0:
256,192,727814,1,8,0:0:0:0:
256,192,727939,1,0,0:0:0:0:
256,192,728064,1,0,0:0:0:0:
256,192,728189,1,0,0:0:0:0:
256,192,728314,1,8,0:0:0:0:
256,192,728439,1,0,0:0:0:0:
256,192,728564,1,8,0:0:0:0:
256,192,728689,1,0,0:0:0:0:
256,192,728814,1,0,0:0:0:0:
256,192,728939,1,8,0:0:0:0:
256,192,729064,1,8,0:0:0:0:
256,192,729126,1,8,0:0:0:0:
256,192,729189,1,8,0:0:0:0:
256,192,729251,1,8,0:0:0:0:
256,192,729314,1,0,0:0:0:0:
256,192,729439,1,8,0:0:0:0:
256,192,729564,1,0,0:0:0:0:
256,192,729689,1,0,0:0:0:0:
256,192,729814,1,8,0:0:0:0:
256,192,729939,1,8,0:0:0:0:
256,192,730064,1,0,0:0:0:0:
256,192,730126,1,8,0:0:0:0:
256,192,730189,1,8,0:0:0:0:
256,192,730314,1,8,0:0:0:0:
256,192,730439,1,0,0:0:0:0:
256,192,730564,1,0,0:0:0:0:
256,192,730689,1,0,0:0:0:0:
256,192,730939,1,0,0:0:0:0:
256,192,731064,1,0,0:0:0:0:
256,192,731189,1,0,0:0:0:0:
256,192,731314,1,8,0:0:0:0:
256,192,731376,1,8,0:0:0:0:
256,192,731439,1,0,0:0:0:0:
256,192,731564,1,0,0:0:0:0:
256,192,731689,1,0,0:0:0:0:
256,192,731814,1,8,0:0:0:0:
256,192,731939,1,8,0:0:0:0:
256,192,732064,1,8,0:0:0:0:
256,192,732189,1,0,0:0:0:0:
256,192,732314,1,8,0:0:0:0:
256,192,732439,1,0,0:0:0:0:
256,192,732564,1,0,0:0:0:0:
256,192,732626,1,0,0:0:0:0:
256,192,732689,1,8,0:0:0:0:
256,192,732814,1,8,0:0:0:0:
256,192,732876,1,8,0:0:0:0:
256,192,732939,1,0,0:0:0:0:
256,192,733001,1,0,0:0:0:0:
256,192,733064,1,8,0:0:0:0:
256,192,733189,1,0,0:0:0:0:
256,192,733314,1,8,0:0:0:0:
256,192,733564,1,8,0:0:0:0:
256,192,733689,1,0,0:0:0:0:
256,192,733814,1,8,0:0:0:0:
256,192,734064,1,8,0:0:0:0:
256,192,734126,1,8,0:0:0:0:
256,192,734189,1,0,0:0:0:0:
256,192,734314,1,8,0:0:0:0:
256,192,734439,1,0,0:0:0:0:
256,192,734564,1,8,0:0:0:0:
256,192,734689,1,0,0:0:0:0:
256,192,734939,1,0,0:0:0:0:
256,192,735001,1,0,0:0:0:0:
256,192,735064,1,8,0:0:0:0:
256,192,735189,1,8,0:0:0:0:
256,192,735314,1,8,0:0:0:0:
256,192,735439,1,0,0:0:0:0:
256,192,735564,1,8,0:0:0:0:
256,192,735689,1,0,0:0:0:0:
256,192,735939,1,0,0:0:0:0:
256,192,736064,1,8,0:0:0:0:
256,192,736189,1,8,0:0:0:0:
256,192,736314,12,0,737189,0:0:0:0:
256,192,737314,5,4,0:0:0:0:
256,192,737439,1,8,0:0:0:0:
256,192,737564,1,8,0:0:0:0:
256,192,737626,1,8,0:0:0:0:
256,192,737689,1,0,0:0:0:0:
256,192,737814,1,0,0:0:0:0:
256,192,737939,1,8,0:0:0:0:
256,192,738064,1,0,0:0:0:0:
256,192,738189,1,8,0:0:0:0:
256,192,738439,1,8,0:0:0:0:
256,192,738501,1,8,0:0:0:0:
256,192,738564,1,0,0:0:0:0:
256,192,738689,1,0,0:0:0:0:
256,192,738814,1,8,0:0:0:0:
256,192,738939,1,8,0:0:0:0:
256,192,739064,1,0,0:0:0:0:
256,192,739126,1,0,0:0:0:0:
256,192,739189,1,8,0:0:0:0:
256,192,739251,1,8,0:0:0:0:
256,192,739314,1,0,0:0:0:0:
256,192,739439,1,8,0:0:0:0:
256,192,739564,1,0,0:0:0:0:
256,192,739626,1,0,0:0:0:0:
256,192,739689,1,8,0:0:0:0:
256,192,739814,1,8,0:0:0:0:
256,192,739939,1,8,0:0:0:0:
256,192,740064,1,8,0:0:0:0:
256,192,740126,1,8,0:0:0:0:
256,192,740189,1,0,0:0:0:0:
256,192,740251,1,0,0:0:0:0:
256,192,740314,1,8,0:0:0:0:
256,192,740439,1,8,0:0:0:0:
256,192,740564,1,0,0:0:0:0:
256,192,740689,1,0,0:0:0:0:
256,192,740814,1,8,0:0:0:0:
256,192,740939,1,8,0:0:0:0:
256,192,741064,1,0,0:0:0:0:
256,192,741126,1,0,0:0:0:0:
256,192,741189,1,8,0:0:0:0:
256,192,741251,1,8,0:0:0:0:
256,192,741314,1,0,0:0:0:0:
256,192,741439,1,8,0:0:0:0:
256,192,741501,1,8,0:0:0:0:
256,192,741564,1,0,0:0:0:0:
256,192,741689,1,0,0:0:0:0:
256,192,741814,1,8,0:0:0:0:
256,192,741939,1,8,0:0:0:0:
256,192,742064,1,0,0:0:0:0:
256,192,742189,1,8,0:0:0:0:
256,192,742439,1,0,0:0:0:0:
256,192,742564,1,0,0:0:0:0:
256,192,742689,1,0,0:0:0:0:
256,192,742814,1,8,0:0:0:0:
256,192,742876,1,8,0:0:0:0:
256,192,742939,1,0,0:0:0:0:
256,192,743064,1,0,0:0:0:0:
256,192,743189,1,8,0:0:0:0:
256,192,743314,1,0,0:0:0:0:
256,192,743439,1,0,0:0:0:0:
256,192,743564,1,8,0:0:0:0:
256,192,743814,1,0,0:0:0:0:
256,192,743939,1,8,0:0:0:0:
256,192,744189,1,0,0:0:0:0:
256,192,744314,1,8,0:0:0:0:
256,192,744564,1,0,0:0:0:0:
256,192,744689,1,8,0:0:0:0:
256,192,744814,1,0,0:0:0:0:
256,192,744939,1,8,0:0:0:0:
256,192,745064,1,8,0:0:0:0:
256,192,745126,1,8,0:0:0:0:
256,192,745189,1,8,0:0:0:0:
256,192,745251,1,8,0:0:0:0:
256,192,745314,1,0,0:0:0:0:
256,192,745439,1,0,0:0:0:0:
256,192,745564,1,8,0:0:0:0:
256,192,745626,1,8,0:0:0:0:
256,192,745689,1,0,0:0:0:0:
256,192,745814,1,0,0:0:0:0:
256,192,745939,1,8,0:0:0:0:
256,192,746064,1,0,0:0:0:0:
256,192,746189,1,8,0:0:0:0:
256,192,746439,1,8,0:0:0:0:
256,192,746564,1,0,0:0:0:0:
256,192,746626,1,0,0:0:0:0:
256,192,746689,1,0,0:0:0:0:
256,192,746814,1,8,0:0:0:0:
256,192,746939,1,8,0:0:0:0:
256,192,747064,1,0,0:0:0:0:
256,192,747189,1,8,0:0:0:0:
256,192,747314,1,0,0:0:0:0:
256,192,747439,1,0,0:0:0:0:
256,192,747501,1,0,0:0:0:0:
256,192,747564,1,8,0:0:0:0:
256,192,747689,1,8,0:0:0:0:
256,192,747814,1,8,0:0:0:0:
256,192,747939,1,0,0:0:0:0:
256,192,748064,1,8,0:0:0:0:
256,192,748189,1,0,0:0:0:0:
256,192,748314,1,8,0:0:0:0:
256,192,748376,1,8,0:0:0:0:
256,192,748439,1,8,0:0:0:0:
256,192,748501,1,8,0:0:0:0:
256,192,748564,1,0,0:0:0:0:
256,192,748689,1,0,0:0:0:0:
256,192,748814,1,8,0:0:0:0:
256,192,748939,1,8,0:0:0:0:
256,192,749064,1,0,0:0:0:0:
256,192,749189,1,8,0:0:0:0:
256,192,749314,1,0,0:0:0:0:
256,192,749439,1,0,0:0:0:0:
256,192,749564,1,0,0:0:0:0:
256,192,749689,1,0,0:0:0:0:
256,192,749814,1,8,0:0:0:0:
256,192,749939,1,0,0:0:0:0:
256,192,750064,1,0,0:0:0:0:
256,192,750189,1,8,0:0:0:0:
256,192,750439,1,0,0:0:0:0:
256,192,750689,1,0,0:0:0:0:
256,192,750814,1,8,0:0:0:0:
256,192,750876,1,8,0:0:0:0:
256,192,750939,1,8,0:0:0:0:
256,192,751064,1,8,0:0:0:0:
256,192,751126,1,8,0:0:0:0:
256,192,751189,1,8,0:0:0:0:
256,192,751314,1,0,0:0:0:0:
256,192,751439,1,0,0:0:0:0:
256,192,751564,1,8,0:0:0:0:
256,192,751814,1,0,0:0:0:0:
256,192,751939,1,8,0:0:0:0:
256,192,752189,1,0,0:0:0:0:
256,192,752314,1,8,0:0:0:0:
256,192,752564,1,0,0:0:0:0:
256,192,752689,1,8,0:0:0:0:
256,192,752814,1,0,0:0:0:0:
256,192,752939,1,8,0:0:0:0:
256,192,753064,1,8,0:0:0:0:
256,192,753189,1,8,0:0:0:0:
256,192,753314,1,4,0:0:0:0:
256,192,753564,1,8,0:0:0:0:
256,192,753689,1,0,0:0:0:0:
256,192,753814,1,8,0:0:0:0:
256,192,753939,1,8,0:0:0:0:
256,192,754064,1,0,0:0:0:0:
256,192,754189,1,0,0:0:0:0:
256,192,754314,1,0,0:0:0:0:
256,192,754564,1,8,0:0:0:0:
256,192,754814,1,8,0:0:0:0:
256,192,755064,1,12,0:0:0:0:
256,192,755314,1,8,0:0:0:0:
256,192,755376,1,8,0:0:0:0:
256,192,755439,1,0,0:0:0:0:
256,192,755564,1,0,0:0:0:0:
256,192,755689,1,0,0:0:0:0:
256,192,755814,1,8,0:0:0:0:
256,192,755876,1,8,0:0:0:0:
256,192,755939,1,8,0:0:0:0:
256,192,756064,1,8,0:0:0:0:
256,192,756189,1,0,0:0:0:0:
256,192,756314,1,8,0:0:0:0:
256,192,756439,1,8,0:0:0:0:
256,192,756501,1,8,0:0:0:0:
256,192,756564,1,8,0:0:0:0:
256,192,756626,1,8,0:0:0:0:
256,192,756689,1,0,0:0:0:0:
256,192,756814,1,0,0:0:0:0:
256,192,756939,1,8,0:0:0:0:
256,192,757001,1,8,0:0:0:0:
256,192,757064,1,8,0:0:0:0:
256,192,757126,1,8,0:0:0:0:
256,192,757189,1,8,0:0:0:0:
256,192,757251,1,8,0:0:0:0:
256,192,757314,1,0,0:0:0:0:
256,192,757439,1,8,0:0:0:0:
256,192,757564,1,8,0:0:0:0:
256,192,757689,1,0,0:0:0:0:
256,192,757939,1,0,0:0:0:0:
256,192,758064,1,8,0:0:0:0:
256,192,758189,1,8,0:0:0:0:
256,192,758251,1,8,0:0:0:0:
256,192,758314,1,0,0:0:0:0:
256,192,758439,1,8,0:0:0:0:
256,192,758564,1,8,0:0:0:0:
256,192,758689,1,0,0:0:0:0:
256,192,758939,1,8,0:0:0:0:
256,192,759001,1,8,0:0:0:0:
256,192,759064,1,8,0:0:0:0:
256,192,759189,1,8,0:0:0:0:
256,192,759314,1,0,0:0:0:0:
256,192,759439,1,0,0:0:0:0:
256,192,759564,1,8,0:0:0:0:
256,192,759689,1,0,0:0:0:0:
256,192,759814,1,8,0:0:0:0:
256,192,759939,1,0,0:0:0:0:
256,192,760001,1,0,0:0:0:0:
256,192,760064,1,8,0:0:0:0:
256,192,760189,1,0,0:0:0:0:
256,192,760314,1,0,0:0:0:0:
256,192,760439,1,0,0:0:0:0:
256,192,760564,1,8,0:0:0:0:
256,192,760626,1,8,0:0:0:0:
256,192,760689,1,0,0:0:0:0:
256,192,760751,1,0,0:0:0:0:
256,192,760814,1,8,0:0:0:0:
256,192,760939,1,8,0:0:0:0:
256,192,761064,1,0,0:0:0:0:
256,192,761189,1,8,0:0:0:0:
256,192,761314,1,0,0:0:0:0:
256,192,761564,1,8,0:0:0:0:
256,192,761689,1,0,0:0:0:0:
256,192,761939,1,0,0:0:0:0:
256,192,762001,1,0,0:0:0:0:
256,192,762064,1,8,0:0:0:0:
256,192,762189,1,8,0:0:0:0:
256,192,762314,1,0,0:0:0:0:
256,192,762439,1,8,0:0:0:0:
256,192,762564,1,8,0:0:0:0:
256,192,762689,1,0,0:0:0:0:
256,192,762814,1,8,0:0:0:0:
256,192,762876,1,8,0:0:0:0:
256,192,762939,1,8,0:0:0:0:
256,192,763064,1,0,0:0:0:0:
256,192,763189,1,8,0:0:0:0:
256,192,763314,1,0,0:0:0:0:
256,192,763564,1,8,0:0:0:0:
256,192,763689,1,0,0:0:0:0:
256,192,763939,1,8,0:0:0:0:
256,192,764064,1,8,0:0:0:0:
256,192,764189,1,8,0:0:0:0:
256,192,764314,1,0,0:0:0:0:
256,192,764439,1,0,0:0:0:0:
256,192,764564,1,8,0:0:0:0:
256,192,764689,1,0,0:0:0:0:
256,192,764814,1,8,0:0:0:0:
256,192,765064,1,8,0:0:0:0:
256,192,765126,1,8,0:0:0:0:
256,192,765189,1,8,0:0:0:0:
256,192,765314,1,0,0:0:0:0:
256,192,765564,1,8,0:0:0:0:
256,192,765689,1,0,0:0:0:0:
256,192,765814,1,8,0:0:0:0:
256,192,765939,1,0,0:0:0:0:
256,192,766001,1,0,0:0:0:0:
256,192,766064,1,8,0:0:0:0:
256,192,766189,1,8,0:0:0:0:
256,192,766314,1,0,0:0:0:0:
256,192,766439,1,8,0:0:0:0:
256,192,766564,1,8,0:0:0:0:
256,192,766689,1,0,0:0:0:0:
256,192,766814,1,8,0:0:0:0:
256,192,766876,1,8,0:0:0:0:
256,192,766939,1,0,0:0:0:0:
256,192,767001,1,0,0:0:0:0:
256,192,767064,1,8,0:0:0:0:
256,192,767189,1,8,0:0:0:0:
256,192,767314,1,0,0:0:0:0:
256,192,767564,1,8,0:0:0:0:
256,192,767689,1,0,0:0:0:0:
256,192,767814,1,8,0:0:0:0:
256,192,767876,1,8,0:0:0:0:
256,192,767939,1,8,0:0:0:0:
256,192,768001,1,8,0:0:0:0:
256,192,768064,1,0,0:0:0:0:
256,192,768189,1,8,0:0:0:0:
256,192,768314,1,0,0:0:0:0:
256,192,768439,1,8,0:0:0:0:
256,192,768564,1,8,0:0:0:0:
256,192,768689,1,0,0:0:0:0:
256,192,768939,1,0,0:0:0:0:
256,192,769064,1,8,0:0:0:0:
256,192,769314,1,0,0:0:0:0:
256,192,769376,1,0,0:0:0:0:
256,192,769439,1,0,0:0:0:0:
256,192,769564,1,8,0:0:0:0:
256,192,769689,1,0,0:0:0:0:
256,192,769814,1,0,0:0:0:0:
256,192,769939,1,0,0:0:0:0:
256,192,770064,1,8,0:0:0:0:
256,192,770126,1,8,0:0:0:0:
256,192,770189,1,8,0:0:0:0:
256,192,770314,1,0,0:0:0:0:
256,192,770376,1,0,0:0:0:0:
256,192,770439,1,0,0:0:0:0:
256,192,770564,1,8,0:0:0:0:
256,192,770626,1,8,0:0:0:0:
256,192,770689,1,0,0:0:0:0:
256,192,770814,1,0,0:0:0:0:
256,192,770939,1,0,0:0:0:0:
256,192,771064,1,8,0:0:0:0:
256,192,771126,1,8,0:0:0:0:
256,192,771189,1,8,0:0:0:0:
256,192,771251,1,8,0:0:0:0:
256,192,771314,1,0,0:0:0:0:
256,192,771439,1,8,0:0:0:0:
256,192,771564,1,8,0:0:0:0:
256,192,771689,1,0,0:0:0:0:
256,192,771939,1,0,0:0:0:0:
256,192,772001,1,0,0:0:0:0:
256,192,772064,1,8,0:0:0:0:
256,192,772189,1,8,0:0:0:0:
256,192,772314,1,0,0:0:0:0:
256,192,772439,1,8,0:0:0:0:
256,192,772564,1,8,0:0:0:0:
256,192,772689,1,0,0:0:0:0:
256,192,772814,1,12,0:0:0:0:
256,192,773064,1,8,0:0:0:0:
256,192,773126,1,8,0:0:0:0:
256,192,773189,1,8,0:0:0:0:
256,192,773251,1,8,0:0:0:0:
256,192,773314,1,0,0:0:0:0:
256,192,773439,1,0,0:0:0:0:
256,192,773564,1,8,0:0:0:0:
256,192,773689,1,0,0:0:0:0:
256,192,773814,1,8,0:0:0:0:
256,192,773876,1,8,0:0:0:0:
256,192,773939,1,0,0:0:0:0:
256,192,774064,1,0,0:0:0:0:
256,192,774189,1,8,0:0:0:0:
256,192,774251,1,8,0:0:0:0:
256,192,774314,1,0,0:0:0:0:
256,192,774439,1,8,0:0:0:0:
256,192,774564,1,8,0:0:0:0:
256,192,774689,1,0,0:0:0:0:
256,192,774814,1,8,0:0:0:0:
256,192,774876,1,8,0:0:0:0:
256,192,774939,1,0,0:0:0:0:
256,192,775001,1,0,0:0:0:0:
256,192,775064,1,8,0:0:0:0:
256,192,775189,1,8,0:0:0:0:
256,192,775314,1,0,0:0:0:0:
256,192,775439,1,8,0:0:0:0:
256,192,775501,1,8,0:0:0:0:
256,192,775564,1,8,0:0:0:0:
256,192,775689,1,0,0:0:0:0:
256,192,775814,1,8,0:0:0:0:
256,192,775939,1,0,0:0:0:0:
256,192,776001,1,0,0:0:0:0:
256,192,776064,1,8,0:0:0:0:
256,192,776189,1,8,0:0:0:0:
256,192,776314,1,0,0:0:0:0:
256,192,776439,1,0,0:0:0:0:
256,192,776501,1,8,0:0:0:0:
256,192,776564,1,8,0:0:0:0:
256,192,776626,1,8,0:0:0:0:
256,192,776689,1,0,0:0:0:0:
256,192,776939,1,8,0:0:0:0:
256,192,777064,1,0,0:0:0:0:
256,192,777189,1,8,0:0:0:0:
256,192,777314,1,0,0:0:0:0:
256,192,777439,1,8,0:0:0:0:
256,192,777564,1,8,0:0:0:0:
256,192,777689,1,0,0:0:0:0:
256,192,777814,1,0,0:0:0:0:
256,192,777939,1,0,0:0:0:0:
256,192,778001,1,0,0:0:0:0:
256,192,778064,1,8,0:0:0:0:
256,192,778189,1,8,0:0:0:0:
256,192,778251,1,8,0:0:0:0:
256,192,778314,1,0,0:0:0:0:
256,192,778439,1,8,0:0:0:0:
256,192,778564,1,8,0:0:0:0:
256,192,778626,1,8,0:0:0:0:
256,192,778689,1,0,0:0:0:0:
256,192,778751,1,0,0:0:0:0:
256,192,778814,1,8,0:0:0:0:
256,192,778939,1,8,0:0:0:0:
256,192,779064,1,0,0:0:0:0:
256,192,779189,1,8,0:0:0:0:
256,192,779314,1,0,0:0:0:0:
256,192,779564,1,8,0:0:0:0:
256,192,779689,1,0,0:0:0:0:
256,192,779814,1,8,0:0:0:0:
256,192,779939,1,8,0:0:0:0:
256,192,780001,1,8,0:0:0:0:
256,192,780064,1,0,0:0:0:0:
256,192,780126,1,0,0:0:0:0:
256,192,780189,1,8,0:0:0:0:
256,192,780314,1,0,0:0:0:0:
256,192,780439,1,8,0:0:0:0:
256,192,780564,1,8,0:0:0:0:
256,192,780689,1,0,0:0:0:0:
256,192,780814,1,8,0:0:0:0:
256,192,781064,1,0,0:0:0:0:
256,192,781126,1,0,0:0:0:0:
256,192,781189,1,8,0:0:0:0:
256,192,781314,1,0,0:0:0:0:
256,192,781439,1,8,0:0:0:0:
256,192,781501,1,8,0:0:0:0:
256,192,781564,1,8,0:0:0:0:
256,192,781689,1,0,0:0:0:0:
256,192,781814,1,8,0:0:0:0:
256,192,781939,1,8,0:0:0:0:
256,192,782064,1,8,0:0:0:0:
256,192,782126,1,8,0:0:0:0:
256,192,782189,1,8,0:0:0:0:
256,192,782314,1,0,0:0:0:0:
256,192,782439,1,0,0:0:0:0:
256,192,782564,1,8,0:0:0:0:
256,192,782689,1,0,0:0:0:0:
256,192,782814,1,8,0:0:0:0:
256,192,782939,1,0,0:0:0:0:
256,192,783064,1,8,0:0:0:0:
256,192,783189,1,0,0:0:0:0:
256,192,783314,1,0,0:0:0:0:
256,192,783376,1,0,0:0:0:0:
256,192,783439,1,8,0:0:0:0:
256,192,783564,1,8,0:0:0:0:
256,192,783689,1,0,0:0:0:0:
256,192,783814,1,8,0:0:0:0:
256,192,783876,1,8,0:0:0:0:
256,192,783939,1,8,0:0:0:0:
256,192,784064,1,0,0:0:0:0:
256,192,784189,1,0,0:0:0:0:
256,192,784314,1,0,0:0:0:0:
256,192,784439,1,0,0:0:0:0:
256,192,784501,1,0,0:0:0:0:
256,192,784564,1,8,0:0:0:0:
256,192,784689,1,0,0:0:0:0:
256,192,784939,1,0,0:0:0:0:
256,192,785064,1,8,0:0:0:0:
256,192,785189,1,8,0:0:0:0:
256,192,785314,1,0,0:0:0:0:
256,192,785564,1,8,0:0:0:0:
256,192,785814,1,8,0:0:0:0:
256,192,786064,1,0,0:0:0:0:
256,192,786314,1,0,0:0:0:0:
256,192,786439,1,8,0:0:0:0:
256,192,786564,1,8,0:0:0:0:
256,192,786689,1,0,0:0:0:0:
256,192,786939,1,0,0:0:0:0:
256,192,787064,1,8,0:0:0:0:
256,192,787189,1,0,0:0:0:0:
256,192,787314,1,4,0:0:0:0:
256,192,787439,12,0,789064,0:0:0:0:
256,192,789314,5,0,0:0:0:0:
256,192,789439,1,8,0:0:0:0:
256,192,789564,1,0,0:0:0:0:
256,192,789689,1,0,0:0:0:0:
256,192,789814,1,8,0:0:0:0:
256,192,789939,1,0,0:0:0:0:
256,192,790064,1,8,0:0:0:0:
256,192,790189,1,0,0:0:0:0:
256,192,790314,1,0,0:0:0:0:
256,192,790439,1,8,0:0:0:0:
256,192,790564,1,8,0:0:0:0:
256,192,790689,1,0,0:0:0:0:
256,192,790814,1,8,0:0:0:0:
256,192,790939,1,8,0:0:0:0:
256,192,791064,1,0,0:0:0:0:
256,192,791189,1,8,0:0:0:0:
256,192,791314,1,0,0:0:0:0:
256,192,791439,1,0,0:0:0:0:
256,192,791501,1,8,0:0:0:0:
256,192,791564,1,8,0:0:0:0:
256,192,791689,1,0,0:0:0:0:
256,192,791814,1,8,0:0:0:0:
256,192,791876,1,8,0:0:0:0:
256,192,791939,1,8,0:0:0:0:
256,192,792064,1,0,0:0:0:0:
256,192,792189,1,8,0:0:0:0:
256,192,792314,1,0,0:0:0:0:
256,192,792439,1,0,0:0:0:0:
256,192,792564,1,8,0:0:0:0:
256,192,792689,1,8,0:0:0:0:
256,192,792814,1,0,0:0:0:0:
256,192,792939,1,0,0:0:0:0:
256,192,793064,1,8,0:0:0:0:
256,192,793189,1,0,0:0:0:0:
256,192,793314,1,0,0:0:0:0:
256,192,793439,1,0,0:0:0:0:
256,192,793564,1,8,0:0:0:0:
256,192,793689,1,0,0:0:0:0:
256,192,793814,1,8,0:0:0:0:
256,192,793876,1,8,0:0:0:0:
256,192,793939,1,8,0:0:0:0:
256,192,794064,1,0,0:0:0:0:
256,192,794189,1,0,0:0:0:0:
256,192,794314,1,8,0:0:0:0:
256,192,794376,1,8,0:0:0:0:
256,192,794439,1,0,0:0:0:0:
256,192,794501,1,0,0:0:0:0:
256,192,794564,1,8,0:0:0:0:
256,192,794689,1,0,0:0:0:0:
256,192,794814,1,8,0:0:0:0:
256,192,794939,1,8,0:0:0:0:
256,192,795064,1,0,0:0:0:0:
256,192,795126,1,0,0:0:0:0:
256,192,795189,1,8,0:0:0:0:
256,192,795314,1,0,0:0:0:0:
256,192,795439,1,0,0:0:0:0:
256,192,795564,1,8,0:0:0:0:
256,192,795689,1,0,0:0:0:0:
256,192,795814,1,8,0:0:0:0:
256,192,795939,1,8,0:0:0:0:
256,192,796064,1,0,0:0:0:0:
256,192,796189,1,8,0:0:0:0:
256,192,796314,1,0,0:0:0:0:
256,192,796439,1,0,0:0:0:0:
256,192,796564,1,8,0:0:0:0:
256,192,796689,1,0,0:0:0:0:
256,192,796814,1,8,0:0:0:0:
256,192,796876,1,8,0:0:0:0:
256,192,796939,1,0,0:0:0:0:
256,192,797064,1,0,0:0:0:0:
256,192,797189,1,8,0:0:0:0:
256,192,797314,1,0,0:0:0:0:
256,192,797564,1,8,0:0:0:0:
256,192,797689,1,0,0:0:0:0:
256,192,797814,1,8,0:0:0:0:
256,192,797939,1,8,0:0:0:0:
256,192,798064,1,0,0:0:0:0:
256,192,798189,1,8,0:0:0:0:
256,192,798314,1,0,0:0:0:0:
256,192,798439,1,0,0:0:0:0:
256,192,798564,1,8,0:0:0:0:
256,192,798626,1,8,0:0:0:0:
256,192,798689,1,0,0:0:0:0:
256,192,798814,1,8,0:0:0:0:
256,192,798939,1,8,0:0:0:0:
256,192,799064,1,0,0:0:0:0:
256,192,799126,1,0,0:0:0:0:
256,192,799189,1,8,0:0:0:0:
256,192,799314,1,0,0:0:0:0:
256,192,799439,1,0,0:0:0:0:
256,192,799564,1,8,0:0:0:0:
256,192,799689,1,0,0:0:0:0:
256,192,799814,1,8,0:0:0:0:
256,192,799939,1,8,0:0:0:0:
256,192,800064,1,0,0:0:0:0:
256,192,800189,1,8,0:0:0:0:
256,192,800314,1,0,0:0:0:0:
256,192,800439,1,8,0:0:0:0:
256,192,800501,1,8,0:0:0:0:
256,192,800564,1,0,0:0:0:0:
256,192,800689,1,8,0:0:0:0:
256,192,800814,1,0,0:0:0:0:
256,192,800876,1,8,0:0:0:0:
256,192,800939,1,8,0:0:0:0:
256,192,801001,1,8,0:0:0:0:
256,192,801064,1,0,0:0:0:0:
256,192,801189,1,8,0:0:0:0:
256,192,801314,1,0,0:0:0:0:
256,192,801564,1,8,0:0:0:0:
256,192,801689,1,0,0:0:0:0:
256,192,801814,1,8,0:0:0:0:
256,192,801939,1,8,0:0:0:0:
256,192,802064,1,0,0:0:0:0:
256,192,802189,1,8,0:0:0:0:
256,192,802314,1,0,0:0:0:0:
256,192,802439,1,8,0:0:0:0:
256,192,802564,1,8,0:0:0:0:
256,192,802689,1,0,0:0:0:0:
256,192,802814,1,8,0:0:0:0:
256,192,802939,1,0,0:0:0:0:
256,192,803064,1,0,0:0:0:0:
256,192,803189,1,8,0:0:0:0:
256,192,803314,1,0,0:0:0:0:
256,192,803439,1,8,0:0:0:0:
256,192,803564,1,0,0:0:0:0:
256,192,803689,1,8,0:0:0:0:
256,192,803814,1,0,0:0:0:0:
256,192,803939,1,8,0:0:0:0:
256,192,804064,1,0,0:0:0:0:
256,192,804189,1,8,0:0:0:0:
256,192,804314,1,0,0:0:0:0:
256,192,804439,1,0,0:0:0:0:
256,192,804564,1,8,0:0:0:0:
256,192,804689,1,8,0:0:0:0:
256,192,804814,1,0,0:0:0:0:
256,192,804939,1,8,0:0:0:0:
256,192,805064,1,0,0:0:0:0:
256,192,805189,1,8,0:0:0:0:
256,192,805314,1,4,0:0:0:0:
256,192,805439,1,0,0:0:0:0:
256,192,805564,1,8,0:0:0:0:
256,192,805626,1,8,0:0:0:0:
256,192,805689,1,8,0:0:0:0:
256,192,805814,1,0,0:0:0:0:
256,192,805939,1,8,0:0:0:0:
256,192,806064,1,0,0:0:0:0:
256,192,806189,1,8,0:0:0:0:
256,192,806314,1,0,0:0:0:0:
256,192,806439,1,0,0:0:0:0:
256,192,806564,1,8,0:0:0:0:
256,192,806689,1,0,0:0:0:0:
256,192,806814,1,8,0:0:0:0:
256,192,806939,1,8,0:0:0:0:
256,192,807001,1,8,0:0:0:0:
256,192,807064,1,0,0:0:0:0:
256,192,807189,1,8,0:0:0:0:
256,192,807314,1,0,0:0:0:0:
256,192,807439,1,8,0:0:0:0:
256,192,807501,1,8,0:0:0:0:
256,192,807564,1,8,0:0:0:0:
256,192,807689,1,0,0:0:0:0:
256,192,807814,1,8,0:0:0:0:
256,192,807939,1,8,0:0:0:0:
256,192,808064,1,0,0:0:0:0:
256,192,808189,1,8,0:0:0:0:
256,192,808314,1,0,0:0:0:0:
256,192,808564,1,8,0:0:0:0:
256,192,808689,1,8,0:0:0:0:
256,192,808814,1,0,0:0:0:0:
256,192,808939,1,0,0:0:0:0:
256,192,809064,1,8,0:0:0:0:
256,192,809189,1,0,0:0:0:0:
256,192,809314,1,0,0:0:0:0:
256,192,809439,1,0,0:0:0:0:
256,192,809564,1,8,0:0:0:0:
256,192,809689,1,0,0:0:0:0:
256,192,809814,1,8,0:0:0:0:
256,192,809939,1,8,0:0:0:0:
256,192,810001,1,8,0:0:0:0:
256,192,810064,1,0,0:0:0:0:
256,192,810189,1,8,0:0:0:0:
256,192,810314,1,0,0:0:0:0:
256,192,810439,1,0,0:0:0:0:
256,192,810564,1,8,0:0:0:0:
256,192,810626,1,8,0:0:0:0:
256,192,810689,1,0,0:0:0:0:
256,192,810814,1,0,0:0:0:0:
256,192,810939,1,0,0:0:0:0:
256,192,811064,1,8,0:0:0:0:
256,192,811126,1,8,0:0:0:0:
256,192,811189,1,8,0:0:0:0:
256,192,811314,1,0,0:0:0:0:
256,192,811439,1,8,0:0:0:0:
256,192,811564,1,0,0:0:0:0:
256,192,811689,1,0,0:0:0:0:
256,192,811814,1,8,0:0:0:0:
256,192,811939,1,8,0:0:0:0:
256,192,812064,1,0,0:0:0:0:
256,192,812189,1,0,0:0:0:0:
256,192,812314,1,0,0:0:0:0:
256,192,812439,1,8,0:0:0:0:
256,192,812564,1,0,0:0:0:0:
256,192,812689,1,8,0:0:0:0:
256,192,812814,1,0,0:0:0:0:
256,192,812876,1,0,0:0:0:0:
256,192,812939,1,8,0:0:0:0:
256,192,813064,1,8,0:0:0:0:
256,192,813189,1,0,0:0:0:0:
256,192,813314,1,0,0:0:0:0:
256,192,813564,1,0,0:0:0:0:
256,192,813689,1,8,0:0:0:0:
256,192,813814,1,0,0:0:0:0:
256,192,813939,1,0,0:0:0:0:
256,192,814064,1,8,0:0:0:0:
256,192,814189,1,0,0:0:0:0:
256,192,814314,1,8,0:0:0:0:
256,192,814439,1,0,0:0:0:0:
256,192,814564,1,0,0:0:0:0:
256,192,814689,1,8,0:0:0:0:
256,192,814814,1,0,0:0:0:0:
256,192,814939,1,0,0:0:0:0:
256,192,815064,1,8,0:0:0:0:
256,192,815189,1,0,0:0:0:0:
256,192,815314,1,8,0:0:0:0:
256,192,815376,1,8,0:0:0:0:
256,192,815439,1,0,0:0:0:0:
256,192,815564,1,8,0:0:0:0:
256,192,815689,1,0,0:0:0:0:
256,192,815814,1,8,0:0:0:0:
256,192,815876,1,8,0:0:0:0:
256,192,815939,1,8,0:0:0:0:
256,192,816001,1,8,0:0:0:0:
256,192,816064,1,0,0:0:0:0:
256,192,816189,1,8,0:0:0:0:
256,192,816314,1,0,0:0:0:0:
256,192,816439,1,8,0:0:0:0:
256,192,816564,1,0,0:0:0:0:
256,192,816689,1,8,0:0:0:0:
256,192,816814,1,0,0:0:0:0:
256,192,816876,1,0,0:0:0:0:
256,192,816939,1,8,0:0:0:0:
256,192,817064,1,0,0:0:0:0:
256,192,817189,1,8,0:0:0:0:
256,192,817314,1,0,0:0:0:0:
256,192,817564,1,8,0:0:0:0:
256,192,817689,1,0,0:0:0:0:
256,192,817814,1,8,0:0:0:0:
256,192,817876,1,8,0:0:0:0:
256,192,817939,1,0,0:0:0:0:
256,192,818064,1,0,0:0:0:0:
256,192,818189,1,8,0:0:0:0:
256,192,818314,1,0,0:0:0:0:
256,192,818439,1,8,0:0:0:0:
256,192,818501,1,8,0:0:0:0:
256,192,818564,1,8,0:0:0:0:
256,192,818689,1,0,0:0:0:0:
256,192,818814,1,8,0:0:0:0:
256,192,818876,1,8,0:0:0:0:
256,192,818939,1,0,0:0:0:0:
256,192,819001,1,0,0:0:0:0:
256,192,819064,1,8,0:0:0:0:
256,192,819189,1,8,0:0:0:0:
256,192,819314,1,0,0:0:0:0:
256,192,819439,1,8,0:0:0:0:
256,192,819564,1,0,0:0:0:0:
256,192,819689,1,8,0:0:0:0:
256,192,819814,1,0,0:0:0:0:
256,192,819876,1,0,0:0:0:0:
256,192,819939,1,8,0:0:0:0:
256,192,820001,1,8,0:0:0:0:
256,192,820064,1,0,0:0:0:0:
256,192,820189,1,8,0:0:0:0:
256,192,820313,1,0,0:0:0:0:
256,192,820376,1,0,0:0:0:0:
256,192,820438,1,8,0:0:0:0:
256,192,820563,1,8,0:0:0:0:
256,192,820689,1,8,0:0:0:0:
256,192,820813,1,0,0:0:0:0:
256,192,820876,1,0,0:0:0:0:
256,192,820938,1,0,0:0:0:0:
256,192,821001,1,0,0:0:0:0:
256,192,821063,1,8,0:0:0:0:
256,192,821126,1,8,0:0:0:0:
256,192,821188,1,8,0:0:0:0:
256,192,821314,1,4,0:0:0:0:
256,192,830314,21,8,0:0:0:0:
256,192,830564,5,0,0:0:0:0:
256,192,830689,1,0,0:0:0:0:
256,192,830814,5,8,0:0:0:0:
256,192,831064,5,0,0:0:0:0:
256,192,831189,5,8,0:0:0:0:
256,192,831439,5,0,0:0:0:0:
256,192,831564,5,8,0:0:0:0:
256,192,831814,1,8,0:0:0:0:
256,192,831939,5,0,0:0:0:0:
256,192,832064,1,0,0:0:0:0:
256,192,832189,5,8,0:0:0:0:
256,192,832314,1,8,0:0:0:0:
256,192,832564,5,0,0:0:0:0:
256,192,832689,1,0,0:0:0:0:
256,192,832814,5,8,0:0:0:0:
256,192,833064,5,0,0:0:0:0:
256,192,833189,5,8,0:0:0:0:
256,192,833439,1,8,0:0:0:0:
256,192,833564,5,0,0:0:0:0:
256,192,833689,5,8,0:0:0:0:
256,192,833939,5,0,0:0:0:0:
256,192,834064,1,0,0:0:0:0:
256,192,834189,1,0,0:0:0:0:
256,192,834314,5,8,0:0:0:0:
256,192,834564,5,0,0:0:0:0:
256,192,834689,1,0,0:0:0:0:
256,192,834814,5,8,0:0:0:0:
256,192,835064,5,0,0:0:0:0:
256,192,835189,1,0,0:0:0:0:
256,192,835439,1,0,0:0:0:0:
256,192,835564,5,8,0:0:0:0:
256,192,835814,5,0,0:0:0:0:
256,192,835939,1,0,0:0:0:0:
256,192,836064,5,8,0:0:0:0:
256,192,836189,5,0,0:0:0:0:
256,192,836314,5,8,0:0:0:0:
256,192,836564,5,0,0:0:0:0:
256,192,836689,1,0,0:0:0:0:
256,192,836814,5,8,0:0:0:0:
256,192,837064,5,0,0:0:0:0:
256,192,837189,5,8,0:0:0:0:
256,192,837439,5,0,0:0:0:0:
256,192,837564,5,8,0:0:0:0:
256,192,837814,5,0,0:0:0:0:
256,192,837939,1,0,0:0:0:0:
256,192,838064,5,8,0:0:0:0:
256,192,838189,5,0,0:0:0:0:
256,192,838314,5,8,0:0:0:0:
256,192,838564,5,0,0:0:0:0:
256,192,838689,1,0,0:0:0:0:
256,192,838814,5,8,0:0:0:0:
256,192,839064,5,0,0:0:0:0:
256,192,839189,5,8,0:0:0:0:
256,192,839439,5,0,0:0:0:0:
256,192,839564,5,8,0:0:0:0:
256,192,839814,1,8,0:0:0:0:
256,192,839939,5,0,0:0:0:0:
256,192,840064,1,0,0:0:0:0:
256,192,840189,1,0,0:0:0:0:
256,192,840314,5,8,0:0:0:0:
256,192,840564,5,0,0:0:0:0:
256,192,840689,1,0,0:0:0:0:
256,192,840814,5,8,0:0:0:0:
256,192,841064,5,0,0:0:0:0:
256,192,841189,1,0,0:0:0:0:
256,192,841314,1,0,0:0:0:0:
256,192,841439,5,8,0:0:0:0:
256,192,841564,5,0,0:0:0:0:
256,192,841689,5,8,0:0:0:0:
256,192,841939,5,0,0:0:0:0:
256,192,842064,1,0,0:0:0:0:
256,192,842189,5,8,0:0:0:0:
256,192,842314,1,8,0:0:0:0:
256,192,842439,5,0,0:0:0:0:
256,192,842564,1,0,0:0:0:0:
256,192,842689,1,0,0:0:0:0:
256,192,842814,5,8,0:0:0:0:
256,192,842939,1,8,0:0:0:0:
256,192,843064,5,0,0:0:0:0:
256,192,843189,1,0,0:0:0:0:
256,192,843439,1,0,0:0:0:0:
256,192,843564,5,8,0:0:0:0:
256,192,843814,5,0,0:0:0:0:
256,192,843939,1,0,0:0:0:0:
256,192,844064,5,8,0:0:0:0:
256,192,844189,5,0,0:0:0:0:
256,192,844314,5,8,0:0:0:0:
256,192,844564,5,0,0:0:0:0:
256,192,844689,1,0,0:0:0:0:
256,192,844814,5,8,0:0:0:0:
256,192,845064,5,0,0:0:0:0:
256,192,845189,5,8,0:0:0:0:
256,192,845314,5,0,0:0:0:0:
256,192,845439,5,8,0:0:0:0:
256,192,845564,1,8,0:0:0:0:
256,192,845689,12,8,846189,0:0:0:0:
256,192,846314,5,4,0:0:0:0:
256,192,846439,5,8,0:0:0:0:
256,192,846501,1,8,0:0:0:0:
256,192,846564,5,0,0:0:0:0:
256,192,846626,5,8,0:0:0:0:
256,192,846689,5,0,0:0:0:0:
256,192,846814,1,0,0:0:0:0:
256,192,846939,5,8,0:0:0:0:
256,192,847001,5,0,0:0:0:0:
256,192,847064,5,8,0:0:0:0:
256,192,847126,1,8,0:0:0:0:
256,192,847189,5,0,0:0:0:0:
256,192,847314,1,0,0:0:0:0:
256,192,847439,5,8,0:0:0:0:
256,192,847501,1,8,0:0:0:0:
256,192,847564,5,0,0:0:0:0:
256,192,847626,5,8,0:0:0:0:
256,192,847689,1,8,0:0:0:0:
256,192,847814,5,0,0:0:0:0:
256,192,847939,5,8,0:0:0:0:
256,192,848001,1,8,0:0:0:0:
256,192,848064,5,0,0:0:0:0:
256,192,848126,5,8,0:0:0:0:
256,192,848189,1,8,0:0:0:0:
256,192,848314,5,0,0:0:0:0:
256,192,848439,5,8,0:0:0:0:
256,192,848564,1,8,0:0:0:0:
256,192,848626,1,8,0:0:0:0:
256,192,848689,5,0,0:0:0:0:
256,192,848814,1,0,0:0:0:0:
256,192,848939,5,8,0:0:0:0:
256,192,849001,1,8,0:0:0:0:
256,192,849064,5,0,0:0:0:0:
256,192,849189,5,8,0:0:0:0:
256,192,849251,1,8,0:0:0:0:
256,192,849314,5,0,0:0:0:0:
256,192,849439,1,0,0:0:0:0:
256,192,849564,5,8,0:0:0:0:
256,192,849626,1,8,0:0:0:0:
256,192,849689,5,0,0:0:0:0:
256,192,849751,5,8,0:0:0:0:
256,192,849814,5,0,0:0:0:0:
256,192,849939,5,8,0:0:0:0:
256,192,850064,5,0,0:0:0:0:
256,192,850189,5,8,0:0:0:0:
256,192,850251,1,8,0:0:0:0:
256,192,850314,5,0,0:0:0:0:
256,192,850439,1,0,0:0:0:0:
256,192,850564,5,8,0:0:0:0:
256,192,850626,5,0,0:0:0:0:
256,192,850689,1,0,0:0:0:0:
256,192,850814,1,0,0:0:0:0:
256,192,850939,5,8,0:0:0:0:
256,192,851001,1,8,0:0:0:0:
256,192,851064,5,0,0:0:0:0:
256,192,851189,1,0,0:0:0:0:
256,192,851251,5,8,0:0:0:0:
256,192,851314,5,0,0:0:0:0:
256,192,851439,5,8,0:0:0:0:
256,192,851501,1,8,0:0:0:0:
256,192,851564,1,8,0:0:0:0:
256,192,851689,5,0,0:0:0:0:
256,192,851814,5,8,0:0:0:0:
256,192,851939,1,8,0:0:0:0:
256,192,852001,1,8,0:0:0:0:
256,192,852064,5,0,0:0:0:0:
256,192,852189,5,8,0:0:0:0:
256,192,852251,1,8,0:0:0:0:
256,192,852314,5,0,0:0:0:0:
256,192,852376,5,8,0:0:0:0:
256,192,852439,1,8,0:0:0:0:
256,192,852564,1,8,0:0:0:0:
256,192,852626,1,8,0:0:0:0:
256,192,852689,5,0,0:0:0:0:
256,192,852814,1,0,0:0:0:0:
256,192,852939,5,8,0:0:0:0:
256,192,853001,5,0,0:0:0:0:
256,192,853064,5,8,0:0:0:0:
256,192,853189,1,8,0:0:0:0:
256,192,853251,1,8,0:0:0:0:
256,192,853314,5,0,0:0:0:0:
256,192,853439,1,0,0:0:0:0:
256,192,853501,5,8,0:0:0:0:
256,192,853564,5,0,0:0:0:0:
256,192,853689,5,8,0:0:0:0:
256,192,853751,1,8,0:0:0:0:
256,192,853814,1,8,0:0:0:0:
256,192,853876,1,8,0:0:0:0:
256,192,853939,5,0,0:0:0:0:
256,192,854001,1,0,0:0:0:0:
256,192,854064,5,8,0:0:0:0:
256,192,854189,1,8,0:0:0:0:
256,192,854314,5,0,0:0:0:0:
256,192,854439,5,8,0:0:0:0:
256,192,854564,1,8,0:0:0:0:
256,192,854626,1,8,0:0:0:0:
256,192,854689,5,0,0:0:0:0:
256,192,854814,1,0,0:0:0:0:
256,192,854939,5,8,0:0:0:0:
256,192,855001,1,8,0:0:0:0:
256,192,855064,5,0,0:0:0:0:
256,192,855189,5,8,0:0:0:0:
256,192,855251,1,8,0:0:0:0:
256,192,855314,5,0,0:0:0:0:
256,192,855439,5,8,0:0:0:0:
256,192,855501,1,8,0:0:0:0:
256,192,855564,1,8,0:0:0:0:
256,192,855689,5,0,0:0:0:0:
256,192,855814,5,8,0:0:0:0:
256,192,855876,1,8,0:0:0:0:
256,192,855939,1,8,0:0:0:0:
256,192,856064,5,0,0:0:0:0:
256,192,856189,5,8,0:0:0:0:
256,192,856251,1,8,0:0:0:0:
256,192,856314,5,0,0:0:0:0:
256,192,856439,5,8,0:0:0:0:
256,192,856501,1,8,0:0:0:0:
256,192,856564,1,8,0:0:0:0:
256,192,856689,5,0,0:0:0:0:
256,192,856814,5,8,0:0:0:0:
256,192,856876,1,8,0:0:0:0:
256,192,856939,5,0,0:0:0:0:
256,192,857001,5,8,0:0:0:0:
256,192,857064,1,8,0:0:0:0:
256,192,857189,1,8,0:0:0:0:
256,192,857251,1,8,0:0:0:0:
256,192,857314,5,0,0:0:0:0:
256,192,857439,5,8,0:0:0:0:
256,192,857501,1,8,0:0:0:0:
256,192,857564,1,8,0:0:0:0:
256,192,857689,5,0,0:0:0:0:
256,192,857814,5,8,0:0:0:0:
256,192,857876,1,8,0:0:0:0:
256,192,857939,1,8,0:0:0:0:
256,192,858001,1,8,0:0:0:0:
256,192,858064,5,0,0:0:0:0:
256,192,858189,5,8,0:0:0:0:
256,192,858251,1,8,0:0:0:0:
256,192,858314,5,0,0:0:0:0:
256,192,858439,5,8,0:0:0:0:
256,192,858564,5,0,0:0:0:0:
256,192,858626,5,8,0:0:0:0:
256,192,858689,5,0,0:0:0:0:
256,192,858814,5,8,0:0:0:0:
256,192,858939,1,8,0:0:0:0:
256,192,859001,1,8,0:0:0:0:
256,192,859064,5,0,0:0:0:0:
256,192,859189,5,8,0:0:0:0:
256,192,859251,1,8,0:0:0:0:
256,192,859314,5,0,0:0:0:0:
256,192,859439,5,8,0:0:0:0:
256,192,859564,1,8,0:0:0:0:
256,192,859626,1,8,0:0:0:0:
256,192,859689,5,0,0:0:0:0:
256,192,859814,5,8,0:0:0:0:
256,192,859939,1,8,0:0:0:0:
256,192,860001,1,8,0:0:0:0:
256,192,860064,5,0,0:0:0:0:
256,192,860189,5,8,0:0:0:0:
256,192,860251,1,8,0:0:0:0:
256,192,860314,5,0,0:0:0:0:
256,192,860439,5,8,0:0:0:0:
256,192,860564,1,8,0:0:0:0:
256,192,860626,1,8,0:0:0:0:
256,192,860689,5,0,0:0:0:0:
256,192,860814,5,8,0:0:0:0:
256,192,860876,1,8,0:0:0:0:
256,192,860939,1,8,0:0:0:0:
256,192,861001,1,8,0:0:0:0:
256,192,861064,5,0,0:0:0:0:
256,192,861189,5,8,0:0:0:0:
256,192,861251,1,8,0:0:0:0:
256,192,861314,5,0,0:0:0:0:
256,192,861439,5,8,0:0:0:0:
256,192,861501,1,8,0:0:0:0:
256,192,861564,5,0,0:0:0:0:
256,192,861689,5,8,0:0:0:0:
256,192,861751,5,0,0:0:0:0:
256,192,861814,1,0,0:0:0:0:
256,192,861876,5,8,0:0:0:0:
256,192,861939,5,0,0:0:0:0:
256,192,862001,1,0,0:0:0:0:
256,192,862064,5,8,0:0:0:0:
256,192,862189,1,8,0:0:0:0:
256,192,862314,5,0,0:0:0:0:
256,192,862689,5,8,0:0:0:0:
256,192,862814,1,8,0:0:0:0:
256,192,863189,1,8,0:0:0:0:
256,192,863439,5,0,0:0:0:0:
256,192,863564,5,8,0:0:0:0:
256,192,863814,1,8,0:0:0:0:
256,192,864189,5,0,0:0:0:0:
256,192,864314,5,12,0:0:0:0:
256,192,864689,5,0,0:0:0:0:
256,192,864814,5,8,0:0:0:0:
256,192,865314,1,8,0:0:0:0:
256,192,865439,1,8,0:0:0:0:
256,192,865564,5,0,0:0:0:0:
256,192,865689,5,8,0:0:0:0:
256,192,865814,5,0,0:0:0:0:
256,192,866064,5,8,0:0:0:0:
256,192,866189,5,0,0:0:0:0:
256,192,866314,5,8,0:0:0:0:
256,192,866439,5,0,0:0:0:0:
256,192,866564,5,8,0:0:0:0:
256,192,866689,1,8,0:0:0:0:
256,192,866814,1,8,0:0:0:0:
256,192,866939,5,0,0:0:0:0:
256,192,867064,5,8,0:0:0:0:
256,192,867564,1,8,0:0:0:0:
256,192,867814,5,0,0:0:0:0:
256,192,868064,5,8,0:0:0:0:
256,192,868189,1,8,0:0:0:0:
256,192,868314,5,0,0:0:0:0:
256,192,868814,5,8,0:0:0:0:
256,192,868939,1,8,0:0:0:0:
256,192,869314,5,0,0:0:0:0:
256,192,869439,5,8,0:0:0:0:
256,192,869564,1,8,0:0:0:0:
256,192,870314,5,4,0:0:0:0:
256,192,870564,1,0,0:0:0:0:
256,192,870689,1,0,0:0:0:0:
256,192,870814,5,8,0:0:0:0:
256,192,871064,5,0,0:0:0:0:
256,192,871189,5,8,0:0:0:0:
256,192,871439,5,0,0:0:0:0:
256,192,871564,5,8,0:0:0:0:
256,192,871814,1,8,0:0:0:0:
256,192,872064,1,8,0:0:0:0:
256,192,872189,5,0,0:0:0:0:
256,192,872314,5,0,0:0:0:0:
256,192,872689,5,0,0:0:0:0:
256,192,872814,5,8,0:0:0:0:
256,192,873314,5,0,0:0:0:0:
256,192,873439,5,8,0:0:0:0:
256,192,873689,1,8,0:0:0:0:
256,192,873939,5,0,0:0:0:0:
256,192,874064,5,8,0:0:0:0:
256,192,874189,5,0,0:0:0:0:
256,192,874314,5,8,0:0:0:0:
256,192,874564,5,0,0:0:0:0:
256,192,874689,1,0,0:0:0:0:
256,192,874814,5,8,0:0:0:0:
256,192,875564,1,8,0:0:0:0:
256,192,875814,5,0,0:0:0:0:
256,192,875939,1,0,0:0:0:0:
256,192,876064,5,8,0:0:0:0:
256,192,876314,5,0,0:0:0:0:
256,192,876439,12,4,878189,0:0:0:0:
256,192,878314,5,4,0:0:0:0:
256,192,878564,5,0,0:0:0:0:
256,192,878689,1,0,0:0:0:0:
256,192,878814,5,8,0:0:0:0:
256,192,879064,5,0,0:0:0:0:
256,192,879189,5,8,0:0:0:0:
256,192,879439,1,8,0:0:0:0:
256,192,879564,1,8,0:0:0:0:
256,192,879689,5,0,0:0:0:0:
256,192,879814,5,8,0:0:0:0:
256,192,879939,5,0,0:0:0:0:
256,192,880064,5,8,0:0:0:0:
256,192,880189,5,0,0:0:0:0:
256,192,880314,5,8,0:0:0:0:
256,192,880564,5,0,0:0:0:0:
256,192,880689,1,0,0:0:0:0:
256,192,880814,5,8,0:0:0:0:
256,192,881064,5,0,0:0:0:0:
256,192,881189,5,8,0:0:0:0:
256,192,881314,5,0,0:0:0:0:
256,192,881439,5,8,0:0:0:0:
256,192,881564,1,8,0:0:0:0:
256,192,881689,5,0,0:0:0:0:
256,192,881939,1,0,0:0:0:0:
256,192,882064,5,8,0:0:0:0:
256,192,882189,5,0,0:0:0:0:
256,192,882314,5,8,0:0:0:0:
256,192,882439,5,0,0:0:0:0:
256,192,882564,5,8,0:0:0:0:
256,192,882689,5,0,0:0:0:0:
256,192,882814,5,8,0:0:0:0:
256,192,883064,5,0,0:0:0:0:
256,192,883189,1,0,0:0:0:0:
256,192,883439,1,0,0:0:0:0:
256,192,883564,1,0,0:0:0:0:
256,192,883689,1,0,0:0:0:0:
256,192,883814,1,0,0:0:0:0:
256,192,883939,1,0,0:0:0:0:
256,192,884064,1,0,0:0:0:0:
256,192,884189,1,0,0:0:0:0:
256,192,884314,5,8,0:0:0:0:
256,192,884439,5,0,0:0:0:0:
256,192,884564,1,0,0:0:0:0:
256,192,884689,1,0,0:0:0:0:
256,192,884814,5,8,0:0:0:0:
256,192,885064,5,0,0:0:0:0:
256,192,885189,5,8,0:0:0:0:
256,192,885439,5,0,0:0:0:0:
256,192,885564,5,8,0:0:0:0:
256,192,886314,5,4,0:0:0:0:
256,192,886439,5,8,0:0:0:0:
256,192,886501,1,8,0:0:0:0:
256,192,886564,5,0,0:0:0:0:
256,192,886689,1,0,0:0:0:0:
256,192,886814,5,8,0:0:0:0:
256,192,886876,1,8,0:0:0:0:
256,192,886939,1,8,0:0:0:0:
256,192,887001,1,8,0:0:0:0:
256,192,887064,5,0,0:0:0:0:
256,192,887189,5,8,0:0:0:0:
256,192,887251,1,8,0:0:0:0:
256,192,887314,5,0,0:0:0:0:
256,192,887439,5,8,0:0:0:0:
256,192,887564,1,8,0:0:0:0:
256,192,887689,5,0,0:0:0:0:
256,192,887751,5,8,0:0:0:0:
256,192,887814,1,8,0:0:0:0:
256,192,887876,1,8,0:0:0:0:
256,192,887939,1,8,0:0:0:0:
256,192,888001,1,8,0:0:0:0:
256,192,888064,5,0,0:0:0:0:
256,192,888189,5,8,0:0:0:0:
256,192,888251,1,8,0:0:0:0:
256,192,888314,5,0,0:0:0:0:
256,192,888439,5,8,0:0:0:0:
256,192,888564,1,8,0:0:0:0:
256,192,888626,5,0,0:0:0:0:
256,192,888689,1,0,0:0:0:0:
256,192,888814,5,8,0:0:0:0:
256,192,888939,5,0,0:0:0:0:
256,192,889001,5,8,0:0:0:0:
256,192,889064,5,0,0:0:0:0:
256,192,889189,5,8,0:0:0:0:
256,192,889251,1,8,0:0:0:0:
256,192,889314,5,0,0:0:0:0:
256,192,889439,1,0,0:0:0:0:
256,192,889564,5,8,0:0:0:0:
256,192,889626,1,8,0:0:0:0:
256,192,889689,5,0,0:0:0:0:
256,192,889751,5,8,0:0:0:0:
256,192,889814,5,0,0:0:0:0:
256,192,889939,5,8,0:0:0:0:
256,192,890001,1,8,0:0:0:0:
256,192,890064,5,0,0:0:0:0:
256,192,890189,1,0,0:0:0:0:
256,192,890251,5,8,0:0:0:0:
256,192,890314,5,0,0:0:0:0:
256,192,890439,5,8,0:0:0:0:
256,192,890564,5,0,0:0:0:0:
256,192,890626,5,8,0:0:0:0:
256,192,890689,5,0,0:0:0:0:
256,192,890814,5,8,0:0:0:0:
256,192,890939,1,8,0:0:0:0:
256,192,891001,1,8,0:0:0:0:
256,192,891064,5,0,0:0:0:0:
256,192,891189,1,0,0:0:0:0:
256,192,891251,5,8,0:0:0:0:
256,192,891314,5,0,0:0:0:0:
256,192,891439,5,8,0:0:0:0:
256,192,891564,1,8,0:0:0:0:
256,192,891626,1,8,0:0:0:0:
256,192,891689,5,0,0:0:0:0:
256,192,891751,5,8,0:0:0:0:
256,192,891814,1,8,0:0:0:0:
256,192,891939,1,8,0:0:0:0:
256,192,892001,1,8,0:0:0:0:
256,192,892064,5,0,0:0:0:0:
256,192,892189,5,8,0:0:0:0:
256,192,892251,1,8,0:0:0:0:
256,192,892314,5,0,0:0:0:0:
256,192,892439,5,8,0:0:0:0:
256,192,892564,1,8,0:0:0:0:
256,192,892689,5,0,0:0:0:0:
256,192,892814,5,8,0:0:0:0:
256,192,892939,1,8,0:0:0:0:
256,192,893001,1,8,0:0:0:0:
256,192,893064,5,0,0:0:0:0:
256,192,893126,5,8,0:0:0:0:
256,192,893189,1,8,0:0:0:0:
256,192,893251,1,8,0:0:0:0:
256,192,893314,5,0,0:0:0:0:
256,192,893376,5,8,0:0:0:0:
256,192,893439,1,8,0:0:0:0:
256,192,893501,1,8,0:0:0:0:
256,192,893564,5,0,0:0:0:0:
256,192,893689,5,8,0:0:0:0:
256,192,893751,1,8,0:0:0:0:
256,192,893814,1,8,0:0:0:0:
256,192,893876,1,8,0:0:0:0:
256,192,893939,5,0,0:0:0:0:
256,192,894064,5,8,0:0:0:0:
256,192,894189,1,8,0:0:0:0:
256,192,894314,5,0,0:0:0:0:
256,192,894376,5,8,0:0:0:0:
256,192,894439,1,8,0:0:0:0:
256,192,894501,1,8,0:0:0:0:
256,192,894564,1,8,0:0:0:0:
256,192,894689,5,0,0:0:0:0:
256,192,894814,5,8,0:0:0:0:
256,192,894939,1,8,0:0:0:0:
256,192,895001,1,8,0:0:0:0:
256,192,895064,5,0,0:0:0:0:
256,192,895189,5,8,0:0:0:0:
256,192,895251,1,8,0:0:0:0:
256,192,895314,5,0,0:0:0:0:
256,192,895439,5,8,0:0:0:0:
256,192,895564,1,8,0:0:0:0:
256,192,895626,1,8,0:0:0:0:
256,192,895689,5,0,0:0:0:0:
256,192,895814,5,8,0:0:0:0:
256,192,895939,1,8,0:0:0:0:
256,192,896001,5,0,0:0:0:0:
256,192,896064,5,8,0:0:0:0:
256,192,896189,1,8,0:0:0:0:
256,192,896251,5,0,0:0:0:0:
256,192,896314,5,8,0:0:0:0:
256,192,896439,5,0,0:0:0:0:
256,192,896564,5,8,0:0:0:0:
256,192,896626,5,0,0:0:0:0:
256,192,896689,5,8,0:0:0:0:
256,192,896814,1,8,0:0:0:0:
256,192,896939,1,8,0:0:0:0:
256,192,897001,5,0,0:0:0:0:
256,192,897064,5,8,0:0:0:0:
256,192,897189,1,8,0:0:0:0:
256,192,897251,5,0,0:0:0:0:
256,192,897314,1,0,0:0:0:0:
256,192,897439,5,8,0:0:0:0:
256,192,897501,5,0,0:0:0:0:
256,192,897564,5,8,0:0:0:0:
256,192,897689,5,0,0:0:0:0:
256,192,897814,5,8,0:0:0:0:
256,192,897939,1,8,0:0:0:0:
256,192,898001,5,0,0:0:0:0:
256,192,898064,5,8,0:0:0:0:
256,192,898189,5,0,0:0:0:0:
256,192,898251,5,8,0:0:0:0:
256,192,898314,5,0,0:0:0:0:
256,192,898439,1,0,0:0:0:0:
256,192,898564,5,8,0:0:0:0:
256,192,898626,1,8,0:0:0:0:
256,192,898689,5,0,0:0:0:0:
256,192,898814,5,8,0:0:0:0:
256,192,898939,5,0,0:0:0:0:
256,192,899001,1,0,0:0:0:0:
256,192,899064,5,8,0:0:0:0:
256,192,899189,5,0,0:0:0:0:
256,192,899251,1,0,0:0:0:0:
256,192,899314,5,8,0:0:0:0:
256,192,899376,1,8,0:0:0:0:
256,192,899439,1,8,0:0:0:0:
256,192,899501,1,8,0:0:0:0:
256,192,899564,5,0,0:0:0:0:
256,192,899689,1,0,0:0:0:0:
256,192,899814,5,8,0:0:0:0:
256,192,899939,1,8,0:0:0:0:
256,192,900064,1,8,0:0:0:0:
256,192,900126,1,8,0:0:0:0:
256,192,900189,5,0,0:0:0:0:
256,192,900251,5,8,0:0:0:0:
256,192,900314,1,8,0:0:0:0:
256,192,900439,1,8,0:0:0:0:
256,192,900564,1,8,0:0:0:0:
256,192,900689,1,8,0:0:0:0:
256,192,900814,5,0,0:0:0:0:
256,192,900939,1,0,0:0:0:0:
256,192,901064,1,0,0:0:0:0:
256,192,901126,1,0,0:0:0:0:
256,192,901189,5,8,0:0:0:0:
256,192,901314,5,0,0:0:0:0:
256,192,901439,5,8,0:0:0:0:
256,192,901564,1,8,0:0:0:0:
256,192,901689,5,0,0:0:0:0:
256,192,901814,5,8,0:0:0:0:
256,192,901939,1,8,0:0:0:0:
256,192,902064,5,0,0:0:0:0:
256,192,902189,1,0,0:0:0:0:
256,192,902251,1,0,0:0:0:0:
256,192,902314,5,8,0:0:0:0:
256,192,902814,1,8,0:0:0:0:
256,192,903189,1,8,0:0:0:0:
256,192,903439,5,0,0:0:0:0:
256,192,903564,5,8,0:0:0:0:
256,192,903814,1,8,0:0:0:0:
256,192,904064,1,8,0:0:0:0:
256,192,904189,5,0,0:0:0:0:
256,192,904314,5,8,0:0:0:0:
256,192,904564,1,8,0:0:0:0:
256,192,904689,5,0,0:0:0:0:
256,192,904814,5,8,0:0:0:0:
256,192,904939,5,0,0:0:0:0:
256,192,905189,1,0,0:0:0:0:
256,192,905439,5,8,0:0:0:0:
256,192,905564,5,0,0:0:0:0:
256,192,905689,5,8,0:0:0:0:
256,192,905814,1,8,0:0:0:0:
256,192,906064,5,0,0:0:0:0:
256,192,906189,1,0,0:0:0:0:
256,192,906314,5,8,0:0:0:0:
256,192,906564,1,8,0:0:0:0:
256,192,906689,5,0,0:0:0:0:
256,192,906814,5,8,0:0:0:0:
256,192,906939,5,0,0:0:0:0:
256,192,907189,1,0,0:0:0:0:
256,192,907314,1,0,0:0:0:0:
256,192,907439,1,0,0:0:0:0:
256,192,907564,5,8,0:0:0:0:
256,192,907814,1,12,0:0:0:0:
256,192,908064,1,8,0:0:0:0:
256,192,908189,5,0,0:0:0:0:
256,192,908314,5,8,0:0:0:0:
256,192,908376,1,8,0:0:0:0:
256,192,908439,1,8,0:0:0:0:
256,192,908564,5,0,0:0:0:0:
256,192,908814,5,8,0:0:0:0:
256,192,909064,5,0,0:0:0:0:
256,192,909314,1,0,0:0:0:0:
256,192,909439,1,0,0:0:0:0:
256,192,909564,5,8,0:0:0:0:
256,192,909814,5,0,0:0:0:0:
256,192,910064,1,0,0:0:0:0:
256,192,910189,1,0,0:0:0:0:
256,192,910314,5,8,0:0:0:0:
256,192,910564,5,0,0:0:0:0:
256,192,910689,5,8,0:0:0:0:
256,192,910814,1,8,0:0:0:0:
256,192,910939,1,8,0:0:0:0:
256,192,911064,5,0,0:0:0:0:
256,192,911189,5,8,0:0:0:0:
256,192,911251,1,8,0:0:0:0:
256,192,911314,1,8,0:0:0:0:
256,192,911439,5,0,0:0:0:0:
256,192,911564,5,8,0:0:0:0:
256,192,911814,1,8,0:0:0:0:
256,192,912064,5,0,0:0:0:0:
256,192,912189,1,0,0:0:0:0:
256,192,912314,5,8,0:0:0:0:
256,192,912564,5,0,0:0:0:0:
256,192,912689,5,8,0:0:0:0:
256,192,912814,1,8,0:0:0:0:
256,192,913064,5,0,0:0:0:0:
256,192,913189,1,0,0:0:0:0:
256,192,913314,1,0,0:0:0:0:
256,192,913439,5,8,0:0:0:0:
256,192,913564,5,0,0:0:0:0:
256,192,913689,5,8,0:0:0:0:
256,192,913814,5,0,0:0:0:0:
256,192,914064,5,8,0:0:0:0:
256,192,914189,5,0,0:0:0:0:
256,192,914314,5,8,0:0:0:0:
256,192,914376,1,8,0:0:0:0:
256,192,914439,1,8,0:0:0:0:
256,192,914564,1,8,0:0:0:0:
256,192,914689,5,0,0:0:0:0:
256,192,914814,5,8,0:0:0:0:
256,192,914939,5,0,0:0:0:0:
256,192,915064,1,0,0:0:0:0:
256,192,915314,1,0,0:0:0:0:
256,192,915439,1,0,0:0:0:0:
256,192,915564,5,8,0:0:0:0:
256,192,915814,5,0,0:0:0:0:
256,192,916064,5,8,0:0:0:0:
256,192,916189,5,0,0:0:0:0:
256,192,916314,5,8,0:0:0:0:
256,192,916439,5,0,0:0:0:0:
256,192,916564,1,0,0:0:0:0:
256,192,916814,5,8,0:0:0:0:
256,192,916939,5,0,0:0:0:0:
256,192,917064,1,0,0:0:0:0:
256,192,917189,5,8,0:0:0:0:
256,192,917251,1,8,0:0:0:0:
256,192,917314,1,8,0:0:0:0:
256,192,917439,5,0,0:0:0:0:
256,192,917564,5,8,0:0:0:0:
256,192,917814,1,8,0:0:0:0:
256,192,917939,1,8,0:0:0:0:
256,192,918064,1,8,0:0:0:0:
256,192,918189,1,8,0:0:0:0:
256,192,918314,5,0,0:0:0:0:
256,192,918439,5,8,0:0:0:0:
256,192,918501,1,8,0:0:0:0:
256,192,918564,1,8,0:0:0:0:
256,192,918689,5,0,0:0:0:0:
256,192,918814,5,8,0:0:0:0:
256,192,918939,1,8,0:0:0:0:
256,192,919001,5,0,0:0:0:0:
256,192,919064,5,8,0:0:0:0:
256,192,919189,1,8,0:0:0:0:
256,192,919314,5,0,0:0:0:0:
256,192,919376,5,8,0:0:0:0:
256,192,919439,5,0,0:0:0:0:
256,192,919564,5,8,0:0:0:0:
256,192,919689,5,0,0:0:0:0:
256,192,919814,5,8,0:0:0:0:
256,192,919939,5,0,0:0:0:0:
256,192,920064,5,8,0:0:0:0:
256,192,920189,5,0,0:0:0:0:
256,192,920314,5,8,0:0:0:0:
256,192,920439,1,8,0:0:0:0:
256,192,920564,1,0,0:0:0:0:
256,192,920689,5,8,0:0:0:0:
256,192,920814,5,0,0:0:0:0:
256,192,920939,1,8,0:0:0:0:
256,192,921001,5,0,0:0:0:0:
256,192,921064,5,8,0:0:0:0:
256,192,921126,1,8,0:0:0:0:
256,192,921189,5,0,0:0:0:0:
256,192,921314,1,0,0:0:0:0:
256,192,921376,1,0,0:0:0:0:
256,192,921439,5,8,0:0:0:0:
256,192,921501,1,8,0:0:0:0:
256,192,921564,5,0,0:0:0:0:
256,192,921689,5,8,0:0:0:0:
256,192,921814,5,0,0:0:0:0:
256,192,921939,1,0,0:0:0:0:
256,192,922064,5,8,0:0:0:0:
256,192,922189,5,0,0:0:0:0:
256,192,922314,1,0,0:0:0:0:
256,192,922439,5,8,0:0:0:0:
256,192,922564,5,0,0:0:0:0:
256,192,922689,5,8,0:0:0:0:
256,192,922814,1,8,0:0:0:0:
256,192,922939,1,8,0:0:0:0:
256,192,923001,1,8,0:0:0:0:
256,192,923064,5,0,0:0:0:0:
256,192,923189,1,0,0:0:0:0:
256,192,923314,1,0,0:0:0:0:
256,192,923376,5,8,0:0:0:0:
256,192,923439,5,0,0:0:0:0:
256,192,923564,5,8,0:0:0:0:
256,192,923626,1,8,0:0:0:0:
256,192,923689,1,8,0:0:0:0:
256,192,923814,5,0,0:0:0:0:
256,192,923939,1,0,0:0:0:0:
256,192,924064,5,8,0:0:0:0:
256,192,924189,5,0,0:0:0:0:
256,192,924314,5,8,0:0:0:0:
256,192,924376,1,8,0:0:0:0:
256,192,924439,1,8,0:0:0:0:
256,192,924564,5,0,0:0:0:0:
256,192,924689,5,8,0:0:0:0:
256,192,924814,5,0,0:0:0:0:
256,192,924939,5,8,0:0:0:0:
256,192,925001,1,8,0:0:0:0:
256,192,925064,1,8,0:0:0:0:
256,192,925189,1,8,0:0:0:0:
256,192,925314,1,8,0:0:0:0:
256,192,925376,1,8,0:0:0:0:
256,192,925439,1,8,0:0:0:0:
256,192,925564,5,0,0:0:0:0:
256,192,925689,5,8,0:0:0:0:
256,192,925814,1,8,0:0:0:0:
256,192,925939,5,0,0:0:0:0:
256,192,926064,5,8,0:0:0:0:
256,192,926189,5,0,0:0:0:0:
256,192,926314,1,0,0:0:0:0:
256,192,926439,5,8,0:0:0:0:
256,192,926564,5,0,0:0:0:0:
256,192,926689,5,8,0:0:0:0:
256,192,926814,5,0,0:0:0:0:
256,192,926876,1,0,0:0:0:0:
256,192,926939,5,8,0:0:0:0:
256,192,927001,5,0,0:0:0:0:
256,192,927064,1,0,0:0:0:0:
256,192,927126,5,8,0:0:0:0:
256,192,927189,5,0,0:0:0:0:
256,192,927314,5,8,0:0:0:0:
256,192,927376,1,8,0:0:0:0:
256,192,927439,5,0,0:0:0:0:
256,192,927501,1,0,0:0:0:0:
256,192,927564,5,8,0:0:0:0:
256,192,927689,5,0,0:0:0:0:
256,192,927814,5,8,0:0:0:0:
256,192,927939,5,0,0:0:0:0:
256,192,928064,5,8,0:0:0:0:
256,192,928189,5,0,0:0:0:0:
256,192,928314,5,8,0:0:0:0:
256,192,928376,1,8,0:0:0:0:
256,192,928439,1,8,0:0:0:0:
256,192,928564,5,0,0:0:0:0:
256,192,928626,1,0,0:0:0:0:
256,192,928689,5,8,0:0:0:0:
256,192,928814,1,8,0:0:0:0:
256,192,928876,1,8,0:0:0:0:
256,192,928939,1,8,0:0:0:0:
256,192,929001,1,8,0:0:0:0:
256,192,929064,1,8,0:0:0:0:
256,192,929126,1,8,0:0:0:0:
256,192,929189,5,0,0:0:0:0:
256,192,929314,5,8,0:0:0:0:
256,192,929376,1,8,0:0:0:0:
256,192,929439,1,8,0:0:0:0:
256,192,929501,1,8,0:0:0:0:
256,192,929564,5,0,0:0:0:0:
256,192,929689,5,8,0:0:0:0:
256,192,929751,1,8,0:0:0:0:
256,192,929814,5,0,0:0:0:0:
256,192,929939,1,0,0:0:0:0:
256,192,930064,1,0,0:0:0:0:
256,192,930189,1,0,0:0:0:0:
256,192,930314,5,8,0:0:0:0:
256,192,930439,5,8,0:0:0:0:
256,192,930564,1,0,0:0:0:0:
256,192,930689,1,0,0:0:0:0:
256,192,930814,5,8,0:0:0:0:
256,192,930939,1,8,0:0:0:0:
256,192,931001,1,8,0:0:0:0:
256,192,931064,1,8,0:0:0:0:
256,192,931126,1,8,0:0:0:0:
256,192,931189,5,0,0:0:0:0:
256,192,931314,5,8,0:0:0:0:
256,192,931376,1,8,0:0:0:0:
256,192,931439,1,8,0:0:0:0:
256,192,931564,1,8,0:0:0:0:
256,192,931689,5,0,0:0:0:0:
256,192,931814,1,0,0:0:0:0:
256,192,931939,1,0,0:0:0:0:
256,192,932064,5,8,0:0:0:0:
256,192,932189,5,0,0:0:0:0:
256,192,932314,1,0,0:0:0:0:
256,192,932439,5,8,0:0:0:0:
256,192,932564,5,0,0:0:0:0:
256,192,932689,5,8,0:0:0:0:
256,192,932814,1,8,0:0:0:0:
256,192,932939,1,8,0:0:0:0:
256,192,933064,1,8,0:0:0:0:
256,192,933189,5,0,0:0:0:0:
256,192,933251,1,0,0:0:0:0:
256,192,933314,1,0,0:0:0:0:
256,192,933439,1,0,0:0:0:0:
256,192,933501,1,0,0:0:0:0:
256,192,933564,1,0,0:0:0:0:
256,192,933689,1,0,0:0:0:0:
256,192,933751,1,0,0:0:0:0:
256,192,933814,1,0,0:0:0:0:
256,192,933939,1,0,0:0:0:0:
256,192,934064,1,0,0:0:0:0:
256,192,934189,1,0,0:0:0:0:
256,192,934314,5,8,0:0:0:0:
256,192,934564,1,8,0:0:0:0:
256,192,934814,5,0,0:0:0:0:
256,192,934939,5,8,0:0:0:0:
256,192,935314,5,0,0:0:0:0:
256,192,935564,5,8,0:0:0:0:
256,192,935814,5,0,0:0:0:0:
256,192,935939,5,8,0:0:0:0:
256,192,936314,5,0,0:0:0:0:
256,192,936564,5,8,0:0:0:0:
256,192,936814,5,0,0:0:0:0:
256,192,936939,5,8,0:0:0:0:
256,192,937314,5,0,0:0:0:0:
256,192,937564,5,8,0:0:0:0:
256,192,937814,5,0,0:0:0:0:
256,192,937939,5,8,0:0:0:0:
256,192,938314,5,0,0:0:0:0:
256,192,938564,5,8,0:0:0:0:
256,192,938814,5,0,0:0:0:0:
256,192,938939,5,8,0:0:0:0:
256,192,939314,5,0,0:0:0:0:
256,192,939564,5,8,0:0:0:0:
256,192,939814,5,0,0:0:0:0:
256,192,939939,5,8,0:0:0:0:
256,192,940314,5,0,0:0:0:0:
256,192,940564,5,8,0:0:0:0:
256,192,940814,5,0,0:0:0:0:
256,192,940939,5,8,0:0:0:0:
256,192,941314,5,0,0:0:0:0:
256,192,941439,1,0,0:0:0:0:
256,192,941564,1,0,0:0:0:0:
256,192,941814,1,0,0:0:0:0:
256,192,941939,1,0,0:0:0:0:
256,192,942001,1,0,0:0:0:0:
256,192,942064,1,0,0:0:0:0:
256,192,942189,1,0,0:0:0:0:
256,192,942314,1,4,0:0:0:0:
256,192,942439,1,0,0:0:0:0:
256,192,942564,5,8,0:0:0:0:
256,192,942689,5,0,0:0:0:0:
256,192,942814,5,8,0:0:0:0:
256,192,942939,1,8,0:0:0:0:
256,192,943001,1,8,0:0:0:0:
256,192,943064,5,0,0:0:0:0:
256,192,943189,5,8,0:0:0:0:
256,192,943251,1,8,0:0:0:0:
256,192,943314,5,0,0:0:0:0:
256,192,943439,5,8,0:0:0:0:
256,192,943564,1,8,0:0:0:0:
256,192,943689,5,0,0:0:0:0:
256,192,943814,5,8,0:0:0:0:
256,192,943939,1,8,0:0:0:0:
256,192,944001,1,8,0:0:0:0:
256,192,944064,5,0,0:0:0:0:
256,192,944189,5,8,0:0:0:0:
256,192,944251,1,8,0:0:0:0:
256,192,944314,5,0,0:0:0:0:
256,192,944439,1,0,0:0:0:0:
256,192,944564,5,8,0:0:0:0:
256,192,944626,1,8,0:0:0:0:
256,192,944689,5,0,0:0:0:0:
256,192,944814,1,0,0:0:0:0:
256,192,944939,5,8,0:0:0:0:
256,192,945064,5,0,0:0:0:0:
256,192,945189,5,8,0:0:0:0:
256,192,945251,1,8,0:0:0:0:
256,192,945314,5,0,0:0:0:0:
256,192,945439,1,0,0:0:0:0:
256,192,945564,5,8,0:0:0:0:
256,192,945626,1,8,0:0:0:0:
256,192,945689,5,0,0:0:0:0:
256,192,945814,5,8,0:0:0:0:
256,192,945939,5,0,0:0:0:0:
256,192,946001,1,0,0:0:0:0:
256,192,946064,5,8,0:0:0:0:
256,192,946189,1,8,0:0:0:0:
256,192,946251,1,8,0:0:0:0:
256,192,946314,5,0,0:0:0:0:
256,192,946439,5,8,0:0:0:0:
256,192,946564,1,8,0:0:0:0:
256,192,946626,1,8,0:0:0:0:
256,192,946689,5,0,0:0:0:0:
256,192,946814,5,8,0:0:0:0:
256,192,946939,5,0,0:0:0:0:
256,192,947001,1,0,0:0:0:0:
256,192,947064,5,8,0:0:0:0:
256,192,947189,1,8,0:0:0:0:
256,192,947251,1,8,0:0:0:0:
256,192,947314,5,0,0:0:0:0:
256,192,947439,5,8,0:0:0:0:
256,192,947564,1,8,0:0:0:0:
256,192,947626,1,8,0:0:0:0:
256,192,947689,5,0,0:0:0:0:
256,192,947814,5,8,0:0:0:0:
256,192,947939,1,8,0:0:0:0:
256,192,948001,1,8,0:0:0:0:
256,192,948064,5,0,0:0:0:0:
256,192,948189,5,8,0:0:0:0:
256,192,948251,1,8,0:0:0:0:
256,192,948314,5,0,0:0:0:0:
256,192,948439,5,8,0:0:0:0:
256,192,948564,1,8,0:0:0:0:
256,192,948626,1,8,0:0:0:0:
256,192,948689,5,0,0:0:0:0:
256,192,948814,5,8,0:0:0:0:
256,192,948939,1,8,0:0:0:0:
256,192,949001,5,0,0:0:0:0:
256,192,949064,5,8,0:0:0:0:
256,192,949189,1,8,0:0:0:0:
256,192,949314,5,0,0:0:0:0:
256,192,949439,5,8,0:0:0:0:
256,192,949501,1,8,0:0:0:0:
256,192,949564,5,0,0:0:0:0:
256,192,949689,5,8,0:0:0:0:
256,192,949751,1,8,0:0:0:0:
256,192,949814,5,0,0:0:0:0:
256,192,949876,1,0,0:0:0:0:
256,192,949939,1,0,0:0:0:0:
256,192,950001,1,0,0:0:0:0:
256,192,950064,5,8,0:0:0:0:
256,192,950189,1,8,0:0:0:0:
256,192,950314,5,0,0:0:0:0:
256,192,950439,5,8,0:0:0:0:
256,192,950564,1,8,0:0:0:0:
256,192,950626,1,8,0:0:0:0:
256,192,950689,5,0,0:0:0:0:
256,192,950814,5,8,0:0:0:0:
256,192,950939,1,8,0:0:0:0:
256,192,951001,1,8,0:0:0:0:
256,192,951064,5,0,0:0:0:0:
256,192,951189,5,8,0:0:0:0:
256,192,951251,1,8,0:0:0:0:
256,192,951314,5,0,0:0:0:0:
256,192,951439,5,8,0:0:0:0:
256,192,951564,1,8,0:0:0:0:
256,192,951689,5,0,0:0:0:0:
256,192,951814,5,8,0:0:0:0:
256,192,951939,1,8,0:0:0:0:
256,192,952001,1,8,0:0:0:0:
256,192,952064,5,0,0:0:0:0:
256,192,952189,5,8,0:0:0:0:
256,192,952251,1,8,0:0:0:0:
256,192,952314,5,0,0:0:0:0:
256,192,952439,5,8,0:0:0:0:
256,192,952564,1,8,0:0:0:0:
256,192,952626,1,8,0:0:0:0:
256,192,952689,5,0,0:0:0:0:
256,192,952814,5,8,0:0:0:0:
256,192,952939,1,8,0:0:0:0:
256,192,953001,1,8,0:0:0:0:
256,192,953064,5,0,0:0:0:0:
256,192,953189,5,8,0:0:0:0:
256,192,953251,1,8,0:0:0:0:
256,192,953314,5,0,0:0:0:0:
256,192,953439,5,8,0:0:0:0:
256,192,953564,1,8,0:0:0:0:
256,192,953626,1,8,0:0:0:0:
256,192,953689,5,0,0:0:0:0:
256,192,953814,5,8,0:0:0:0:
256,192,953939,1,8,0:0:0:0:
256,192,954001,1,8,0:0:0:0:
256,192,954064,5,0,0:0:0:0:
256,192,954189,5,8,0:0:0:0:
256,192,954251,1,8,0:0:0:0:
256,192,954314,5,0,0:0:0:0:
256,192,954439,5,8,0:0:0:0:
256,192,954564,1,8,0:0:0:0:
256,192,954626,1,8,0:0:0:0:
256,192,954689,5,0,0:0:0:0:
256,192,954814,5,8,0:0:0:0:
256,192,954939,1,8,0:0:0:0:
256,192,955001,1,8,0:0:0:0:
256,192,955064,1,8,0:0:0:0:
256,192,955189,1,8,0:0:0:0:
256,192,955251,1,8,0:0:0:0:
256,192,955314,5,0,0:0:0:0:
256,192,955439,5,8,0:0:0:0:
256,192,955564,1,8,0:0:0:0:
256,192,955689,5,0,0:0:0:0:
256,192,955814,5,8,0:0:0:0:
256,192,955939,1,8,0:0:0:0:
256,192,956064,5,0,0:0:0:0:
256,192,956189,5,8,0:0:0:0:
256,192,956314,5,0,0:0:0:0:
256,192,956439,5,8,0:0:0:0:
256,192,956564,5,0,0:0:0:0:
256,192,956626,5,8,0:0:0:0:
256,192,956689,5,0,0:0:0:0:
256,192,956814,5,8,0:0:0:0:
256,192,956939,1,8,0:0:0:0:
256,192,957001,1,8,0:0:0:0:
256,192,957064,5,0,0:0:0:0:
256,192,957189,5,8,0:0:0:0:
256,192,957251,1,8,0:0:0:0:
256,192,957314,5,0,0:0:0:0:
256,192,957439,5,8,0:0:0:0:
256,192,957501,1,8,0:0:0:0:
256,192,957564,5,0,0:0:0:0:
256,192,957689,5,8,0:0:0:0:
256,192,957751,5,0,0:0:0:0:
256,192,957814,1,0,0:0:0:0:
256,192,957876,1,0,0:0:0:0:
256,192,957939,1,0,0:0:0:0:
256,192,958001,1,0,0:0:0:0:
256,192,958064,5,8,0:0:0:0:
256,192,958189,1,8,0:0:0:0:
256,192,958314,5,0,0:0:0:0:
256,192,960314,1,0,0:0:0:0:
256,192,962064,1,0,0:0:0:0:
256,192,962314,5,8,0:0:0:0:
256,192,962647,5,0,0:0:0:0:
256,192,962814,1,0,0:0:0:0:
256,192,963314,5,8,0:0:0:0:
256,192,963647,5,0,0:0:0:0:
256,192,963980,1,0,0:0:0:0:
256,192,964314,5,8,0:0:0:0:
256,192,964814,1,8,0:0:0:0:
256,192,965314,1,8,0:0:0:0:
256,192,965814,1,8,0:0:0:0:
256,192,966314,5,4,0:0:0:0:
256,192,967314,5,8,0:0:0:0:
256,192,967626,1,8,0:0:0:0:
256,192,967939,5,0,0:0:0:0:
256,192,968314,1,0,0:0:0:0:
256,192,968439,12,0,969689,0:0:0:0:
256,192,970314,5,0,0:0:0:0:
256,192,970439,12,0,971314,0:0:0:0:
256,192,972314,1,0,0:0:0:0:
256,192,973314,5,0,0:0:0:0:
256,192,974314,1,0,0:0:0:0:
256,192,975314,5,0,0:0:0:0:
256,192,976314,1,0,0:0:0:0:
256,192,977314,1,0,0:0:0:0:
256,192,978064,12,0,980064,0:0:0:0:
256,192,980314,5,4,0:0:0:0:
256,192,980814,5,8,0:0:0:0:
256,192,981189,1,8,0:0:0:0:
256,192,981564,1,8,0:0:0:0:
256,192,981814,1,8,0:0:0:0:
256,192,982064,5,0,0:0:0:0:
256,192,982189,1,0,0:0:0:0:
256,192,982314,5,8,0:0:0:0:
256,192,982564,5,0,0:0:0:0:
256,192,982689,1,0,0:0:0:0:
256,192,982814,5,8,0:0:0:0:
256,192,983439,1,8,0:0:0:0:
256,192,983564,5,0,0:0:0:0:
256,192,983689,5,8,0:0:0:0:
256,192,983814,5,0,0:0:0:0:
256,192,984064,5,8,0:0:0:0:
256,192,984314,5,0,0:0:0:0:
256,192,984564,1,0,0:0:0:0:
256,192,984689,1,0,0:0:0:0:
256,192,984814,5,8,0:0:0:0:
256,192,985064,5,0,0:0:0:0:
256,192,985189,1,0,0:0:0:0:
256,192,985314,1,0,0:0:0:0:
256,192,985439,1,0,0:0:0:0:
256,192,985564,5,8,0:0:0:0:
256,192,985814,5,0,0:0:0:0:
256,192,986064,5,8,0:0:0:0:
256,192,986189,5,0,0:0:0:0:
256,192,986314,5,8,0:0:0:0:
256,192,986564,5,0,0:0:0:0:
256,192,986814,5,8,0:0:0:0:
256,192,987064,5,0,0:0:0:0:
256,192,987314,1,0,0:0:0:0:
256,192,987439,1,0,0:0:0:0:
256,192,987564,5,8,0:0:0:0:
256,192,987814,5,0,0:0:0:0:
256,192,988064,1,0,0:0:0:0:
256,192,988314,5,8,0:0:0:0:
256,192,988564,5,0,0:0:0:0:
256,192,988689,1,0,0:0:0:0:
256,192,988814,5,8,0:0:0:0:
256,192,989064,5,0,0:0:0:0:
256,192,989189,5,8,0:0:0:0:
256,192,989439,5,0,0:0:0:0:
256,192,989564,5,8,0:0:0:0:
256,192,989814,1,8,0:0:0:0:
256,192,990064,5,0,0:0:0:0:
256,192,990189,1,0,0:0:0:0:
256,192,990314,5,8,0:0:0:0:
256,192,990564,5,0,0:0:0:0:
256,192,990689,1,0,0:0:0:0:
256,192,990814,5,8,0:0:0:0:
256,192,991064,5,0,0:0:0:0:
256,192,991189,1,0,0:0:0:0:
256,192,991314,1,0,0:0:0:0:
256,192,991439,5,8,0:0:0:0:
256,192,991564,5,0,0:0:0:0:
256,192,991689,1,0,0:0:0:0:
256,192,991814,1,0,0:0:0:0:
256,192,992064,1,0,0:0:0:0:
256,192,992189,1,0,0:0:0:0:
256,192,992314,5,8,0:0:0:0:
256,192,992564,5,0,0:0:0:0:
256,192,992689,1,0,0:0:0:0:
256,192,992814,5,8,0:0:0:0:
256,192,993064,5,0,0:0:0:0:
256,192,993189,1,0,0:0:0:0:
256,192,993314,1,0,0:0:0:0:
256,192,993439,1,0,0:0:0:0:
256,192,993564,1,0,0:0:0:0:
256,192,993689,1,0,0:0:0:0:
256,192,993814,5,8,0:0:0:0:
256,192,993939,5,0,0:0:0:0:
256,192,994064,1,0,0:0:0:0:
256,192,994189,5,8,0:0:0:0:
256,192,994314,5,0,0:0:0:0:
256,192,994439,1,0,0:0:0:0:
256,192,994564,5,8,0:0:0:0:
256,192,994689,5,0,0:0:0:0:
256,192,994814,5,8,0:0:0:0:
256,192,995064,12,8,996189,0:0:0:0:
256,192,996314,5,0,0:0:0:0:
256,192,996564,1,0,0:0:0:0:
256,192,996689,1,0,0:0:0:0:
256,192,996814,5,8,0:0:0:0:
256,192,996939,5,0,0:0:0:0:
256,192,997001,5,8,0:0:0:0:
256,192,997064,5,0,0:0:0:0:
256,192,997189,5,8,0:0:0:0:
256,192,997314,5,0,0:0:0:0:
256,192,997376,1,0,0:0:0:0:
256,192,997439,5,8,0:0:0:0:
256,192,997501,1,8,0:0:0:0:
256,192,997564,5,0,0:0:0:0:
256,192,997689,1,0,0:0:0:0:
256,192,997814,5,8,0:0:0:0:
256,192,997939,5,0,0:0:0:0:
256,192,998064,5,8,0:0:0:0:
256,192,998189,5,0,0:0:0:0:
256,192,998314,5,8,0:0:0:0:
256,192,998376,1,8,0:0:0:0:
256,192,998439,1,8,0:0:0:0:
256,192,998564,5,0,0:0:0:0:
256,192,998689,5,8,0:0:0:0:
256,192,998814,5,0,0:0:0:0:
256,192,998939,1,0,0:0:0:0:
256,192,999001,1,0,0:0:0:0:
256,192,999064,5,8,0:0:0:0:
256,192,999189,5,0,0:0:0:0:
256,192,999314,1,0,0:0:0:0:
256,192,999376,1,0,0:0:0:0:
256,192,999439,5,8,0:0:0:0:
256,192,999501,1,8,0:0:0:0:
256,192,999564,5,0,0:0:0:0:
256,192,999689,5,8,0:0:0:0:
256,192,999814,5,0,0:0:0:0:
256,192,999939,1,0,0:0:0:0:
256,192,1000064,5,8,0:0:0:0:
256,192,1000189,1,8,0:0:0:0:
256,192,1000314,5,0,0:0:0:0:
256,192,1000439,5,8,0:0:0:0:
256,192,1000564,5,0,0:0:0:0:
256,192,1000689,5,8,0:0:0:0:
256,192,1000814,1,8,0:0:0:0:
256,192,1000939,5,0,0:0:0:0:
256,192,1001001,1,0,0:0:0:0:
256,192,1001064,5,8,0:0:0:0:
256,192,1001126,1,8,0:0:0:0:
256,192,1001189,5,0,0:0:0:0:
256,192,1001314,5,8,0:0:0:0:
256,192,1001376,1,8,0:0:0:0:
256,192,1001439,1,8,0:0:0:0:
256,192,1001501,1,8,0:0:0:0:
256,192,1001564,5,0,0:0:0:0:
256,192,1001689,5,8,0:0:0:0:
256,192,1001751,1,8,0:0:0:0:
256,192,1001814,5,0,0:0:0:0:
256,192,1001939,1,0,0:0:0:0:
256,192,1002064,5,8,0:0:0:0:
256,192,1002189,5,0,0:0:0:0:
256,192,1002314,5,8,0:0:0:0:
256,192,1002439,5,0,0:0:0:0:
256,192,1002564,1,0,0:0:0:0:
256,192,1002689,5,8,0:0:0:0:
256,192,1002814,5,0,0:0:0:0:
256,192,1002939,5,8,0:0:0:0:
256,192,1003001,1,8,0:0:0:0:
256,192,1003064,1,0,0:0:0:0:
256,192,1003126,1,8,0:0:0:0:
256,192,1003189,5,0,0:0:0:0:
256,192,1003314,5,8,0:0:0:0:
256,192,1003376,1,8,0:0:0:0:
256,192,1003439,5,0,0:0:0:0:
256,192,1003501,5,8,0:0:0:0:
256,192,1003564,5,0,0:0:0:0:
256,192,1003689,5,8,0:0:0:0:
256,192,1003814,5,0,0:0:0:0:
256,192,1003939,1,0,0:0:0:0:
256,192,1004064,5,8,0:0:0:0:
256,192,1004126,1,8,0:0:0:0:
256,192,1004189,5,0,0:0:0:0:
256,192,1004314,1,0,0:0:0:0:
256,192,1004439,5,8,0:0:0:0:
256,192,1004564,5,0,0:0:0:0:
256,192,1004689,5,8,0:0:0:0:
256,192,1004814,1,8,0:0:0:0:
256,192,1004939,5,0,0:0:0:0:
256,192,1005001,1,0,0:0:0:0:
256,192,1005064,1,0,0:0:0:0:
256,192,1005126,1,0,0:0:0:0:
256,192,1005189,5,8,0:0:0:0:
256,192,1005314,5,0,0:0:0:0:
256,192,1005376,1,0,0:0:0:0:
256,192,1005439,5,8,0:0:0:0:
256,192,1005564,1,8,0:0:0:0:
256,192,1005689,5,0,0:0:0:0:
256,192,1005814,5,8,0:0:0:0:
256,192,1005939,5,0,0:0:0:0:
256,192,1006064,5,8,0:0:0:0:
256,192,1006189,5,0,0:0:0:0:
256,192,1006314,5,8,0:0:0:0:
256,192,1006439,5,0,0:0:0:0:
256,192,1006564,1,0,0:0:0:0:
256,192,1006689,5,8,0:0:0:0:
256,192,1006814,1,8,0:0:0:0:
256,192,1006939,5,0,0:0:0:0:
256,192,1007001,1,0,0:0:0:0:
256,192,1007064,5,8,0:0:0:0:
256,192,1007126,1,8,0:0:0:0:
256,192,1007189,5,0,0:0:0:0:
256,192,1007314,1,0,0:0:0:0:
256,192,1007376,1,0,0:0:0:0:
256,192,1007439,5,8,0:0:0:0:
256,192,1007501,1,8,0:0:0:0:
256,192,1007564,5,0,0:0:0:0:
256,192,1007689,1,0,0:0:0:0:
256,192,1007814,5,8,0:0:0:0:
256,192,1007939,5,0,0:0:0:0:
256,192,1008064,5,8,0:0:0:0:
256,192,1008189,5,0,0:0:0:0:
256,192,1008314,1,0,0:0:0:0:
256,192,1008439,5,8,0:0:0:0:
256,192,1008501,1,8,0:0:0:0:
256,192,1008564,5,0,0:0:0:0:
256,192,1008689,5,8,0:0:0:0:
256,192,1008814,1,8,0:0:0:0:
256,192,1008939,5,0,0:0:0:0:
256,192,1009001,1,0,0:0:0:0:
256,192,1009064,5,8,0:0:0:0:
256,192,1009189,5,0,0:0:0:0:
256,192,1009314,1,0,0:0:0:0:
256,192,1009376,1,0,0:0:0:0:
256,192,1009439,5,8,0:0:0:0:
256,192,1009501,1,8,0:0:0:0:
256,192,1009564,5,0,0:0:0:0:
256,192,1009626,1,0,0:0:0:0:
256,192,1009689,5,8,0:0:0:0:
256,192,1009751,1,8,0:0:0:0:
256,192,1009814,1,8,0:0:0:0:
256,192,1009876,1,8,0:0:0:0:
256,192,1009939,5,0,0:0:0:0:
256,192,1010001,5,8,0:0:0:0:
256,192,1010064,1,8,0:0:0:0:
256,192,1010126,1,8,0:0:0:0:
256,192,1010189,1,8,0:0:0:0:
256,192,1010314,5,0,0:0:0:0:
256,192,1010376,1,0,0:0:0:0:
256,192,1010439,5,8,0:0:0:0:
256,192,1010564,5,0,0:0:0:0:
256,192,1010689,5,8,0:0:0:0:
256,192,1010814,1,8,0:0:0:0:
256,192,1010939,1,8,0:0:0:0:
256,192,1011064,1,8,0:0:0:0:
256,192,1011189,5,0,0:0:0:0:
256,192,1011251,1,0,0:0:0:0:
256,192,1011314,1,0,0:0:0:0:
256,192,1011439,1,0,0:0:0:0:
256,192,1011501,1,0,0:0:0:0:
256,192,1011564,1,0,0:0:0:0:
256,192,1011689,1,0,0:0:0:0:
256,192,1011751,1,0,0:0:0:0:
256,192,1011814,5,8,0:0:0:0:
256,192,1011939,1,8,0:0:0:0:
256,192,1012064,1,8,0:0:0:0:
256,192,1012189,1,8,0:0:0:0:
256,192,1012314,5,4,0:0:0:0:
256,192,1012439,1,0,0:0:0:0:
256,192,1012501,1,0,0:0:0:0:
256,192,1012564,5,8,0:0:0:0:
256,192,1012689,1,8,0:0:0:0:
256,192,1012814,5,0,0:0:0:0:
256,192,1012939,5,8,0:0:0:0:
256,192,1013001,1,8,0:0:0:0:
256,192,1013064,5,0,0:0:0:0:
256,192,1013189,5,8,0:0:0:0:
256,192,1013314,5,0,0:0:0:0:
256,192,1013439,5,8,0:0:0:0:
256,192,1013564,5,0,0:0:0:0:
256,192,1013626,1,0,0:0:0:0:
256,192,1013689,5,8,0:0:0:0:
256,192,1013814,1,8,0:0:0:0:
256,192,1013939,1,8,0:0:0:0:
256,192,1014001,1,8,0:0:0:0:
256,192,1014064,5,0,0:0:0:0:
256,192,1014189,5,8,0:0:0:0:
256,192,1014314,5,0,0:0:0:0:
256,192,1014439,5,8,0:0:0:0:
256,192,1014501,1,8,0:0:0:0:
256,192,1014564,5,0,0:0:0:0:
256,192,1014689,5,8,0:0:0:0:
256,192,1014814,5,0,0:0:0:0:
256,192,1014939,5,8,0:0:0:0:
256,192,1015001,1,8,0:0:0:0:
256,192,1015064,5,0,0:0:0:0:
256,192,1015189,5,8,0:0:0:0:
256,192,1015251,1,8,0:0:0:0:
256,192,1015314,5,0,0:0:0:0:
256,192,1015439,5,8,0:0:0:0:
256,192,1015501,1,8,0:0:0:0:
256,192,1015564,5,0,0:0:0:0:
256,192,1015689,5,8,0:0:0:0:
256,192,1015814,5,0,0:0:0:0:
256,192,1015939,5,8,0:0:0:0:
256,192,1016001,1,8,0:0:0:0:
256,192,1016064,5,0,0:0:0:0:
256,192,1016189,5,8,0:0:0:0:
256,192,1016251,1,8,0:0:0:0:
256,192,1016314,5,0,0:0:0:0:
256,192,1016439,5,8,0:0:0:0:
256,192,1016501,1,8,0:0:0:0:
256,192,1016564,5,0,0:0:0:0:
256,192,1016689,5,8,0:0:0:0:
256,192,1016814,5,0,0:0:0:0:
256,192,1016939,5,8,0:0:0:0:
256,192,1017001,1,8,0:0:0:0:
256,192,1017064,5,0,0:0:0:0:
256,192,1017189,5,8,0:0:0:0:
256,192,1017314,5,0,0:0:0:0:
256,192,1017439,5,8,0:0:0:0:
256,192,1017564,5,0,0:0:0:0:
256,192,1017626,5,8,0:0:0:0:
256,192,1017689,1,8,0:0:0:0:
256,192,1017814,5,0,0:0:0:0:
256,192,1017876,1,0,0:0:0:0:
256,192,1017939,5,8,0:0:0:0:
256,192,1018064,5,0,0:0:0:0:
256,192,1018189,5,8,0:0:0:0:
256,192,1018251,1,8,0:0:0:0:
256,192,1018314,5,0,0:0:0:0:
256,192,1018439,5,8,0:0:0:0:
256,192,1018564,5,0,0:0:0:0:
256,192,1018626,1,0,0:0:0:0:
256,192,1018689,5,8,0:0:0:0:
256,192,1018814,5,0,0:0:0:0:
256,192,1018939,5,8,0:0:0:0:
256,192,1019001,1,8,0:0:0:0:
256,192,1019064,5,0,0:0:0:0:
256,192,1019189,5,8,0:0:0:0:
256,192,1019314,5,0,0:0:0:0:
256,192,1019439,5,8,0:0:0:0:
256,192,1019501,1,8,0:0:0:0:
256,192,1019564,5,0,0:0:0:0:
256,192,1019689,5,8,0:0:0:0:
256,192,1019814,5,0,0:0:0:0:
256,192,1019939,5,8,0:0:0:0:
256,192,1020064,5,0,0:0:0:0:
256,192,1020189,5,8,0:0:0:0:
256,192,1020251,1,8,0:0:0:0:
256,192,1020314,5,0,0:0:0:0:
256,192,1020439,5,8,0:0:0:0:
256,192,1020564,5,0,0:0:0:0:
256,192,1020689,5,8,0:0:0:0:
256,192,1020814,5,0,0:0:0:0:
256,192,1020939,5,8,0:0:0:0:
256,192,1021001,1,8,0:0:0:0:
256,192,1021064,5,0,0:0:0:0:
256,192,1021189,5,8,0:0:0:0:
256,192,1021251,1,8,0:0:0:0:
256,192,1021314,5,0,0:0:0:0:
256,192,1021439,5,8,0:0:0:0:
256,192,1021564,5,0,0:0:0:0:
256,192,1021689,5,8,0:0:0:0:
256,192,1021814,5,0,0:0:0:0:
256,192,1021939,5,8,0:0:0:0:
256,192,1022001,1,8,0:0:0:0:
256,192,1022064,5,0,0:0:0:0:
256,192,1022189,5,8,0:0:0:0:
256,192,1022251,1,8,0:0:0:0:
256,192,1022314,5,0,0:0:0:0:
256,192,1022439,5,8,0:0:0:0:
256,192,1022501,1,8,0:0:0:0:
256,192,1022564,5,0,0:0:0:0:
256,192,1022689,5,8,0:0:0:0:
256,192,1022814,5,0,0:0:0:0:
256,192,1022939,5,8,0:0:0:0:
256,192,1023001,1,8,0:0:0:0:
256,192,1023064,5,0,0:0:0:0:
256,192,1023189,5,8,0:0:0:0:
256,192,1023251,1,8,0:0:0:0:
256,192,1023314,5,0,0:0:0:0:
256,192,1023439,5,8,0:0:0:0:
256,192,1023501,1,8,0:0:0:0:
256,192,1023564,5,0,0:0:0:0:
256,192,1023689,5,8,0:0:0:0:
256,192,1023751,1,8,0:0:0:0:
256,192,1023814,5,0,0:0:0:0:
256,192,1023939,5,8,0:0:0:0:
256,192,1024001,1,8,0:0:0:0:
256,192,1024064,5,0,0:0:0:0:
256,192,1024189,5,8,0:0:0:0:
256,192,1024251,1,8,0:0:0:0:
256,192,1024314,5,0,0:0:0:0:
256,192,1024439,1,0,0:0:0:0:
256,192,1024501,5,8,0:0:0:0:
256,192,1024564,5,0,0:0:0:0:
256,192,1024689,5,8,0:0:0:0:
256,192,1024814,5,0,0:0:0:0:
256,192,1024876,1,0,0:0:0:0:
256,192,1024939,5,8,0:0:0:0:
256,192,1025001,1,8,0:0:0:0:
256,192,1025064,5,0,0:0:0:0:
256,192,1025189,5,8,0:0:0:0:
256,192,1025314,5,0,0:0:0:0:
256,192,1025439,5,8,0:0:0:0:
256,192,1025564,5,0,0:0:0:0:
256,192,1025626,1,0,0:0:0:0:
256,192,1025689,5,8,0:0:0:0:
256,192,1025814,1,8,0:0:0:0:
256,192,1025876,1,8,0:0:0:0:
256,192,1025939,5,0,0:0:0:0:
256,192,1026064,5,8,0:0:0:0:
256,192,1026189,5,0,0:0:0:0:
256,192,1026251,1,0,0:0:0:0:
256,192,1026314,5,8,0:0:0:0:
256,192,1026376,1,8,0:0:0:0:
256,192,1026439,5,0,0:0:0:0:
256,192,1026501,1,0,0:0:0:0:
256,192,1026564,5,8,0:0:0:0:
256,192,1026626,1,8,0:0:0:0:
256,192,1026689,1,0,0:0:0:0:
256,192,1026751,5,0,0:0:0:0:
256,192,1026814,1,8,0:0:0:0:
256,192,1026876,1,8,0:0:0:0:
256,192,1026939,5,0,0:0:0:0:
256,192,1027001,1,0,0:0:0:0:
256,192,1027064,5,8,0:0:0:0:
256,192,1027126,1,8,0:0:0:0:
256,192,1027189,5,0,0:0:0:0:
256,192,1027251,1,0,0:0:0:0:
256,192,1027314,5,8,0:0:0:0:
256,192,1027376,1,8,0:0:0:0:
256,192,1027439,1,0,0:0:0:0:
256,192,1027501,1,0,0:0:0:0:
256,192,1027564,1,8,0:0:0:0:
256,192,1027626,1,8,0:0:0:0:
256,192,1027689,1,0,0:0:0:0:
256,192,1027751,5,0,0:0:0:0:
256,192,1027814,5,8,0:0:0:0:
256,192,1027876,1,8,0:0:0:0:
256,192,1027939,1,0,0:0:0:0:
256,192,1028001,5,0,0:0:0:0:
256,192,1028064,1,8,0:0:0:0:
256,192,1028126,5,8,0:0:0:0:
256,192,1028189,1,8,0:0:0:0:
256,192,1028251,1,8,0:0:0:0:
256,192,1028314,5,0,0:0:0:0:
