osu file format v12

[General]
AudioFilename: Renard - Because Maybe! pt1.mp3
AudioLeadIn: 3000
PreviewTime: 201338
Countdown: 0
SampleSet: Normal
StackLeniency: 0.7
Mode: 0
LetterboxInBreaks: 0

[Editor]
Bookmarks: 121718,153748,175157,223157,260248,292975,316973,404973,443973,476992,572992,588992,636992,669492,684992,705314,737314,1817696
DistanceSpacing: 0.9
BeatDivisor: 4
GridSize: 4

[Metadata]
Title:Because Maybe! pt. 3
TitleUnicode:Because Maybe! pt. 3
Artist:Renard
ArtistUnicode:Renard
Creator:Blue Dragon
Version:Marathon
Source:
Tags:lapfox fuck your rails too dear spark chelsea smile let's move tu4ar the entire world cristian kurisuchianu backfire onosakihito [luanny] norbi
BeatmapID:112922
BeatmapSetID:30013

[Difficulty]
HPDrainRate:5
CircleSize:4
OverallDifficulty:8
ApproachRate:9
SliderMultiplier:1.6
SliderTickRate:1

[Events]
//Background and Video events
0,0,"DFT1e.jpg",0,0
//Break Periods
2,70645,87299
2,175357,198557
2,260448,266193
2,397185,403385
2,557192,564392
2,589192,603392
2,653192,668392
2,685192,687714
2,705514,712714
2,753389,755564
2,787514,788714
2,830264,845714
2,862514,869714
2,878514,882839
2,902514,917214
2,958514,967464
2,980314,992714
//Storyboard Layer 0 (Background)
//Storyboard Layer 1 (Fail)
//Storyboard Layer 2 (Pass)
//Storyboard Layer 3 (Foreground)
//Storyboard Sound Samples
//Background Colour Transformations
3,100,163,162,255

[TimingPoints]
627,272.727272727273,4,1,0,75,1,0
33334,-100,4,2,0,75,0,0
34698,-100,4,1,0,75,0,0
52971,-100,4,2,0,75,0,0
121717,-133.333333333333,4,2,0,75,0,0
122263,-100,4,2,0,75,0,0
140248,272.727272727273,4,1,0,75,1,0
314861,-100,4,2,0,5,0,0
316985,250,4,1,0,75,1,0
333098,-100,4,2,0,75,0,0
348973,-100,4,1,0,75,0,0
372348,-100,4,2,0,75,0,0
372973,-100,4,1,0,75,0,0
379973,-100,4,2,0,75,0,0
410348,-100,4,1,0,75,0,0
410973,-100,4,2,0,75,0,0
476992,250,4,2,0,75,1,0
492483,-100,4,1,0,75,0,0
492983,-100,4,2,0,75,0,0
688314,250,4,2,0,75,1,0
878314,-100,4,1,0,75,0,0
878376,-100,4,2,0,75,0,0
902314,-100,4,1,0,75,0,0
902376,-100,4,2,0,75,0,0
934314,-100,4,1,0,75,0,0
934376,-100,4,2,0,75,0,0
968314,-200,4,2,0,75,0,0
993314,-100,4,2,0,75,0,0
1012314,-100,4,2,0,75,0,1
1028314,-100,4,2,0,75,0,0

[Colours]
Combo1 : 238,4,69
Combo2 : 255,128,128
Combo3 : 128,0,0
Combo4 : 240,5,5

[HitObjects]
488,76,81,2,0,B|408:100,1,80
440,168,354,2,0,B|360:192,1,80
352,264,627,5,8,0:0:0:0:
352,264,763,1,0,0:0:0:0:
256,376,1036,1,8,0:0:0:0:
160,264,1308,1,0,0:0:0:0:
160,264,1377,1,0,0:0:0:0:
160,264,1445,1,8,0:0:0:0:
256,152,1717,6,8,B|216:80|296:72|256:0,1,160,8|0,0:0|0:0,0:0:0:0:
192,40,2127,2,8,B|120:79|112:0|40:39,1,160,8|0,0:0|0:0,0:0:0:0:
80,104,2536,2,8,B|120:128|168:126,1,80
192,192,2808,6,0,B|256:248|264:344,1,160,2|0,0:0|0:0,0:0:0:0:
340,340,3217,2,2,B|260:308|188:364,1,160,2|0,0:0|0:0,0:0:0:0:
189,362,3558,1,0,0:0:0:0:
189,362,3626,1,8,0:0:0:0:
39,355,3899,6,2,B|-21:283|39:211,1,160,2|0,0:0|0:0,0:0:0:0:
96,256,4308,1,0,0:0:0:0:
144,200,4445,1,0,0:0:0:0:
211,227,4581,2,0,B|251:239,1,40
303,191,4786,2,0,B|273:158,1,40
222,112,4990,6,2,B|236:45|309:21|360:51,1,160,2|0,0:0|0:0,0:0:0:0:
427,124,5399,2,2,B|413:191|340:215|289:185,1,160,2|0,0:0|0:0,0:0:0:0:
303,191,5808,1,8,0:0:0:0:
344,120,5945,1,0,0:0:0:0:
384,248,6081,6,2,B|518:348,1,160
449,383,6490,2,2,B|315:283,1,160
291,353,6899,2,8,B|225:303,1,80
163,272,7172,5,8,0:0:0:0:
123,332,7308,1,2,0:0:0:0:
202,211,7581,2,2,B|188:116|100:106,1,160,2|0,0:0|0:0,0:0:0:0:
99,105,7922,1,0,0:0:0:0:
99,105,7990,1,8,0:0:0:0:
209,12,8263,6,2,B|384:36,1,160
416,88,8672,1,0,0:0:0:0:
288,160,8808,1,0,0:0:0:0:
416,232,8945,1,0,0:0:0:0:
288,304,9081,1,0,0:0:0:0:
288,304,9149,1,0,0:0:0:0:
288,304,9217,1,0,0:0:0:0:
216,320,9354,6,0,B|125:289|72:360,1,160,2|0,0:0|0:0,0:0:0:0:
24,304,9763,2,0,B|-7:213|64:160,1,160,2|0,0:0|0:0,0:0:0:0:
120,208,10172,1,8,0:0:0:0:
120,208,10308,1,8,0:0:0:0:
192,184,10445,6,2,B|131:112|192:40,1,160,2|0,0:0|0:0,0:0:0:0:
319,39,10854,2,2,B|381:112|320:184,1,160,2|0,0:0|0:0,0:0:0:0:
256,112,11263,1,8,0:0:0:0:
256,112,11399,2,8,B|256:192,1,80,8|2,0:0|0:0,0:0:0:0:
256,336,11808,5,0,0:0:0:0:
320,304,11945,1,2,0:0:0:0:
421,202,12217,5,0,0:0:0:0:
485,234,12354,1,2,0:0:0:0:
256,112,12626,6,2,B|256:280,1,160,2|0,0:0|0:0,0:0:0:0:
192,304,13036,2,0,B|104:336,1,80,0|8,0:0|0:0,0:0:0:0:
104,256,13308,2,0,B|179:228,1,80,0|8,0:0|0:0,0:0:0:0:
168,152,13581,2,0,B|92:179,1,80,8|0,0:0|0:0,0:0:0:0:
48,120,13854,5,0,0:0:0:0:
61,48,13990,1,0,0:0:0:0:
116,93,14126,1,0,0:0:0:0:
129,24,14263,1,0,0:0:0:0:
183,70,14399,1,0,0:0:0:0:
237,116,14536,1,8,0:0:0:0:
292,70,14672,1,0,0:0:0:0:
347,23,14808,5,0,0:0:0:0:
419,36,14945,1,0,0:0:0:0:
374,91,15081,1,0,0:0:0:0:
443,104,15217,1,0,0:0:0:0:
397,158,15354,1,0,0:0:0:0:
351,212,15490,1,0,0:0:0:0:
397,267,15626,1,8,0:0:0:0:
444,321,15763,1,8,0:0:0:0:
373,339,15899,6,0,B|344:379|305:373,2,80
312,300,16308,2,0,B|273:294|244:334,2,80
376,266,16717,2,0,B|290:124,1,160,8|2,0:0|0:0,0:0:0:0:
190,231,17126,5,0,0:0:0:0:
190,231,17195,1,0,0:0:0:0:
190,231,17263,1,2,0:0:0:0:
65,157,17399,1,0,0:0:0:0:
85,14,17536,1,0,0:0:0:0:
228,0,17672,1,0,0:0:0:0:
293,129,17808,1,0,0:0:0:0:
436,129,17945,1,0,0:0:0:0:
436,129,18013,1,0,0:0:0:0:
436,129,18081,1,4,0:0:0:0:
393,186,18217,5,0,0:0:0:0:
434,244,18354,1,0,0:0:0:0:
400,307,18490,2,0,B|340:377|257:344,1,160,8|0,0:0|0:0,0:0:0:0:
289,279,18899,2,0,B|205:245|145:315,1,160,8|2,0:0|0:0,0:0:0:0:
83,352,19308,1,0,0:0:0:0:
55,329,19377,1,0,0:0:0:0:
29,304,19445,2,0,B|16:265|42:262|32:219,1,80,0|8,0:0|0:0,0:0:0:0:
64,160,19717,1,0,0:0:0:0:
128,190,19854,1,0,0:0:0:0:
128,190,19990,2,0,B|217:158|194:64,1,160,8|2,0:0|0:0,0:0:0:0:
236,5,20399,5,0,0:0:0:0:
292,49,20536,1,0,0:0:0:0:
361,27,20672,2,8,B|521:70,1,160,8|0,0:0|0:0,0:0:0:0:
505,140,21081,2,8,B|350:98,1,160,8|2,0:0|0:0,0:0:0:0:
291,139,21490,2,0,B|238:215,1,80
327,212,21763,2,0,B|348:296,1,80
406,236,22036,2,0,B|496:264,2,80,0|8|8,0:0|0:0|0:0,0:0:0:0:
399,308,22445,6,0,B|240:264,1,160,2|0,0:0|0:0,0:0:0:0:
270,189,22854,2,0,B|218:346,1,160,2|0,0:0|0:0,0:0:0:0:
151,316,23263,1,8,0:0:0:0:
84,287,23399,1,0,0:0:0:0:
61,355,23536,6,0,B|113:198,1,160,2|0,0:0|0:0,0:0:0:0:
180,226,23945,2,0,B|23:174,1,160,2|0,0:0|0:0,0:0:0:0:
53,107,24354,1,8,0:0:0:0:
82,40,24490,1,0,0:0:0:0:
144,72,24627,6,2,B|180:100|216:72,1,80,2|0,0:0|0:0,0:0:0:0:
264,16,24899,1,0,0:0:0:0:
312,72,25036,2,2,B|348:100|384:72,1,80,2|0,0:0|0:0,0:0:0:0:
456,60,25308,2,0,B|508:0,2,80,0|8|0,0:0|0:0|0:0,0:0:0:0:
480,204,25717,5,2,0:0:0:0:
348,260,25854,1,0,0:0:0:0:
212,312,25990,1,0,0:0:0:0:
32,204,26127,5,2,0:0:0:0:
164,260,26263,1,0,0:0:0:0:
300,312,26399,1,0,0:0:0:0:
256,176,26536,5,0,0:0:0:0:
256,32,26672,1,0,0:0:0:0:
256,32,26808,1,4,0:0:0:0:
320,64,26945,5,0,0:0:0:0:
376,20,27081,1,2,0:0:0:0:
464,136,27354,1,0,0:0:0:0:
464,136,27490,1,0,0:0:0:0:
424,272,27763,1,2,0:0:0:0:
296,204,28036,1,0,0:0:0:0:
296,204,28104,1,0,0:0:0:0:
296,204,28172,1,2,0:0:0:0:
236,164,28308,1,0,0:0:0:0:
176,124,28445,1,0,0:0:0:0:
164,196,28581,1,0,0:0:0:0:
148,268,28717,5,0,0:0:0:0:
176,292,28786,1,0,0:0:0:0:
204,316,28854,1,0,0:0:0:0:
232,340,28922,1,0,0:0:0:0:
260,364,28990,1,0,0:0:0:0:
308,312,29127,1,0,0:0:0:0:
372,348,29263,5,2,0:0:0:0:
436,220,29536,1,0,0:0:0:0:
416,152,29672,1,0,0:0:0:0:
300,64,29945,1,2,0:0:0:0:
208,176,30217,1,0,0:0:0:0:
176,164,30286,1,0,0:0:0:0:
144,152,30354,1,2,0:0:0:0:
88,200,30490,1,0,0:0:0:0:
20,172,30627,1,0,0:0:0:0:
28,244,30763,1,0,0:0:0:0:
96,272,30899,5,0,0:0:0:0:
128,288,30967,1,0,0:0:0:0:
160,304,31036,1,0,0:0:0:0:
192,320,31104,1,0,0:0:0:0:
224,336,31172,1,0,0:0:0:0:
268,280,31308,1,0,0:0:0:0:
332,312,31445,1,2,0:0:0:0:
472,280,31717,5,0,0:0:0:0:
416,236,31854,1,0,0:0:0:0:
456,96,32127,1,2,0:0:0:0:
312,120,32399,1,0,0:0:0:0:
328,88,32467,1,0,0:0:0:0:
344,56,32536,1,2,0:0:0:0:
284,16,32672,1,0,0:0:0:0:
236,72,32808,1,0,0:0:0:0:
172,40,32945,1,0,0:0:0:0:
124,96,33081,1,0,0:0:0:0:
100,124,33149,1,0,0:0:0:0:
76,152,33217,1,0,0:0:0:0:
60,220,33354,6,0,B|92:252,3,40,2|0|0|0,0:0|0:0|0:0|0:0,0:0:0:0:
114,274,33627,2,0,B|146:306,3,40,2|0|0|0,0:0|0:0|0:0|0:0,0:0:0:0:
178,302,33899,2,0,B|210:270,3,40,2|0|0|0,0:0|0:0|0:0|0:0,0:0:0:0:
232,248,34172,2,0,B|264:216,3,40,2|0|0|0,0:0|0:0|0:0|0:0,0:0:0:0:
296,219,34445,2,0,B|328:251,3,40,2|0|0|0,0:0|0:0|0:0|0:0,0:0:0:0:
350,273,34717,1,2,0:0:0:0:
488,20,34990,5,2,0:0:0:0:
448,156,35127,1,0,0:0:0:0:
448,156,35195,1,0,0:0:0:0:
448,156,35263,1,2,0:0:0:0:
320,88,35399,1,2,0:0:0:0:
320,88,35536,5,8,0:0:0:0:
208,180,35808,1,8,0:0:0:0:
156,128,35945,1,0,0:0:0:0:
136,60,36081,1,8,0:0:0:0:
84,108,36217,2,0,B|32:176,1,80
104,196,36490,2,0,B|55:259,1,80
108,308,36763,1,0,0:0:0:0:
108,308,36899,2,0,B|180:356|272:332,1,160
296,272,37308,1,2,0:0:0:0:
240,228,37445,1,2,0:0:0:0:
308,200,37581,1,0,0:0:0:0:
364,248,37717,6,8,B|452:268|472:356,1,160,8|8,0:0|0:0,0:0:0:0:
404,376,38127,1,0,0:0:0:0:
348,328,38263,1,2,0:0:0:0:
284,360,38399,1,2,0:0:0:0:
224,320,38536,2,0,B|244:268,2,40
164,360,38808,1,0,0:0:0:0:
144,292,38945,1,0,0:0:0:0:
92,344,39081,1,8,0:0:0:0:
92,344,39217,1,8,0:0:0:0:
24,316,39354,2,0,B|8:360,2,40
76,268,39627,1,2,0:0:0:0:
8,248,39763,1,0,0:0:0:0:
60,200,39899,6,8,B|132:148|128:52,1,160
196,44,40308,2,2,B|284:8,1,80
280,84,40581,2,2,B|368:48,1,80
424,40,40854,2,0,B|440:-4,2,40
460,104,41127,1,0,0:0:0:0:
392,132,41263,2,2,B|344:184|380:256|436:256,1,160
445,186,41672,1,0,0:0:0:0:
496,232,41808,2,2,B|496:312|496:312|508:320|508:320|484:320|484:320|496:328|496:328|496:360,1,160
424,364,42217,5,0,0:0:0:0:
396,296,42354,1,8,0:0:0:0:
328,324,42490,1,0,0:0:0:0:
336,252,42627,2,2,B|304:176,1,80,2|0,0:0|0:0,0:0:0:0:
376,164,42899,2,2,B|344:88,1,80,2|0,0:0|0:0,0:0:0:0:
256,192,43172,12,2,44263,0:0:0:0:
352,60,44536,5,0,0:0:0:0:
392,120,44672,1,0,0:0:0:0:
324,148,44808,1,0,0:0:0:0:
284,88,44945,1,0,0:0:0:0:
216,116,45081,1,2,0:0:0:0:
216,116,45354,6,2,B|156:56|68:76,1,160
84,148,45763,2,0,B|16:196,2,80
132,220,46172,1,8,0:0:0:0:
132,220,46240,1,0,0:0:0:0:
132,220,46308,1,0,0:0:0:0:
56,252,46445,2,0,B|26:288|52:324,1,80
116,360,46717,2,2,B|200:332|200:384|280:356,1,160,2|0,0:0|0:0,0:0:0:0:
328,312,47126,1,2,0:0:0:0:
384,268,47263,1,2,0:0:0:0:
480,160,47536,6,8,B|472:80|396:28,1,160
360,92,47945,2,0,B|328:172,2,80
300,56,48354,2,2,B|136:36,1,160
68,24,48763,1,0,0:0:0:0:
96,92,48899,1,2,0:0:0:0:
96,92,49172,5,2,0:0:0:0:
40,140,49308,1,0,0:0:0:0:
88,192,49445,2,8,B|32:256,1,80
60,320,49717,6,8,B|152:288|204:376,1,160,8|0,0:0|0:0,0:0:0:0:
272,364,50126,2,8,B|312:288,1,80,8|2,0:0|0:0,0:0:0:0:
372,328,50399,1,2,0:0:0:0:
436,292,50536,1,2,0:0:0:0:
464,224,50672,1,0,0:0:0:0:
448,152,50808,1,2,0:0:0:0:
388,108,50945,2,0,B|312:68,1,80,0|6,0:0|0:0,0:0:0:0:
180,28,51354,5,8,0:0:0:0:
128,76,51490,1,0,0:0:0:0:
60,56,51626,1,8,0:0:0:0:
76,128,51763,1,0,0:0:0:0:
144,148,51899,2,2,B|236:144|284:212,1,160,2|0,0:0|0:0,0:0:0:0:
236,264,52308,1,0,0:0:0:0:
168,240,52445,1,8,0:0:0:0:
124,300,52581,1,8,0:0:0:0:
168,356,52717,1,2,0:0:0:0:
236,336,52854,1,2,0:0:0:0:
300,300,52990,6,2,B|328:288,2,20
376,223,53263,2,2,B|404:235,2,20,2|2|2,0:0|0:0|0:0,0:0:0:0:
452,146,53536,2,0,B|464:118,2,20,0|0|0,0:0|0:0|0:0,0:0:0:0:
426,171,53672,6,2,B|398:159,2,20
350,94,53945,2,2,B|322:106,2,20,2|2|2,0:0|0:0|0:0,0:0:0:0:
273,17,54217,2,2,B|245:5,3,20
280,48,54354,2,2,B|268:72,2,20
171,118,54627,2,2,B|143:130,4,20,2|0|2|0|2,0:0|0:0|0:0|0:0|0:0,0:0:0:0:
119,66,54899,2,2,B|131:38,2,20,2|2|2,0:0|0:0|0:0,0:0:0:0:
64,156,55172,6,2,B|60:128,2,20
140,232,55445,2,2,B|144:204,2,20
63,308,55717,2,2,B|35:320,4,20,0|0|0|0|0,0:0|0:0|0:0|0:0|0:0,0:0:0:0:
160,316,55990,2,2,B|192:320,3,20
192,340,56126,2,2,B|228:336,2,20
215,257,56399,2,0,B|227:229,4,20,0|0|0|2|2,0:0|0:0|0:0|0:0|0:0,0:0:0:0:
316,358,56808,6,2,B|344:352,4,20,0|0|0|0|0,0:0|0:0|0:0|0:0|0:0,0:0:0:0:
284,292,57081,2,2,B|300:272,2,20
392,304,57354,6,2,B|368:288,2,20,2|2|2,0:0|0:0|0:0,0:0:0:0:
392,195,57627,2,2,B|416:179,2,20,2|2|2,0:0|0:0|0:0,0:0:0:0:
468,118,57899,2,0,B|496:112,2,20
442,92,58036,2,2,B|426:72,2,20
333,92,58308,2,2,B|313:108,2,20,2|2|2,0:0|0:0|0:0,0:0:0:0:
256,15,58581,2,0,B|276:-1,3,20
292,12,58717,2,2,B|308:28,2,20
268,160,58990,2,0,B|292:156,4,20,0|0|0|0|0,0:0|0:0|0:0|0:0|0:0,0:0:0:0:
200,140,59263,2,2,B|204:108,2,20,2|2|2,0:0|0:0|0:0,0:0:0:0:
120,80,59536,6,2,B|144:96,2,20,2|2|2,0:0|0:0|0:0,0:0:0:0:
120,189,59808,2,2,B|96:205,2,20,2|2|2,0:0|0:0|0:0,0:0:0:0:
44,266,60081,2,0,B|16:272,2,20
179,292,60354,2,2,B|199:276,2,20,2|2|2,0:0|0:0|0:0,0:0:0:0:
179,328,60490,2,2,B|200:348,2,20,2|2|2,0:0|0:0|0:0,0:0:0:0:
288,316,60763,2,0,B|324:316,4,20,2|0|2|0|2,0:0|0:0|0:0|0:0|0:0,0:0:0:0:
432,316,61172,2,0,B|452:320,4,20,0|0|0|0|0,0:0|0:0|0:0|0:0|0:0,0:0:0:0:
432,244,61445,2,2,B|412:228,2,20,2|2|2,0:0|0:0|0:0,0:0:0:0:
468,140,61717,5,6,0:0:0:0:
460,68,61854,1,0,0:0:0:0:
392,44,61990,1,2,0:0:0:0:
412,188,62263,2,2,B|344:196|304:120|340:72,1,160,2|0,0:0|0:0,0:0:0:0:
292,24,62672,2,2,B|216:52,1,80,2|0,0:0|0:0,0:0:0:0:
256,112,62945,2,2,B|208:132,2,40,2|2|0,0:0|0:0|0:0,0:0:0:0:
120,164,63354,1,2,0:0:0:0:
256,112,63626,1,2,0:0:0:0:
324,88,63763,1,0,0:0:0:0:
380,133,63899,6,0,B|392:174|433:188,1,80,2|0,0:0|0:0,0:0:0:0:
448,120,64172,2,0,B|489:134|501:175,1,80,2|0,0:0|0:0,0:0:0:0:
480,244,64445,2,0,B|410:287|350:216|328:192,1,160,0|2,0:0|0:0,0:0:0:0:
339,204,64786,1,0,0:0:0:0:
339,204,64854,1,2,0:0:0:0:
284,252,64990,1,0,0:0:0:0:
304,320,65126,1,0,0:0:0:0:
232,304,65263,1,2,0:0:0:0:
92,344,65536,2,0,B|64:364,4,20
44,268,65808,1,2,0:0:0:0:
156,208,66081,6,0,B|124:120,1,80,4|0,0:0|0:0,0:0:0:0:
128,132,66286,1,0,0:0:0:0:
128,132,66354,1,2,0:0:0:0:
248,48,66626,2,0,B|152:68,1,80
304,112,67036,2,0,B|208:132,1,80,2|0,0:0|0:0,0:0:0:0:
224,200,67308,2,0,B|264:192,2,40,0|0|2,0:0|0:0|0:0,0:0:0:0:
364,168,67717,1,0,0:0:0:0:
468,68,67990,2,2,B|384:92,1,80,2|0,0:0|0:0,0:0:0:0:
432,152,68263,6,2,B|508:204|472:292,1,160
404,264,68672,1,0,0:0:0:0:
400,336,68808,1,0,0:0:0:0:
264,288,69081,2,0,B|292:292,4,20,0|0|2|2|2,0:0|0:0|0:0|0:0|0:0,0:0:0:0:
384,364,69490,2,0,B|356:368,4,20,0|0|2|2|2,0:0|0:0|0:0|0:0|0:0,0:0:0:0:
440,196,69899,2,0,B|408:164,2,40
484,140,70172,2,2,B|484:56,1,80,2|0,0:0|0:0,0:0:0:0:
484,60,70445,1,4,0:0:0:0:
468,40,87899,6,12,B|444:128,1,80,12|0,0:0|0:0,0:0:0:0:
368,168,88172,1,0,0:0:0:0:
299,99,88308,2,12,B|275:187,1,80,12|0,0:0|0:0,0:0:0:0:
199,227,88581,1,0,0:0:0:0:
130,158,88717,2,12,B|106:246,1,80,12|0,0:0|0:0,0:0:0:0:
16,264,88990,5,2,0:0:0:0:
16,360,89127,1,0,0:0:0:0:
100,312,89263,1,0,0:0:0:0:
180,364,89399,1,2,0:0:0:0:
256,308,89536,1,0,0:0:0:0:
332,364,89672,1,0,0:0:0:0:
412,312,89808,1,2,0:0:0:0:
496,360,89945,1,0,0:0:0:0:
496,264,90081,5,12,0:0:0:0:
508,168,90217,2,0,B|476:132|488:92,1,80,0|2,0:0|0:0,0:0:0:0:
400,36,90490,1,12,0:0:0:0:
392,132,90627,2,0,B|424:168|412:208,1,80,0|2,0:0|0:0,0:0:0:0:
352,280,90899,2,0,B|320:244|332:204,1,80,12|2,0:0|0:0,0:0:0:0:
300,116,91172,5,2,0:0:0:0:
236,44,91308,1,0,0:0:0:0:
156,96,91445,1,0,0:0:0:0:
220,168,91581,2,0,B|212:256,2,80,0|2|0,0:0|0:0|0:0,0:0:0:0:
288,236,91990,1,8,0:0:0:0:
140,216,92127,1,8,0:0:0:0:
48,239,92263,6,12,B|24:276|32:316,1,80,12|0,0:0|0:0,0:0:0:0:
256,360,92536,1,0,0:0:0:0:
479,316,92672,2,12,B|488:276|463:239,1,80,12|0,0:0|0:0,0:0:0:0:
256,192,92945,1,0,0:0:0:0:
217,104,93081,2,12,B|256:84|294:104,1,80,12|0,0:0|0:0,0:0:0:0:
463,144,93354,6,12,B|488:108|479:67,1,80,12|0,0:0|0:0,0:0:0:0:
256,24,93627,1,0,0:0:0:0:
32,67,93763,2,12,B|24:108|48:144,1,80,12|0,0:0|0:0,0:0:0:0:
256,192,94036,1,0,0:0:0:0:
294,279,94172,2,12,B|256:300|217:279,1,80,12|0,0:0|0:0,0:0:0:0:
160,204,94445,6,12,B|156:156|184:128,1,80,12|0,0:0|0:0,0:0:0:0:
256,64,94717,1,0,0:0:0:0:
329,129,94854,2,12,B|356:156|352:204,1,80,12|0,0:0|0:0,0:0:0:0:
256,192,95127,1,0,0:0:0:0:
294,279,95263,2,12,B|256:300|217:279,1,80,12|0,0:0|0:0,0:0:0:0:
124,300,95536,6,12,B|180:360,1,80,12|0,0:0|0:0,0:0:0:0:
388,300,95808,1,0,0:0:0:0:
388,300,95945,2,12,B|332:360,1,80,12|0,0:0|0:0,0:0:0:0:
256,300,96217,2,0,B|256:216,1,80,0|2,0:0|0:0,0:0:0:0:
256,124,96490,1,0,0:0:0:0:
256,28,96627,5,12,0:0:0:0:
176,80,96763,2,0,B|92:80,1,80
256,124,97036,1,12,0:0:0:0:
336,72,97172,2,0,B|420:72,1,80
256,192,97445,2,12,B|256:276,1,80,12|0,0:0|0:0,0:0:0:0:
256,356,97717,5,12,0:0:0:0:
176,304,97854,2,0,B|92:304,1,80
256,272,98127,1,12,0:0:0:0:
336,312,98263,2,0,B|420:312,1,80
256,192,98536,2,12,B|256:108,1,80,12|0,0:0|0:0,0:0:0:0:
160,80,98808,6,12,B|112:96|112:144,1,80,12|0,0:0|0:0,0:0:0:0:
256,192,99081,1,0,0:0:0:0:
352,304,99217,2,12,B|400:288|400:240,1,80,12|0,0:0|0:0,0:0:0:0:
256,192,99490,1,0,0:0:0:0:
323,124,99627,2,12,B|379:68,1,80,12|0,0:0|0:0,0:0:0:0:
108,180,99899,6,12,B|86:225|120:259,1,80,12|0,0:0|0:0,0:0:0:0:
256,192,100172,1,0,0:0:0:0:
403,203,100308,2,12,B|425:158|391:124,1,80,12|0,0:0|0:0,0:0:0:0:
256,192,100581,1,0,0:0:0:0:
189,260,100717,2,12,B|133:316,1,80,12|0,0:0|0:0,0:0:0:0:
256,360,100990,6,12,B|256:268,2,80,12|0|0,0:0|0:0|0:0,0:0:0:0:
352,360,101399,2,12,B|352:268,2,80,12|0|0,0:0|0:0|0:0,0:0:0:0:
448,360,101808,2,0,B|448:268,1,80,12|0,0:0|0:0,0:0:0:0:
448,183,102081,6,12,B|448:91,2,80,12|0|0,0:0|0:0|0:0,0:0:0:0:
352,183,102490,2,12,B|352:91,2,80,12|0|0,0:0|0:0|0:0,0:0:0:0:
256,183,102899,2,0,B|256:91,1,80,12|0,0:0|0:0,0:0:0:0:
188,35,103172,6,12,B|96:35,2,80,12|0|0,0:0|0:0|0:0,0:0:0:0:
188,131,103581,2,12,B|96:131,2,80,12|0|0,0:0|0:0|0:0,0:0:0:0:
188,227,103990,2,0,B|96:227,1,80,12|0,0:0|0:0,0:0:0:0:
36,292,104263,5,2,0:0:0:0:
84,304,104331,1,0,0:0:0:0:
132,312,104399,1,0,0:0:0:0:
180,320,104467,1,0,0:0:0:0:
228,328,104536,5,2,0:0:0:0:
276,192,104672,1,0,0:0:0:0:
408,248,104808,1,2,0:0:0:0:
360,384,104945,1,0,0:0:0:0:
228,328,105081,1,2,0:0:0:0:
276,192,105217,1,2,0:0:0:0:
360,144,105354,6,12,B|460:144,1,80,12|0,0:0|0:0,0:0:0:0:
508,75,105627,1,0,0:0:0:0:
440,7,105763,2,12,B|340:7,1,80,12|0,0:0|0:0,0:0:0:0:
292,76,106036,1,0,0:0:0:0:
196,76,106172,2,12,B|104:76,1,80,12|0,0:0|0:0,0:0:0:0:
184,144,106445,6,12,B|184:244,1,80,12|0,0:0|0:0,0:0:0:0:
115,292,106717,1,0,0:0:0:0:
47,224,106854,2,12,B|47:124,1,80,12|0,0:0|0:0,0:0:0:0:
116,76,107127,1,0,0:0:0:0:
184,144,107263,2,12,B|276:144,1,80,12|0,0:0|0:0,0:0:0:0:
280,240,107536,6,0,B|280:296|248:320,2,80,12|0|0,0:0|0:0|0:0,0:0:0:0:
368,200,107945,2,0,B|400:245|387:283,2,80,12|0|0,0:0|0:0|0:0,0:0:0:0:
404,112,108354,2,0,B|456:131|468:169,1,80,12|0,0:0|0:0,0:0:0:0:
384,16,108627,6,0,B|480:24,2,80,12|0|2,0:0|0:0|0:0,0:0:0:0:
288,0,109036,1,0,0:0:0:0:
232,76,109172,2,0,L|316:92,1,80,0|2,0:0|0:0,0:0:0:0:
404,112,109445,1,0,0:0:0:0:
332,176,109581,1,0,0:0:0:0:
404,240,109717,6,12,B|480:296,1,80,12|0,0:0|0:0,0:0:0:0:
444,380,109990,1,0,0:0:0:0:
348,372,110127,2,12,B|272:316,1,80,12|0,0:0|0:0,0:0:0:0:
308,232,110399,1,0,0:0:0:0:
308,232,110536,2,12,B|232:176,1,80,12|0,0:0|0:0,0:0:0:0:
168,244,110808,6,12,B|196:280|168:316,1,80,12|0,0:0|0:0,0:0:0:0:
80,360,111081,1,0,0:0:0:0:
40,272,111217,2,12,B|12:236|40:200,1,80,12|0,0:0|0:0,0:0:0:0:
128,156,111490,1,0,0:0:0:0:
224,164,111627,2,12,B|256:91,1,80,12|0,0:0|0:0,0:0:0:0:
324,24,111899,5,12,0:0:0:0:
324,24,111967,1,0,0:0:0:0:
324,24,112036,1,0,0:0:0:0:
384,96,112172,1,0,0:0:0:0:
456,36,112308,5,12,0:0:0:0:
456,36,112377,1,0,0:0:0:0:
456,36,112445,1,0,0:0:0:0:
384,96,112581,1,0,0:0:0:0:
420,184,112717,1,12,0:0:0:0:
332,224,112854,1,0,0:0:0:0:
418,185,112990,5,12,0:0:0:0:
418,185,113058,1,0,0:0:0:0:
418,185,113127,1,0,0:0:0:0:
333,225,113263,1,0,0:0:0:0:
372,309,113399,5,12,0:0:0:0:
372,309,113467,1,0,0:0:0:0:
372,309,113536,1,0,0:0:0:0:
333,225,113672,1,0,0:0:0:0:
238,236,113808,1,12,0:0:0:0:
222,141,113945,1,0,0:0:0:0:
184,52,114081,6,12,B|104:32,1,80,12|0,0:0|0:0,0:0:0:0:
28,88,114354,1,0,0:0:0:0:
168,176,114490,2,12,B|88:156,1,80,12|0,0:0|0:0,0:0:0:0:
12,212,114763,1,0,0:0:0:0:
148,304,114899,2,12,B|68:284,1,80,12|0,0:0|0:0,0:0:0:0:
328,332,115172,6,12,B|408:352,1,80,12|0,0:0|0:0,0:0:0:0:
484,296,115445,1,0,0:0:0:0:
344,208,115581,2,12,B|424:228,1,80,12|0,0:0|0:0,0:0:0:0:
500,172,115854,1,0,0:0:0:0:
364,80,115990,2,12,B|444:100,1,80,12|0,0:0|0:0,0:0:0:0:
400,12,116263,6,12,B|316:-8,1,80,12|0,0:0|0:0,0:0:0:0:
364,80,116536,1,0,0:0:0:0:
364,80,116672,2,12,B|286:61,1,80,12|0,0:0|0:0,0:0:0:0:
328,148,116944,1,0,0:0:0:0:
328,148,117081,2,12,B|250:129,1,80,12|0,0:0|0:0,0:0:0:0:
156,108,117354,6,12,B|136:56|152:24,2,80,12|0|0,0:0|0:0|0:0,0:0:0:0:
96,184,117763,1,0,0:0:0:0:
20,124,117899,1,0,0:0:0:0:
12,220,118036,1,8,0:0:0:0:
88,276,118172,1,0,0:0:0:0:
172,232,118308,1,8,0:0:0:0:
216,316,118445,6,0,B|264:300|288:336,1,80,12|0,0:0|0:0,0:0:0:0:
382,334,118717,1,0,0:0:0:0:
382,237,118854,2,0,B|366:189|402:165,1,80,12|0,0:0|0:0,0:0:0:0:
400,71,119127,1,0,0:0:0:0:
303,71,119263,2,0,B|255:87|231:51,1,80,12|0,0:0|0:0,0:0:0:0:
135,52,119536,6,0,B|151:100|115:124,1,80,12|0,0:0|0:0,0:0:0:0:
117,218,119808,1,0,0:0:0:0:
214,218,119945,2,0,B|262:202|286:238,1,80,12|0,0:0|0:0,0:0:0:0:
285,141,120217,1,0,0:0:0:0:
188,141,120354,2,0,B|140:157|116:121,1,80,12|0,0:0|0:0,0:0:0:0:
24,140,120627,5,12,0:0:0:0:
32,236,120763,1,0,0:0:0:0:
92,312,120899,1,0,0:0:0:0:
183,341,121036,1,4,0:0:0:0:
256,279,121172,1,0,0:0:0:0:
329,341,121308,1,0,0:0:0:0:
420,312,121445,1,12,0:0:0:0:
480,236,121581,1,0,0:0:0:0:
488,140,121717,6,0,B|375:84,2,119.999996423721,2|0|2,0:0|0:0|0:0,0:0:0:0:
505,69,122399,1,0,0:0:0:0:
440,35,122536,2,8,B|457:0,2,40
372,8,122808,2,0,B|336:28|296:8,1,80
223,7,123081,2,0,B|187:27|147:7,1,80,2|0,0:0|0:0,0:0:0:0:
88,52,123354,1,0,0:0:0:0:
88,52,123490,1,0,0:0:0:0:
136,108,123627,6,8,B|176:132|172:184,1,80,8|0,0:0|0:0,0:0:0:0:
223,225,123899,2,0,B|275:153,1,80
377,226,124172,2,0,B|381:183|342:160,1,80,8|0,0:0|0:0,0:0:0:0:
304,100,124445,2,0,B|328:64,2,40,2|0|0,0:0|0:0|0:0,0:0:0:0:
248,56,124717,1,8,0:0:0:0:
184,92,124854,1,8,0:0:0:0:
116,68,124990,6,0,B|84:32|96:-8,2,80,0|0|2,0:0|0:0|0:0,0:0:0:0:
116,140,125399,2,0,B|80:172|40:160,2,80,0|0|2,0:0|0:0|0:0,0:0:0:0:
188,140,125808,2,0,B|220:176|208:216,2,80,0|0|2,0:0|0:0|0:0,0:0:0:0:
188,68,126217,2,0,B|224:36|264:48,2,80,0|0|2,0:0|0:0|0:0,0:0:0:0:
188,140,126627,2,2,B|236:124,2,40
116,140,126899,2,2,B|132:188,2,40
52,176,127172,5,0,0:0:0:0:
60,248,127308,1,0,0:0:0:0:
72,320,127445,2,2,B|148:352,1,80,2|0,0:0|0:0,0:0:0:0:
200,304,127717,1,0,0:0:0:0:
212,232,127854,2,2,B|288:200,1,80,2|0,0:0|0:0,0:0:0:0:
352,172,128127,1,0,0:0:0:0:
360,244,128263,1,0,0:0:0:0:
372,316,128399,2,2,B|448:348,1,80,2|0,0:0|0:0,0:0:0:0:
456,276,128672,6,2,B|488:200,1,80,0|2,0:0|0:0,0:0:0:0:
424,164,128945,1,0,0:0:0:0:
468,108,129081,1,8,0:0:0:0:
404,80,129217,1,0,0:0:0:0:
332,80,129354,6,0,B|376:12,2,80,0|0|2,0:0|0:0|0:0,0:0:0:0:
230,59,129763,2,0,B|213:-20,2,80,0|0|2,0:0|0:0|0:0,0:0:0:0:
144,115,130172,2,0,B|75:71,2,80,0|0|0,0:0|0:0|0:0,0:0:0:0:
112,275,130581,6,0,B|180:232,2,80,0|2|0,0:0|0:0|0:0,0:0:0:0:
250,366,130990,2,0,B|267:288,2,80,0|2|0,0:0|0:0|0:0,0:0:0:0:
250,366,131399,1,0,0:0:0:0:
324,368,131536,6,0,B|408:368,1,80
475,368,131808,2,0,B|504:332|476:296,1,80,2|0,0:0|0:0,0:0:0:0:
403,295,132081,2,0,B|319:295,1,80
252,295,132354,2,0,B|223:259|251:223,1,80,2|0,0:0|0:0,0:0:0:0:
324,222,132627,2,0,B|408:222,1,80
475,222,132899,2,0,B|504:186|476:150,1,80,2|0,0:0|0:0,0:0:0:0:
403,149,133172,2,2,B|319:149,1,80,2|0,0:0|0:0,0:0:0:0:
271,97,133445,1,0,0:0:0:0:
271,97,133581,1,0,0:0:0:0:
228,40,133717,6,0,B|180:44|160:8,2,80,0|0|8,0:0|0:0|0:0,0:0:0:0:
200,108,134127,2,0,B|152:104|132:140,1,80,0|0,0:0|0:0,0:0:0:0:
140,212,134399,2,0,B|92:216|72:180,1,80,8|0,0:0|0:0,0:0:0:0:
24,236,134672,2,0,B|28:320,2,80,0|0|8,0:0|0:0|0:0,0:0:0:0:
92,264,135081,1,8,0:0:0:0:
152,304,135217,2,0,B|180:340|232:336,1,80,0|2,0:0|0:0,0:0:0:0:
280,296,135490,2,0,B|252:260|200:264,1,80,2|2,0:0|0:0,0:0:0:0:
216,192,135763,1,0,0:0:0:0:
288,200,135899,5,0,0:0:0:0:
360,200,136036,1,0,0:0:0:0:
432,200,136172,1,8,0:0:0:0:
416,132,136308,1,0,0:0:0:0:
368,80,136445,1,0,0:0:0:0:
304,48,136581,1,0,0:0:0:0:
232,44,136717,1,8,0:0:0:0:
167,71,136854,1,0,0:0:0:0:
124,127,136990,1,0,0:0:0:0:
104,196,137127,1,0,0:0:0:0:
148,256,137263,6,8,B|232:304,1,80,8|0,0:0|0:0,0:0:0:0:
364,256,137536,2,2,B|280:304,1,80,8|0,0:0|0:0,0:0:0:0:
256,236,137808,2,0,B|256:192,2,40
294,295,138081,2,0,B|330:359|330:359|346:359,2,80,0|0|2,0:0|0:0|0:0,0:0:0:0:
175,359,138490,2,0,B|182:359|182:359|218:295,2,80,0|0|0,0:0|0:0|0:0,0:0:0:0:
132,300,138899,6,0,B|180:224,1,80,0|2,0:0|0:0,0:0:0:0:
256,236,139172,1,0,0:0:0:0:
337,232,139308,2,0,B|380:300,1,80,2|2,0:0|0:0,0:0:0:0:
256,236,139581,1,0,0:0:0:0:
292,176,139717,2,2,B|320:120,2,40
202,140,139990,2,2,B|220:176,2,40
256,92,140248,5,4,0:0:0:0:
312,44,140384,1,0,0:0:0:0:
376,76,140520,1,2,0:0:0:0:
440,108,140657,5,0,0:0:0:0:
384,156,140793,1,0,0:0:0:0:
320,124,140929,1,2,0:0:0:0:
264,172,141066,5,0,0:0:0:0:
320,124,141202,1,0,0:0:0:0:
384,156,141338,1,2,0:0:0:0:
448,188,141475,5,0,0:0:0:0:
392,236,141611,1,0,0:0:0:0:
328,204,141748,1,2,0:0:0:0:
268,244,141884,5,0,0:0:0:0:
332,280,142020,1,0,0:0:0:0:
396,312,142157,2,2,B|484:312,1,80,2|0,0:0|0:0,0:0:0:0:
460,384,142429,5,0,0:0:0:0:
388,380,142566,1,0,0:0:0:0:
316,384,142702,1,2,0:0:0:0:
244,380,142838,1,0,0:0:0:0:
172,384,142975,1,0,0:0:0:0:
100,380,143111,1,2,0:0:0:0:
40,276,143248,5,0,0:0:0:0:
112,272,143384,1,0,0:0:0:0:
184,276,143520,1,2,0:0:0:0:
244,168,143657,5,0,0:0:0:0:
172,164,143793,1,0,0:0:0:0:
100,168,143929,1,2,0:0:0:0:
40,40,144066,6,0,B|0:116,2,80,0|2|0,0:0|0:0|0:0,0:0:0:0:
112,48,144475,1,2,0:0:0:0:
184,40,144611,1,0,0:0:0:0:
256,48,144748,1,0,0:0:0:0:
328,40,144884,1,2,0:0:0:0:
440,144,145020,5,0,0:0:0:0:
368,140,145157,1,0,0:0:0:0:
296,144,145293,1,2,0:0:0:0:
236,252,145429,5,0,0:0:0:0:
308,248,145566,1,0,0:0:0:0:
380,252,145702,1,2,0:0:0:0:
440,360,145838,5,0,0:0:0:0:
368,356,145975,1,0,0:0:0:0:
296,360,146111,1,2,0:0:0:0:
224,356,146248,1,0,0:0:0:0:
152,360,146384,1,0,0:0:0:0:
80,356,146520,1,2,0:0:0:0:
32,304,146657,2,0,B|0:220,2,80
104,292,147066,6,2,B|128:252|96:220,1,80,2|0,0:0|0:0,0:0:0:0:
132,156,147338,1,0,0:0:0:0:
192,200,147475,2,2,B|168:240|200:272,1,80,2|0,0:0|0:0,0:0:0:0:
264,304,147748,1,0,0:0:0:0:
312,248,147884,2,2,B|336:208|304:176,1,80,2|0,0:0|0:0,0:0:0:0:
340,112,148157,1,0,0:0:0:0:
400,156,148293,2,2,B|376:196|408:228,1,80,2|0,0:0|0:0,0:0:0:0:
480,240,148566,2,0,B|452:332,2,80,0|2|0,0:0|0:0|0:0,0:0:0:0:
496,168,148975,2,0,B|468:76,2,80,2|0|2,0:0|0:0|0:0,0:0:0:0:
428,188,149384,6,0,B|348:188,1,80,0|0,0:0|0:0,0:0:0:0:
312,252,149657,1,2,0:0:0:0:
392,120,149793,2,0,B|312:120,1,80,0|0,0:0|0:0,0:0:0:0:
276,184,150066,1,2,0:0:0:0:
356,56,150202,2,0,B|276:56,1,80,0|0,0:0|0:0,0:0:0:0:
240,120,150475,1,2,0:0:0:0:
124,56,150611,2,0,B|204:56,2,80,0|2|0,0:0|0:0|0:0,0:0:0:0:
92,120,151020,2,0,B|12:120,2,80,0|2|0,0:0|0:0|0:0,0:0:0:0:
140,172,151429,5,2,0:0:0:0:
108,236,151566,1,0,0:0:0:0:
76,300,151702,1,0,0:0:0:0:
147,300,151838,5,2,0:0:0:0:
179,236,151975,1,0,0:0:0:0:
211,172,152111,1,0,0:0:0:0:
283,172,152248,5,2,0:0:0:0:
251,236,152384,1,0,0:0:0:0:
219,300,152520,1,0,0:0:0:0:
290,300,152657,5,2,0:0:0:0:
322,236,152793,1,0,0:0:0:0:
354,172,152929,1,0,0:0:0:0:
425,172,153066,2,0,B|512:172,1,80,0|2,0:0|0:0,0:0:0:0:
492,244,153338,6,0,B|456:280|464:324,1,80
400,348,153611,1,2,0:0:0:0:
396,80,153748,6,0,B|432:116|476:108,1,80
500,172,154020,1,2,0:0:0:0:
252,240,154157,6,0,B|288:204|280:160,1,80
344,136,154429,1,2,0:0:0:0:
412,380,154566,6,0,B|376:344|332:352,1,80
308,288,154838,1,2,0:0:0:0:
292,160,154975,6,0,B|224:104,2,80,0|0|2,0:0|0:0|0:0,0:0:0:0:
236,204,155384,5,0,0:0:0:0:
304,80,155520,1,0,0:0:0:0:
188,12,155657,1,0,0:0:0:0:
124,120,155793,6,2,B|48:68,1,80,2|0,0:0|0:0,0:0:0:0:
6,125,156066,2,0,B|72:170,1,80,0|2,0:0|0:0,0:0:0:0:
21,220,156338,2,0,B|87:265,2,80,0|0|2,0:0|0:0|0:0,0:0:0:0:
0,292,156748,2,0,B|0:380,2,80,0|0|2,0:0|0:0|0:0,0:0:0:0:
140,336,157157,5,4,0:0:0:0:
256,224,157293,1,4,0:0:0:0:
372,336,157429,1,4,0:0:0:0:
176,264,157566,1,4,0:0:0:0:
336,264,157702,1,4,0:0:0:0:
292,148,157838,5,0,0:0:0:0:
316,80,157975,1,2,0:0:0:0:
256,40,158111,1,0,0:0:0:0:
196,80,158248,1,0,0:0:0:0:
220,148,158384,1,2,0:0:0:0:
292,148,158520,5,0,0:0:0:0:
254,208,158657,1,0,0:0:0:0:
303,261,158793,1,2,0:0:0:0:
371,235,158929,1,0,0:0:0:0:
363,164,159066,1,0,0:0:0:0:
395,98,159202,5,2,0:0:0:0:
323,83,159338,1,0,0:0:0:0:
292,148,159475,1,0,0:0:0:0:
340,202,159611,1,2,0:0:0:0:
404,168,159748,1,0,0:0:0:0:
475,147,159884,5,0,0:0:0:0:
492,220,160020,1,0,0:0:0:0:
460,284,160157,2,0,B|452:336|488:364,2,80,2|0|0,0:0|0:0|0:0,0:0:0:0:
388,296,160566,2,0,B|358:339|378:380,2,80,2|0|0,0:0|0:0|0:0,0:0:0:0:
328,256,160975,2,0,B|278:274|271:319,2,80,2|0|0,0:0|0:0|0:0,0:0:0:0:
316,184,161384,2,0,B|265:170|233:203,2,80,2|0|0,0:0|0:0|0:0,0:0:0:0:
356,124,161793,1,0,0:0:0:0:
424,100,161929,2,2,B|388:20,1,80,2|0,0:0|0:0,0:0:0:0:
320,44,162202,5,0,0:0:0:0:
248,28,162338,1,2,0:0:0:0:
188,68,162475,1,0,0:0:0:0:
148,128,162611,1,0,0:0:0:0:
132,200,162748,1,2,0:0:0:0:
172,260,162884,1,0,0:0:0:0:
172,331,163020,5,0,0:0:0:0:
244,347,163157,1,2,0:0:0:0:
304,307,163293,1,0,0:0:0:0:
344,247,163429,1,0,0:0:0:0:
360,175,163566,1,2,0:0:0:0:
320,115,163702,1,0,0:0:0:0:
256,148,163838,2,2,B|256:232,2,80,2|0|2,0:0|0:0|0:0,0:0:0:0:
208,92,164248,5,0,0:0:0:0:
148,56,164384,1,0,0:0:0:0:
88,92,164520,1,2,0:0:0:0:
28,128,164657,5,0,0:0:0:0:
88,164,164793,1,0,0:0:0:0:
148,128,164929,1,2,0:0:0:0:
148,200,165066,5,0,0:0:0:0:
208,164,165202,1,0,0:0:0:0:
208,236,165338,2,0,B|208:320,1,80,2|0,0:0|0:0,0:0:0:0:
280,332,165611,2,0,B|280:248,2,80,0|2|0,0:0|0:0|0:0,0:0:0:0:
352,348,166020,2,0,B|352:264,2,80,2|0|2,0:0|0:0|0:0,0:0:0:0:
424,364,166429,5,4,0:0:0:0:
476,316,166566,1,0,0:0:0:0:
420,272,166702,1,2,0:0:0:0:
476,228,166838,5,0,0:0:0:0:
424,180,166975,1,0,0:0:0:0:
480,136,167111,1,2,0:0:0:0:
420,100,167248,5,0,0:0:0:0:
472,52,167384,1,0,0:0:0:0:
416,8,167520,1,2,0:0:0:0:
364,56,167657,2,0,B|280:56,2,80,0|0|2,0:0|0:0|0:0,0:0:0:0:
348,128,168066,1,0,0:0:0:0:
276,144,168202,2,0,B|276:196|308:224,1,80,0|2,0:0|0:0,0:0:0:0:
352,272,168475,1,0,0:0:0:0:
304,324,168611,6,0,B|368:384,2,80,0|0|2,0:0|0:0|0:0,0:0:0:0:
248,280,169020,1,0,0:0:0:0:
180,252,169157,1,0,0:0:0:0:
108,248,169293,2,0,B|68:264|48:304,2,80,2|0|0,0:0|0:0|0:0,0:0:0:0:
100,176,169702,1,2,0:0:0:0:
128,108,169838,1,0,0:0:0:0:
188,68,169975,2,0,B|196:24|236:8,2,80,0|2|0,0:0|0:0|0:0,0:0:0:0:
248,108,170384,1,0,0:0:0:0:
320,96,170520,2,0,B|416:96,1,80,2|0,0:0|0:0,0:0:0:0:
472,100,170793,5,0,0:0:0:0:
472,172,170929,1,0,0:0:0:0:
400,172,171066,1,2,0:0:0:0:
400,244,171202,2,0,B|400:328,2,80,0|0|2,0:0|0:0|0:0,0:0:0:0:
327,244,171611,2,0,B|327:328,2,80,0|0|2,0:0|0:0|0:0,0:0:0:0:
254,244,172020,2,0,B|254:328,2,80,0|0|2,0:0|0:0|0:0,0:0:0:0:
181,244,172429,2,0,B|181:328,2,80,0|0|2,0:0|0:0|0:0,0:0:0:0:
108,244,172838,1,0,0:0:0:0:
108,171,172975,6,0,B|108:87,2,80,0|0|2,0:0|0:0|0:0,0:0:0:0:
181,171,173384,2,0,B|181:87,2,80,0|0|2,0:0|0:0|0:0,0:0:0:0:
254,171,173793,2,0,B|254:87,2,80,0|0|2,0:0|0:0|0:0,0:0:0:0:
327,171,174202,2,0,B|327:87,2,80,0|0|2,0:0|0:0|0:0,0:0:0:0:
400,171,174611,5,4,0:0:0:0:
256,88,174748,1,4,0:0:0:0:
112,172,174884,1,4,0:0:0:0:
172,328,175020,1,4,0:0:0:0:
340,328,175157,1,4,0:0:0:0:
256,192,199157,5,4,0:0:0:0:
256,192,199225,12,0,201066,0:0:0:0:
360,148,201338,6,0,B|308:136|304:88,1,80,4|0,0:0|0:0,0:0:0:0:
232,36,201611,2,2,B|144:68,1,80,2|0,0:0|0:0,0:0:0:0:
88,132,201884,1,0,0:0:0:0:
156,200,202020,1,2,0:0:0:0:
96,276,202157,2,0,B|64:308|16:304,2,80,0|0|2,0:0|0:0|0:0,0:0:0:0:
168,340,202566,1,0,0:0:0:0:
256,300,202702,2,0,B|304:296|336:328,1,80,0|2,0:0|0:0,0:0:0:0:
424,296,202975,2,0,B|420:248|446:222,1,80
360,180,203248,1,2,0:0:0:0:
424,108,203384,1,0,0:0:0:0:
336,72,203520,6,0,B|348:28|324:-8,2,80,0|0|2,0:0|0:0|0:0,0:0:0:0:
248,112,203929,1,0,0:0:0:0:
180,40,204066,1,0,0:0:0:0:
112,108,204202,2,0,B|80:136|36:136,1,80,2|0,0:0|0:0,0:0:0:0:
28,232,204475,1,0,0:0:0:0:
64,320,204611,2,0,B|80:276|128:272,1,80,2|0,0:0|0:0,0:0:0:0:
204,328,204884,1,0,0:0:0:0:
276,264,205020,1,2,0:0:0:0:
368,296,205157,1,0,0:0:0:0:
412,212,205293,1,0,0:0:0:0:
376,124,205429,2,0,B|404:88|452:100,1,80,0|2,0:0|0:0,0:0:0:0:
376,32,205702,5,0,0:0:0:0:
285,63,205838,1,0,0:0:0:0:
193,94,205975,1,2,0:0:0:0:
102,125,206111,1,0,0:0:0:0:
174,188,206248,1,0,0:0:0:0:
265,219,206384,1,2,0:0:0:0:
357,250,206520,1,0,0:0:0:0:
448,281,206657,1,0,0:0:0:0:
372,340,206793,1,2,0:0:0:0:
280,312,206929,1,0,0:0:0:0:
188,284,207066,1,0,0:0:0:0:
96,260,207202,2,2,B|56:288|52:336,1,80,2|0,0:0|0:0,0:0:0:0:
16,236,207475,2,0,B|44:192|88:184,2,80,0|2|0,0:0|0:0|0:0,0:0:0:0:
8,140,207884,5,0,0:0:0:0:
92,96,208020,2,0,B|112:52|112:52|148:36,1,80,0|2,0:0|0:0,0:0:0:0:
184,128,208293,1,0,0:0:0:0:
251,60,208429,2,0,B|279:72|279:72|299:116,1,80,0|2,0:0|0:0,0:0:0:0:
264,208,208702,1,0,0:0:0:0:
348,252,208838,2,0,B|376:239|376:239|396:195,2,80,0|2|0,0:0|0:0|0:0,0:0:0:0:
268,308,209248,1,0,0:0:0:0:
184,264,209384,1,2,0:0:0:0:
116,328,209520,2,0,B|92:328|92:328|48:340|48:340|32:340,2,80,0|0|2,0:0|0:0|0:0,0:0:0:0:
76,240,209929,1,0,0:0:0:0:
132,160,210066,5,4,0:0:0:0:
228,176,210202,2,0,B|268:188|284:228,2,80,0|8|0,0:0|0:0|0:0,0:0:0:0:
196,84,210611,1,0,0:0:0:0:
104,52,210748,2,0,B|64:40|48:0,2,80,8|0|0,0:0|0:0|0:0,0:0:0:0:
196,84,211157,1,8,0:0:0:0:
268,24,211293,2,0,B|304:4|344:21,2,80,0|0|8,0:0|0:0|0:0,0:0:0:0:
312,108,211702,1,0,0:0:0:0:
356,192,211838,2,0,B|320:212|280:195,2,80,0|8|0,0:0|0:0|0:0,0:0:0:0:
440,144,212248,5,0,0:0:0:0:
500,220,212384,2,0,B|520:256|503:296,1,80,0|8,0:0|0:0,0:0:0:0:
416,344,212657,1,0,0:0:0:0:
328,384,212793,2,0,B|308:348|325:308,1,80,0|8,0:0|0:0,0:0:0:0:
244,252,213066,1,0,0:0:0:0:
188,328,213202,2,0,B|152:348|112:331,1,80,0|8,0:0|0:0,0:0:0:0:
56,252,213475,1,0,0:0:0:0:
148,232,213611,1,0,0:0:0:0:
148,136,213748,2,8,B|148:56,2,80,8|0|0,0:0|0:0|0:0,0:0:0:0:
240,160,214157,2,8,B|240:80,2,80,8|0|0,0:0|0:0|0:0,0:0:0:0:
336,164,214566,5,0,0:0:0:0:
396,88,214702,2,8,B|428:56|472:68,1,80,8|0,0:0|0:0,0:0:0:0:
504,156,214975,1,0,0:0:0:0:
420,200,215111,2,8,B|436:248|476:256,1,80,8|0,0:0|0:0,0:0:0:0:
452,348,215384,1,0,0:0:0:0:
376,292,215520,2,8,B|360:244|320:236,1,80,8|0,0:0|0:0,0:0:0:0:
228,228,215793,1,0,0:0:0:0:
220,324,215929,2,8,B|236:372|276:380,1,80,8|0,0:0|0:0,0:0:0:0:
368,384,216202,1,0,0:0:0:0:
376,292,216338,2,8,B|452:268,1,80,8|0,0:0|0:0,0:0:0:0:
512,192,216611,5,0,0:0:0:0:
492,96,216748,1,0,0:0:0:0:
424,28,216884,1,8,0:0:0:0:
332,4,217020,1,0,0:0:0:0:
256,64,217157,1,0,0:0:0:0:
180,4,217293,1,8,0:0:0:0:
88,28,217429,1,0,0:0:0:0:
20,96,217566,1,0,0:0:0:0:
0,192,217702,1,8,0:0:0:0:
20,288,217838,1,0,0:0:0:0:
88,356,217975,1,0,0:0:0:0:
180,380,218111,1,8,0:0:0:0:
256,320,218248,1,0,0:0:0:0:
332,380,218384,1,0,0:0:0:0:
424,356,218520,1,8,0:0:0:0:
492,288,218657,1,0,0:0:0:0:
488,192,218793,6,0,B|444:176|408:200,1,80,2|0,0:0|0:0,0:0:0:0:
352,112,219066,1,0,0:0:0:0:
256,0,219202,2,0,B|240:44|264:80,1,80,2|0,0:0|0:0,0:0:0:0:
160,112,219475,1,0,0:0:0:0:
24,192,219611,6,0,B|68:208|104:184,1,80,2|0,0:0|0:0,0:0:0:0:
160,272,219884,1,0,0:0:0:0:
256,384,220020,2,0,B|272:340|248:304,1,80,2|0,0:0|0:0,0:0:0:0:
352,272,220293,1,0,0:0:0:0:
300,192,220429,6,0,B|392:192,1,80,2|0,0:0|0:0,0:0:0:0:
212,192,220702,2,0,B|120:192,1,80,2|0,0:0|0:0,0:0:0:0:
68,120,220975,5,2,0:0:0:0:
124,44,221111,1,0,0:0:0:0:
220,60,221248,1,0,0:0:0:0:
315,60,221384,5,2,0:0:0:0:
411,44,221520,1,0,0:0:0:0:
467,120,221657,1,0,0:0:0:0:
456,216,221793,5,2,0:0:0:0:
400,292,221929,1,0,0:0:0:0:
304,276,222066,1,0,0:0:0:0:
209,276,222202,5,2,0:0:0:0:
113,292,222338,1,0,0:0:0:0:
57,216,222475,1,0,0:0:0:0:
136,160,222611,5,2,0:0:0:0:
136,160,222679,1,0,0:0:0:0:
136,160,222748,1,0,0:0:0:0:
224,124,222884,1,2,0:0:0:0:
224,124,222952,1,0,0:0:0:0:
224,124,223020,1,0,0:0:0:0:
308,172,223157,1,4,0:0:0:0:
468,40,224248,5,8,0:0:0:0:
460,88,224316,1,0,0:0:0:0:
452,136,224384,1,0,0:0:0:0:
444,184,224452,1,0,0:0:0:0:
436,232,224520,1,0,0:0:0:0:
367,163,224657,5,8,0:0:0:0:
359,211,224725,1,0,0:0:0:0:
351,259,224793,1,0,0:0:0:0:
343,307,224861,1,0,0:0:0:0:
335,355,224929,1,0,0:0:0:0:
266,286,225066,5,8,0:0:0:0:
84,348,225338,6,0,B|32:284,1,80,2|0,0:0|0:0,0:0:0:0:
124,248,225611,2,0,B|164:292,2,40
52,184,225884,1,0,0:0:0:0:
144,160,226020,1,0,0:0:0:0:
76,92,226157,5,0,0:0:0:0:
120,73,226225,1,0,0:0:0:0:
164,54,226293,1,0,0:0:0:0:
208,36,226361,1,0,0:0:0:0:
252,18,226429,1,0,0:0:0:0:
288,108,226566,2,0,B|272:160,2,40
368,56,226838,1,0,0:0:0:0:
448,108,226975,2,0,B|480:76,2,40
480,200,227248,2,0,B|512:168,2,40
416,272,227520,5,0,0:0:0:0:
340,332,227657,1,0,0:0:0:0:
268,272,227793,1,0,0:0:0:0:
232,304,227861,1,0,0:0:0:0:
196,336,227929,1,0,0:0:0:0:
108,292,228066,1,0,0:0:0:0:
24,336,228202,1,0,0:0:0:0:
20,240,228338,5,0,0:0:0:0:
24,192,228407,1,0,0:0:0:0:
28,144,228475,1,0,0:0:0:0:
32,96,228543,1,0,0:0:0:0:
36,48,228611,1,0,0:0:0:0:
116,100,228748,1,0,0:0:0:0:
200,56,228884,2,0,B|236:28,2,40
268,124,229157,2,0,B|232:152,2,40
335,191,229429,2,0,B|371:163,2,40
424,232,229702,5,0,0:0:0:0:
456,324,229838,1,0,0:0:0:0:
360,332,229975,1,0,0:0:0:0:
340,288,230043,1,0,0:0:0:0:
320,244,230111,1,0,0:0:0:0:
244,304,230248,2,0,B|264:352,2,40
220,260,230452,1,0,0:0:0:0:
176,240,230520,1,0,0:0:0:0:
136,320,230657,1,0,0:0:0:0:
48,280,230793,5,0,0:0:0:0:
115,212,230929,1,0,0:0:0:0:
182,144,231066,1,0,0:0:0:0:
136,128,231134,1,0,0:0:0:0:
92,108,231202,1,0,0:0:0:0:
148,32,231338,1,0,0:0:0:0:
240,64,231475,1,0,0:0:0:0:
332,32,231611,1,0,0:0:0:0:
380,44,231679,1,0,0:0:0:0:
428,56,231748,1,0,0:0:0:0:
468,144,231884,5,0,0:0:0:0:
376,172,232020,1,0,0:0:0:0:
444,240,232157,1,0,0:0:0:0:
404,268,232225,1,0,0:0:0:0:
364,296,232293,1,0,0:0:0:0:
324,324,232361,1,0,0:0:0:0:
284,352,232429,1,0,0:0:0:0:
192,320,232566,6,0,B|228:296,2,40
96,336,232838,2,0,B|60:360,2,40
156,260,233111,2,0,B|192:236,2,40
60,276,233384,2,0,B|24:300,2,40
120,200,233657,1,0,0:0:0:0:
24,216,233793,1,0,0:0:0:0:
80,140,233929,1,0,0:0:0:0:
96,44,234066,5,4,0:0:0:0:
168,108,234202,1,0,0:0:0:0:
240,44,234338,1,0,0:0:0:0:
312,108,234475,1,0,0:0:0:0:
348,80,234543,1,0,0:0:0:0:
388,48,234611,5,0,0:0:0:0:
452,120,234748,1,0,0:0:0:0:
388,192,234884,1,0,0:0:0:0:
452,264,235020,1,0,0:0:0:0:
392,340,235157,5,0,0:0:0:0:
336,264,235293,1,0,0:0:0:0:
288,264,235361,1,0,0:0:0:0:
240,264,235429,1,0,0:0:0:0:
192,264,235498,1,0,0:0:0:0:
144,264,235566,2,0,B|56:264,1,80,0|0,0:0|0:0,0:0:0:0:
100,176,235838,1,0,0:0:0:0:
12,140,235975,1,0,0:0:0:0:
88,84,236111,1,0,0:0:0:0:
184,68,236248,6,0,B|204:64|224:68,2,40
256,132,236520,1,0,0:0:0:0:
328,68,236657,2,0,B|308:64|288:68,2,40
400,132,236929,1,0,0:0:0:0:
472,68,237066,2,0,B|492:64|512:68,2,40
508,156,237338,5,0,0:0:0:0:
440,224,237475,2,0,B|420:228|400:224,2,40
508,292,237748,1,0,0:0:0:0:
436,356,237884,1,0,0:0:0:0:
388,351,237952,1,0,0:0:0:0:
340,346,238020,1,0,0:0:0:0:
292,342,238088,1,0,0:0:0:0:
243,338,238157,1,0,0:0:0:0:
148,360,238293,1,2,0:0:0:0:
72,300,238429,5,0,0:0:0:0:
144,236,238566,1,0,0:0:0:0:
68,180,238702,1,0,0:0:0:0:
144,120,238838,2,0,B|96:32,2,80
240,104,239248,1,0,0:0:0:0:
280,76,239316,1,0,0:0:0:0:
320,52,239384,1,0,0:0:0:0:
360,80,239452,1,0,0:0:0:0:
400,104,239520,1,0,0:0:0:0:
472,168,239657,2,0,B|496:208|484:248,2,80
396,228,240066,5,0,0:0:0:0:
336,304,240202,1,0,0:0:0:0:
256,252,240338,1,0,0:0:0:0:
176,304,240475,1,0,0:0:0:0:
116,228,240611,1,8,0:0:0:0:
180,156,240748,2,0,B|180:68,1,80
396,4,241020,5,8,0:0:0:0:
332,76,241157,2,0,B|332:164,1,80
256,100,241429,1,8,0:0:0:0:
256,196,241566,2,0,B|256:288,1,80
340,228,241838,1,8,0:0:0:0:
340,324,241975,1,0,0:0:0:0:
256,372,242111,1,0,0:0:0:0:
172,324,242248,5,0,0:0:0:0:
130,299,242316,1,0,0:0:0:0:
88,274,242384,1,0,0:0:0:0:
46,249,242452,1,0,0:0:0:0:
4,225,242520,1,4,0:0:0:0:
88,180,242657,1,0,0:0:0:0:
28,108,242793,1,4,0:0:0:0:
84,32,242929,5,0,0:0:0:0:
152,100,243066,1,0,0:0:0:0:
248,84,243202,1,0,0:0:0:0:
320,148,243338,1,0,0:0:0:0:
412,120,243475,1,0,0:0:0:0:
476,192,243611,1,0,0:0:0:0:
468,240,243679,1,0,0:0:0:0:
460,288,243748,1,0,0:0:0:0:
452,336,243816,1,0,0:0:0:0:
444,384,243884,1,0,0:0:0:0:
352,364,244020,6,0,B|312:352|276:376,2,80
364,268,244429,1,0,0:0:0:0:
284,216,244566,1,0,0:0:0:0:
232,296,244702,2,0,B|184:304|168:352,1,80,2|0,0:0|0:0,0:0:0:0:
80,372,244975,6,0,B|44:336|64:296,1,80,8|0,0:0|0:0,0:0:0:0:
130,231,245248,1,0,0:0:0:0:
62,163,245384,2,0,B|26:127|46:87,1,80,8|0,0:0|0:0,0:0:0:0:
124,36,245657,1,0,0:0:0:0:
220,36,245793,1,8,0:0:0:0:
296,92,245929,1,0,0:0:0:0:
348,172,246066,2,0,B|368:206|416:206,2,80,0|8|0,0:0|0:0|0:0,0:0:0:0:
428,120,246475,1,0,0:0:0:0:
338,100,246611,5,8,0:0:0:0:
347,274,246748,1,8,0:0:0:0:
173,283,246884,1,8,0:0:0:0:
164,109,247020,1,8,0:0:0:0:
44,136,247157,5,2,0:0:0:0:
132,176,247293,1,0,0:0:0:0:
60,236,247429,1,0,0:0:0:0:
152,264,247566,5,2,0:0:0:0:
192,352,247702,1,0,0:0:0:0:
252,280,247838,1,0,0:0:0:0:
324,220,247975,5,2,0:0:0:0:
236,180,248111,1,0,0:0:0:0:
308,120,248248,1,0,0:0:0:0:
216,88,248384,5,2,0:0:0:0:
176,0,248520,1,0,0:0:0:0:
116,72,248657,1,0,0:0:0:0:
28,112,248793,2,2,B|24:196,1,80,2|0,0:0|0:0,0:0:0:0:
120,200,249066,2,2,B|116:284,1,80,2|0,0:0|0:0,0:0:0:0:
208,312,249338,6,0,B|180:352,2,40,2|0|0,0:0|0:0|0:0,0:0:0:0:
304,320,249611,1,0,0:0:0:0:
388,272,249748,2,0,B|432:312,2,40,2|0|0,0:0|0:0|0:0,0:0:0:0:
400,176,250020,1,0,0:0:0:0:
356,92,250157,2,0,B|396:48,2,40,2|0|0,0:0|0:0|0:0,0:0:0:0:
260,88,250429,1,0,0:0:0:0:
180,140,250566,1,2,0:0:0:0:
148,176,250634,1,0,0:0:0:0:
116,212,250702,1,0,0:0:0:0:
108,308,250838,1,0,0:0:0:0:
200,280,250975,5,4,0:0:0:0:
344,248,251111,1,4,0:0:0:0:
312,104,251248,1,4,0:0:0:0:
168,136,251384,1,4,0:0:0:0:
40,208,251520,5,2,0:0:0:0:
36,304,251657,1,0,0:0:0:0:
124,264,251793,1,0,0:0:0:0:
208,220,251929,1,2,0:0:0:0:
204,316,252066,1,0,0:0:0:0:
292,276,252202,1,0,0:0:0:0:
376,228,252338,1,2,0:0:0:0:
372,324,252475,1,0,0:0:0:0:
460,284,252611,1,0,0:0:0:0:
468,188,252748,2,0,B|488:152|472:112,2,80,2|0|0,0:0|0:0|0:0,0:0:0:0:
380,152,253157,5,2,0:0:0:0:
372,56,253293,1,0,0:0:0:0:
296,112,253429,1,8,0:0:0:0:
220,56,253566,1,0,0:0:0:0:
212,152,253702,6,0,B|132:152,1,80,2|0,0:0|0:0,0:0:0:0:
48,104,253975,1,0,0:0:0:0:
132,152,254111,6,0,B|132:232,1,80,2|0,0:0|0:0,0:0:0:0:
84,316,254384,1,0,0:0:0:0:
132,232,254520,6,0,B|212:232,1,80,2|0,0:0|0:0,0:0:0:0:
296,280,254793,1,0,0:0:0:0:
212,232,254929,6,0,B|212:152,1,80,2|0,0:0|0:0,0:0:0:0:
260,68,255202,1,0,0:0:0:0:
348,104,255338,5,2,0:0:0:0:
388,192,255475,1,2,0:0:0:0:
296,220,255611,1,2,0:0:0:0:
252,136,255748,1,2,0:0:0:0:
160,104,255884,6,0,B|116:84|76:108,2,80,8|0|0,0:0|0:0|0:0,0:0:0:0:
120,192,256293,2,0,B|164:212|204:188,2,80,8|0|0,0:0|0:0|0:0,0:0:0:0:
32,152,256702,2,0,B|12:196|36:236,2,80,8|0|0,0:0|0:0|0:0,0:0:0:0:
120,192,257111,2,0,B|140:148|116:108,2,80,8|0|0,0:0|0:0|0:0,0:0:0:0:
124,288,257520,5,8,0:0:0:0:
192,356,257657,1,0,0:0:0:0:
273,306,257793,1,0,0:0:0:0:
340,373,257929,1,0,0:0:0:0:
412,312,258066,5,2,0:0:0:0:
436,272,258134,1,0,0:0:0:0:
456,228,258202,1,0,0:0:0:0:
428,136,258338,1,0,0:0:0:0:
496,67,258475,5,2,0:0:0:0:
456,43,258543,1,0,0:0:0:0:
412,26,258611,1,0,0:0:0:0:
320,51,258748,1,0,0:0:0:0:
232,8,258884,5,2,0:0:0:0:
188,25,258952,1,0,0:0:0:0:
148,49,259020,1,0,0:0:0:0:
216,118,259157,5,0,0:0:0:0:
188,210,259293,1,0,0:0:0:0:
208,254,259361,1,0,0:0:0:0:
232,294,259429,1,2,0:0:0:0:
160,356,259566,1,0,0:0:0:0:
126,234,259702,5,4,0:0:0:0:
298,321,259838,1,4,0:0:0:0:
385,149,259975,1,4,0:0:0:0:
213,62,260111,1,4,0:0:0:0:
256,192,260248,1,4,0:0:0:0:
256,192,266793,5,4,0:0:0:0:
256,192,267611,12,2,268702,0:0:0:0:
352,64,268975,6,0,B|312:132,1,80
244,104,269248,1,2,0:0:0:0:
193,53,269384,2,0,B|153:121,1,80
85,93,269657,1,2,0:0:0:0:
85,164,269793,2,0,B|125:232,1,80
193,204,270066,1,2,0:0:0:0:
260,176,270202,2,0,B|300:244,1,80
368,216,270475,1,2,0:0:0:0:
440,228,270611,2,0,B|464:140,1,80
424,300,270884,2,0,B|400:388,1,80,2|0,0:0|0:0,0:0:0:0:
336,332,271157,6,0,B|296:304|296:248,2,80,0|0|2,0:0|0:0|0:0,0:0:0:0:
280,376,271566,1,0,0:0:0:0:
236,320,271702,2,0,B|220:240,1,80,0|2,0:0|0:0,0:0:0:0:
148,228,271975,1,0,0:0:0:0:
160,300,272111,2,0,B|176:380,1,80,0|2,0:0|0:0,0:0:0:0:
104,380,272384,1,0,0:0:0:0:
92,308,272520,2,0,B|76:228,1,80,0|2,0:0|0:0,0:0:0:0:
12,200,272793,2,0,B|24:112,2,80,0|0|2,0:0|0:0|0:0,0:0:0:0:
77,231,273202,1,0,0:0:0:0:
56,56,273338,5,0,0:0:0:0:
124,36,273475,1,0,0:0:0:0:
192,52,273611,1,2,0:0:0:0:
264,52,273748,5,0,0:0:0:0:
332,32,273884,1,0,0:0:0:0:
400,48,274020,1,2,0:0:0:0:
436,112,274157,5,0,0:0:0:0:
368,132,274293,1,0,0:0:0:0:
300,116,274429,1,2,0:0:0:0:
228,116,274566,5,0,0:0:0:0:
160,136,274702,1,0,0:0:0:0:
92,120,274838,1,2,0:0:0:0:
32,160,274975,1,0,0:0:0:0:
48,232,275111,2,0,B|24:320,2,80,0|2|0,0:0|0:0|0:0,0:0:0:0:
112,268,275520,5,0,0:0:0:0:
152,328,275657,2,0,B|188:356|224:328,1,80,0|8,0:0|0:0,0:0:0:0:
260,264,275929,2,0,B|224:236|188:264,1,80,0|0,0:0|0:0,0:0:0:0:
152,200,276202,1,8,0:0:0:0:
220,176,276338,1,0,0:0:0:0:
288,200,276475,1,0,0:0:0:0:
348,240,276611,2,8,B|428:280,1,80,8|0,0:0|0:0,0:0:0:0:
468,224,276884,1,0,0:0:0:0:
428,164,277020,1,2,0:0:0:0:
456,96,277157,1,0,0:0:0:0:
396,60,277293,1,0,0:0:0:0:
323,90,277429,6,2,B|263:150|154:109|112:45|112:45|52:124|90:192|90:192|52:259|112:338|112:338|154:274|263:233|323:293,1,800
296,368,278929,1,0,0:0:0:0:
368,376,279066,1,2,0:0:0:0:
392,308,279202,1,0,0:0:0:0:
464,308,279338,1,2,0:0:0:0:
432,244,279475,1,0,0:0:0:0:
472,184,279611,1,2,0:0:0:0:
400,176,279748,1,0,0:0:0:0:
444,120,279884,6,0,B|464:80|504:64,2,80,0|0|10,0:0|0:0|0:0,0:0:0:0:
376,92,280293,2,0,B|370:47|395:12,2,80,0|0|10,0:0|0:0|0:0,0:0:0:0:
304,92,280702,2,0,B|275:57|277:14,2,80,0|0|10,0:0|0:0|0:0,0:0:0:0:
250,142,281111,2,0,B|207:128|185:91,2,80,0|0|10,0:0|0:0|0:0,0:0:0:0:
280,208,281520,1,0,0:0:0:0:
296,280,281657,1,0,0:0:0:0:
264,344,281793,1,2,0:0:0:0:
196,368,281929,1,0,0:0:0:0:
128,348,282066,6,0,B|92:320|56:348,1,80
4,298,282338,2,0,B|32:262|4:226,1,80,2|0,0:0|0:0,0:0:0:0:
54,173,282611,2,0,B|90:145|126:173,1,80,0|2,0:0|0:0,0:0:0:0:
178,123,282884,2,0,B|150:87|178:51,1,80,0|0,0:0|0:0,0:0:0:0:
251,49,283157,2,0,B|279:86|251:122,2,80,2|0|0,0:0|0:0|0:0,0:0:0:0:
320,28,283566,2,0,B|408:24,1,80,2|0,0:0|0:0,0:0:0:0:
444,80,283838,1,0,0:0:0:0:
376,108,283975,1,2,0:0:0:0:
412,172,284111,1,0,0:0:0:0:
472,216,284248,6,0,B|468:304,2,80,8|0|0,0:0|0:0|0:0,0:0:0:0:
404,240,284657,2,0,B|400:328,2,80,8|0|0,0:0|0:0|0:0,0:0:0:0:
336,260,285066,2,0,B|332:348,2,80,8|0|0,0:0|0:0|0:0,0:0:0:0:
268,280,285475,1,8,0:0:0:0:
200,300,285611,1,0,0:0:0:0:
132,320,285748,1,0,0:0:0:0:
64,300,285884,1,8,0:0:0:0:
24,240,286020,1,0,0:0:0:0:
8,168,286157,1,0,0:0:0:0:
28,100,286293,1,0,0:0:0:0:
88,60,286429,1,0,0:0:0:0:
160,72,286566,1,0,0:0:0:0:
208,128,286702,6,0,B|276:76,2,80,0|2|0,0:0|0:0|0:0,0:0:0:0:
259,179,287111,2,0,B|327:127,2,80,0|2|0,0:0|0:0|0:0,0:0:0:0:
310,230,287520,2,0,B|378:178,2,80,0|2|0,0:0|0:0|0:0,0:0:0:0:
361,281,287929,2,0,B|429:229,2,80,0|2|0,0:0|0:0|0:0,0:0:0:0:
412,332,288338,2,0,B|480:280,1,80,0|2,0:0|0:0,0:0:0:0:
496,212,288611,1,4,0:0:0:0:
36,56,289702,5,4,0:0:0:0:
256,380,290793,5,4,0:0:0:0:
256,192,291884,12,0,292702,0:0:0:0:
380,92,292975,6,0,B|400:132,2,40
296,48,293248,2,2,B|260:24|220:40,1,80,2|0,0:0|0:0,0:0:0:0:
219,40,293452,1,0,0:0:0:0:
219,40,293520,1,0,0:0:0:0:
248,132,293657,2,2,B|168:156,1,80,2|0,0:0|0:0,0:0:0:0:
140,191,293861,1,0,0:0:0:0:
109,227,293929,1,0,0:0:0:0:
78,264,293998,1,0,0:0:0:0:
47,301,294066,1,0,0:0:0:0:
124,356,294202,5,0,0:0:0:0:
204,304,294338,2,0,B|288:320,1,80,2|0,0:0|0:0,0:0:0:0:
368,364,294611,1,0,0:0:0:0:
412,344,294679,1,0,0:0:0:0:
456,324,294748,1,0,0:0:0:0:
492,236,294884,1,0,0:0:0:0:
448,216,294952,1,0,0:0:0:0:
404,196,295020,1,0,0:0:0:0:
432,104,295157,6,0,B|492:112,2,40
368,32,295429,1,2,0:0:0:0:
340,72,295498,1,0,0:0:0:0:
312,112,295566,1,0,0:0:0:0:
228,160,295702,1,0,0:0:0:0:
220,64,295838,1,2,0:0:0:0:
144,124,295975,1,0,0:0:0:0:
116,164,296043,1,0,0:0:0:0:
88,204,296111,1,0,0:0:0:0:
60,244,296179,1,0,0:0:0:0:
32,284,296248,1,0,0:0:0:0:
104,348,296384,5,0,0:0:0:0:
188,304,296520,2,2,B|272:352,1,80,2|0,0:0|0:0,0:0:0:0:
352,340,296793,5,0,0:0:0:0:
400,348,296861,1,0,0:0:0:0:
448,356,296929,1,0,0:0:0:0:
492,268,297066,1,0,0:0:0:0:
444,260,297134,1,0,0:0:0:0:
396,252,297202,1,0,0:0:0:0:
456,176,297338,6,0,B|524:128,2,80,0|0|2,0:0|0:0|0:0,0:0:0:0:
413,39,297748,2,0,B|380:112,2,80,0|0|2,0:0|0:0|0:0,0:0:0:0:
278,90,298157,2,0,B|264:12,2,80,0|0|2,0:0|0:0|0:0,0:0:0:0:
135,83,298566,2,0,B|192:140,2,80,0|0|2,0:0|0:0|0:0,0:0:0:0:
80,160,298975,1,0,0:0:0:0:
104,200,299043,1,0,0:0:0:0:
144,228,299111,1,0,0:0:0:0:
232,184,299248,1,2,0:0:0:0:
296,256,299384,1,0,0:0:0:0:
360,328,299520,6,0,B|448:328,2,80,0|0|2,0:0|0:0|0:0,0:0:0:0:
496,252,299929,2,0,B|408:252,2,80,0|0|2,0:0|0:0|0:0,0:0:0:0:
360,176,300338,2,0,B|448:176,2,80,0|0|2,0:0|0:0|0:0,0:0:0:0:
496,100,300748,2,0,B|408:100,2,80,0|0|2,0:0|0:0|0:0,0:0:0:0:
436,24,301157,1,0,0:0:0:0:
412,24,301225,1,0,0:0:0:0:
388,24,301293,1,0,0:0:0:0:
364,24,301361,1,0,0:0:0:0:
340,24,301429,1,0,0:0:0:0:
315,24,301498,1,0,0:0:0:0:
291,24,301566,1,0,0:0:0:0:
267,24,301634,1,0,0:0:0:0:
267,24,301702,6,0,B|264:68|228:92,1,80
184,8,301975,2,8,B|149:31|146:75,1,80,8|0,0:0|0:0,0:0:0:0:
184,164,302248,1,0,0:0:0:0:
264,216,302384,2,8,B|340:248,1,80,8|0,0:0|0:0,0:0:0:0:
337,247,302588,1,0,0:0:0:0:
337,247,302657,1,0,0:0:0:0:
337,247,302725,1,0,0:0:0:0:
337,247,302793,1,0,0:0:0:0:
388,328,302929,5,0,0:0:0:0:
296,360,303066,1,8,0:0:0:0:
228,292,303202,1,0,0:0:0:0:
156,356,303338,2,0,B|104:368,2,40,0|0|8,0:0|0:0|0:0,0:0:0:0:
92,284,303611,2,0,B|40:296,2,40,0|0|8,0:0|0:0|0:0,0:0:0:0:
120,192,303884,6,0,B|112:148|148:120,2,80,0|0|8,0:0|0:0|0:0,0:0:0:0:
44,132,304293,2,0,B|52:88|16:60,2,80,0|0|8,0:0|0:0|0:0,0:0:0:0:
108,60,304702,2,0,B|112:8,4,40
200,92,305111,1,0,0:0:0:0:
268,24,305248,2,8,B|316:20|344:60,1,80,8|0,0:0|0:0,0:0:0:0:
272,124,305520,2,8,B|294:157|342:153,1,80,0|8,0:0|0:0,0:0:0:0:
428,108,305793,1,0,0:0:0:0:
460,144,305861,1,0,0:0:0:0:
464,192,305929,1,0,0:0:0:0:
468,288,306066,6,0,B|404:352,1,80
392,252,306338,2,0,B|328:316,1,80,8|0,0:0|0:0,0:0:0:0:
316,216,306611,2,0,B|252:280,1,80,0|8,0:0|0:0,0:0:0:0:
212,284,306816,1,0,0:0:0:0:
164,276,306884,1,0,0:0:0:0:
124,248,306952,1,0,0:0:0:0:
92,212,307020,2,0,B|60:176|76:136,1,80
144,68,307293,5,0,0:0:0:0:
212,136,307429,1,8,0:0:0:0:
276,64,307566,1,0,0:0:0:0:
368,96,307702,1,8,0:0:0:0:
436,28,307838,1,8,0:0:0:0:
480,112,307975,1,0,0:0:0:0:
420,188,308111,1,8,0:0:0:0:
324,196,308248,5,2,0:0:0:0:
320,292,308384,1,0,0:0:0:0:
404,340,308520,1,0,0:0:0:0:
108,340,308657,5,2,0:0:0:0:
192,292,308793,1,0,0:0:0:0:
188,196,308929,1,0,0:0:0:0:
400,136,309066,5,2,0:0:0:0:
352,52,309202,1,0,0:0:0:0:
256,56,309338,1,0,0:0:0:0:
112,136,309475,5,2,0:0:0:0:
160,52,309611,1,0,0:0:0:0:
256,56,309748,1,0,0:0:0:0:
316,132,309884,5,8,0:0:0:0:
188,196,310020,1,8,0:0:0:0:
316,260,310157,1,8,0:0:0:0:
188,324,310293,1,8,0:0:0:0:
296,348,310429,5,2,0:0:0:0:
404,320,310566,1,0,0:0:0:0:
460,224,310702,1,0,0:0:0:0:
460,224,310838,5,2,0:0:0:0:
432,116,310975,1,0,0:0:0:0:
336,63,311111,1,0,0:0:0:0:
336,64,311248,5,2,0:0:0:0:
228,92,311384,1,0,0:0:0:0:
172,188,311520,1,0,0:0:0:0:
172,188,311657,5,2,0:0:0:0:
200,296,311793,1,0,0:0:0:0:
296,349,311929,1,0,0:0:0:0:
268,240,312066,5,2,0:0:0:0:
268,240,312202,1,0,0:0:0:0:
364,184,312338,1,2,0:0:0:0:
364,184,312475,1,0,0:0:0:0:
292,100,312611,6,0,B|284:52|232:28,1,80,2|0,0:0|0:0,0:0:0:0:
160,128,312884,1,0,0:0:0:0:
32,144,313020,2,0,B|40:192|92:216,1,80,2|0,0:0|0:0,0:0:0:0:
164,300,313293,1,0,0:0:0:0:
284,340,313429,2,0,B|312:296|360:292,1,80,2|0,0:0|0:0,0:0:0:0:
464,344,313702,1,0,0:0:0:0:
404,232,313838,2,0,B|448:204|452:156,1,80,2|0,0:0|0:0,0:0:0:0:
360,76,314111,1,0,0:0:0:0:
232,72,314248,6,2,B|152:72,1,80,2|0,0:0|0:0,0:0:0:0:
280,312,314520,2,2,B|360:312,1,80,2|0,0:0|0:0,0:0:0:0:
256,192,314793,1,4,0:0:0:0:
256,192,314861,12,0,315884,0:0:0:0:
452,56,316985,6,0,B|364:36,2,80,2|2|0,0:0|0:0|0:0,0:0:0:0:
349,158,317485,2,0,B|261:178,2,80,2|2|0,0:0|0:0|0:0,0:0:0:0:
451,260,317985,2,0,B|363:240,2,80,2|2|0,0:0|0:0|0:0,0:0:0:0:
348,362,318485,2,0,B|260:382,2,80,2|2|0,0:0|0:0|0:0,0:0:0:0:
60,328,318985,6,0,B|148:348,2,80,2|2|0,0:0|0:0|0:0,0:0:0:0:
163,226,319485,2,0,B|251:206,2,80,2|2|0,0:0|0:0|0:0,0:0:0:0:
61,124,319985,2,0,B|149:144,2,80,2|2|0,0:0|0:0|0:0,0:0:0:0:
164,22,320485,2,0,B|252:2,2,80,2|2|0,0:0|0:0|0:0,0:0:0:0:
296,80,320985,5,2,0:0:0:0:
440,60,321235,1,0,0:0:0:0:
272,168,321485,5,2,0:0:0:0:
383,261,321735,1,0,0:0:0:0:
208,228,321985,5,2,0:0:0:0:
252,365,322235,1,0,0:0:0:0:
120,216,322485,5,2,0:0:0:0:
85,356,322735,1,0,0:0:0:0:
32,40,322985,5,2,0:0:0:0:
68,36,323110,1,0,0:0:0:0:
104,32,323235,1,0,0:0:0:0:
240,80,323485,5,2,0:0:0:0:
276,84,323610,1,0,0:0:0:0:
312,88,323735,1,0,0:0:0:0:
444,36,323985,5,2,0:0:0:0:
448,72,324110,1,0,0:0:0:0:
452,108,324235,1,0,0:0:0:0:
404,244,324485,5,2,0:0:0:0:
400,280,324610,1,0,0:0:0:0:
396,316,324735,1,0,0:0:0:0:
256,352,324985,5,4,0:0:0:0:
112,352,325235,1,0,0:0:0:0:
184,228,325485,1,2,0:0:0:0:
184,84,325735,1,0,0:0:0:0:
328,84,325985,5,4,0:0:0:0:
472,84,326235,1,0,0:0:0:0:
400,208,326485,1,2,0:0:0:0:
400,352,326735,1,0,0:0:0:0:
256,364,326985,6,0,B|176:328,1,80,2|0,0:0|0:0,0:0:0:0:
110,331,327235,2,0,B|30:367,1,80,0|0,0:0|0:0,0:0:0:0:
20,292,327485,2,0,B|56:212,1,80,2|0,0:0|0:0,0:0:0:0:
53,146,327735,2,0,B|17:66,1,80,0|0,0:0|0:0,0:0:0:0:
71,21,327985,6,0,B|151:57,1,80,2|0,0:0|0:0,0:0:0:0:
217,54,328235,2,0,B|297:18,1,80,0|0,0:0|0:0,0:0:0:0:
332,80,328485,2,0,B|416:128,1,80,2|0,0:0|0:0,0:0:0:0:
464,156,328735,2,0,B|416:240,1,80,0|0,0:0|0:0,0:0:0:0:
464,296,328985,6,4,B|348:349|232:296,2,240,4|0|0,0:0|0:0|0:0,0:0:0:0:
464,156,329985,2,4,B|348:103|232:156,2,240,0|0|0,0:0|0:0|0:0,0:0:0:0:
332,224,330985,2,0,B|92:224,2,240,4|0|0,0:0|0:0|0:0,0:0:0:0:
428,332,331985,2,0,B|521:224|428:116,2,240,4|0|0,0:0|0:0|0:0,0:0:0:0:
332,224,332985,5,4,0:0:0:0:
240,336,333235,1,0,0:0:0:0:
96,316,333485,1,2,0:0:0:0:
36,272,333610,1,0,0:0:0:0:
16,204,333735,1,2,0:0:0:0:
32,132,333860,1,0,0:0:0:0:
76,76,333985,1,2,0:0:0:0:
148,60,334110,1,0,0:0:0:0:
212,92,334235,1,2,0:0:0:0:
248,156,334360,1,0,0:0:0:0:
264,228,334485,5,2,0:0:0:0:
300,292,334610,1,0,0:0:0:0:
364,324,334735,1,2,0:0:0:0:
436,308,334860,1,0,0:0:0:0:
480,252,334985,1,2,0:0:0:0:
496,180,335110,1,0,0:0:0:0:
476,112,335235,1,2,0:0:0:0:
416,68,335360,1,0,0:0:0:0:
344,52,335485,1,2,0:0:0:0:
280,88,335610,1,0,0:0:0:0:
264,156,335735,5,2,0:0:0:0:
248,228,335860,1,0,0:0:0:0:
232,296,335985,1,0,0:0:0:0:
168,332,336110,1,0,0:0:0:0:
96,316,336235,1,2,0:0:0:0:
36,272,336360,1,0,0:0:0:0:
16,204,336485,1,2,0:0:0:0:
32,132,336610,1,0,0:0:0:0:
76,76,336735,1,2,0:0:0:0:
148,60,336860,1,0,0:0:0:0:
212,92,336985,1,2,0:0:0:0:
248,156,337110,1,0,0:0:0:0:
264,228,337235,1,0,0:0:0:0:
392,164,337485,5,0,0:0:0:0:
156,324,337735,1,2,0:0:0:0:
352,24,337985,5,0,0:0:0:0:
392,360,338235,1,2,0:0:0:0:
160,24,338485,5,0,0:0:0:0:
476,76,338735,1,2,0:0:0:0:
32,248,338985,5,0,0:0:0:0:
256,16,339235,1,2,0:0:0:0:
460,320,339485,5,0,0:0:0:0:
92,352,339735,1,2,0:0:0:0:
364,40,339985,5,0,0:0:0:0:
316,360,340235,1,2,0:0:0:0:
208,124,340485,5,2,0:0:0:0:
324,144,340610,1,2,0:0:0:0:
304,260,340735,1,2,0:0:0:0:
188,240,340860,1,2,0:0:0:0:
188,240,340985,6,0,B|144:232|112:264,1,80,8|0,0:0|0:0,0:0:0:0:
44,248,341235,2,0,B|52:204|20:172,1,80,0|0,0:0|0:0,0:0:0:0:
28,104,341485,1,2,0:0:0:0:
92,136,341610,1,0,0:0:0:0:
108,64,341735,2,0,B|140:32|184:44,1,80
228,100,341985,1,8,0:0:0:0:
284,56,342110,1,0,0:0:0:0:
340,100,342235,6,0,B|384:96|400:48,1,80
468,68,342485,1,2,0:0:0:0:
496,136,342610,1,0,0:0:0:0:
444,184,342735,2,0,B|456:228|416:264,1,80
444,328,342985,1,8,0:0:0:0:
380,360,343110,1,0,0:0:0:0:
320,320,343235,6,0,B|340:280|320:236,1,80,0|0,0:0|0:0,0:0:0:0:
260,280,343485,1,8,0:0:0:0:
252,352,343610,1,0,0:0:0:0:
192,312,343735,2,0,B|172:356|128:364,1,80
92,304,343985,1,8,0:0:0:0:
20,320,344110,1,0,0:0:0:0:
44,252,344235,6,0,B|48:212|24:176,1,80,2|0,0:0|0:0,0:0:0:0:
64,56,344485,2,0,B|60:96|84:132,1,80,2|0,0:0|0:0,0:0:0:0:
168,240,344735,2,0,B|172:200|148:164,1,80,2|0,0:0|0:0,0:0:0:0:
188,44,344985,2,0,B|184:84|208:120,1,80,8|0,0:0|0:0,0:0:0:0:
304,119,345235,6,0,B|328:84|324:44,1,80,2|0,0:0|0:0,0:0:0:0:
363,164,345485,2,0,B|340:200|344:240,1,80,2|0,0:0|0:0,0:0:0:0:
428,131,345735,2,0,B|452:96|448:56,1,80,2|0,0:0|0:0,0:0:0:0:
487,176,345985,2,0,B|464:212|468:252,1,80,8|0,0:0|0:0,0:0:0:0:
416,304,346235,5,0,0:0:0:0:
356,344,346360,1,0,0:0:0:0:
300,300,346485,1,8,0:0:0:0:
256,356,346610,1,0,0:0:0:0:
212,300,346735,1,8,0:0:0:0:
156,344,346860,1,0,0:0:0:0:
96,304,346985,1,2,0:0:0:0:
24,304,347110,1,0,0:0:0:0:
148,232,347235,6,0,B|120:152,1,80
256,152,347485,2,0,B|256:68,1,80,8|0,0:0|0:0,0:0:0:0:
364,232,347735,2,0,B|392:152,1,80
256,260,347985,5,0,0:0:0:0:
184,128,348110,1,0,0:0:0:0:
328,128,348235,1,2,0:0:0:0:
256,344,348485,1,0,0:0:0:0:
256,152,348735,2,2,B|256:104,4,40,2|2|2|2|4,0:0|0:0|0:0|0:0|0:0,0:0:0:0:
204,200,349110,6,0,B|176:244|132:248,1,80,0|8,0:0|0:0,0:0:0:0:
88,292,349360,1,0,0:0:0:0:
44,236,349485,2,0,B|48:192|12:164,1,80
32,96,349735,1,0,0:0:0:0:
16,24,349860,1,0,0:0:0:0:
84,44,349985,6,0,B|124:24|160:44,1,80,2|0,0:0|0:0,0:0:0:0:
188,112,350235,1,0,0:0:0:0:
252,76,350360,2,0,B|332:60,1,80,0|8,0:0|0:0,0:0:0:0:
388,104,350610,1,0,0:0:0:0:
448,64,350735,1,0,0:0:0:0:
476,128,350860,1,0,0:0:0:0:
424,180,350985,6,4,B|416:232|452:264,1,80
460,324,351235,1,2,0:0:0:0:
396,356,351360,1,0,0:0:0:0:
324,340,351485,2,8,B|272:336|260:284,1,80,8|0,0:0|0:0,0:0:0:0:
296,232,351735,1,0,0:0:0:0:
232,200,351860,1,0,0:0:0:0:
180,252,351985,6,0,B|152:328,1,80,2|0,0:0|0:0,0:0:0:0:
128,188,352235,2,0,B|100:264,1,80,2|0,0:0|0:0,0:0:0:0:
80,112,352485,2,0,B|52:188,1,80,2|0,0:0|0:0,0:0:0:0:
28,48,352735,2,0,B|12:96,2,40
92,16,352985,6,0,B|136:4|168:36,1,80
208,92,353235,1,2,0:0:0:0:
240,28,353360,1,0,0:0:0:0:
288,84,353485,2,8,B|340:20,1,80,8|0,0:0|0:0,0:0:0:0:
396,64,353735,1,0,0:0:0:0:
464,36,353860,1,0,0:0:0:0:
484,104,353985,1,0,0:0:0:0:
420,132,354110,1,0,0:0:0:0:
404,164,354172,1,0,0:0:0:0:
388,196,354235,1,0,0:0:0:0:
444,240,354360,5,0,0:0:0:0:
340,352,354485,1,8,0:0:0:0:
192,320,354610,1,8,0:0:0:0:
296,208,354735,1,8,0:0:0:0:
260,60,354860,1,8,0:0:0:0:
196,32,354985,6,0,B|152:20|112:40,1,80
124,108,355235,1,2,0:0:0:0:
68,152,355360,2,0,B|36:116|36:80,2,80,0|8|0,0:0|0:0|0:0,0:0:0:0:
132,188,355735,1,0,0:0:0:0:
72,228,355860,1,0,0:0:0:0:
64,264,355922,1,0,0:0:0:0:
60,300,355985,5,4,0:0:0:0:
432,128,356235,1,4,0:0:0:0:
152,372,356485,1,4,0:0:0:0:
204,236,356610,1,0,0:0:0:0:
320,324,356735,1,0,0:0:0:0:
372,188,356860,1,0,0:0:0:0:
256,80,356985,1,0,0:0:0:0:
256,80,357110,1,0,0:0:0:0:
200,36,357235,6,2,B|156:20|120:48,1,80,2|0,0:0|0:0,0:0:0:0:
80,104,357485,1,8,0:0:0:0:
12,80,357610,1,0,0:0:0:0:
24,152,357735,2,0,B|44:192|20:232,1,80,0|2,0:0|0:0,0:0:0:0:
52,296,357985,1,0,0:0:0:0:
108,252,358110,2,0,B|160:320,1,80
196,248,358360,2,0,B|248:316,1,80
284,248,358610,2,0,B|336:316,1,80
372,244,358860,1,0,0:0:0:0:
440,220,358985,6,0,B|480:244|480:288,2,80,0|0|2,0:0|0:0|0:0,0:0:0:0:
388,172,359360,1,0,0:0:0:0:
456,148,359485,2,2,B|464:48|384:20,1,160
336,76,359860,1,0,0:0:0:0:
268,48,359985,1,0,0:0:0:0:
228,108,360110,1,0,0:0:0:0:
196,96,360172,1,0,0:0:0:0:
160,84,360235,1,0,0:0:0:0:
136,152,360360,1,0,0:0:0:0:
76,112,360485,2,0,B|32:124|24:168,1,80
28,204,360672,1,0,0:0:0:0:
44,236,360735,1,0,0:0:0:0:
56,268,360797,1,0,0:0:0:0:
72,300,360860,1,0,0:0:0:0:
136,336,360985,6,0,B|180:336|200:384,2,80,0|0|2,0:0|0:0|0:0,0:0:0:0:
160,268,361360,1,0,0:0:0:0:
220,232,361485,1,8,0:0:0:0:
244,300,361610,2,0,B|328:312,1,80
368,256,361860,1,0,0:0:0:0:
436,280,361985,1,0,0:0:0:0:
476,220,362110,2,0,B|488:180|456:144,1,80
388,160,362360,1,0,0:0:0:0:
412,92,362485,1,8,0:0:0:0:
364,40,362610,1,8,0:0:0:0:
308,84,362735,1,8,0:0:0:0:
260,32,362860,1,8,0:0:0:0:
224,92,362985,6,0,B|184:112|144:88,1,80
184,28,363235,2,0,B|144:8|104:32,1,80,2|0,0:0|0:0,0:0:0:0:
24,148,363485,1,0,0:0:0:0:
156,204,363610,1,0,0:0:0:0:
72,320,363735,1,2,0:0:0:0:
208,368,363860,1,2,0:0:0:0:
296,252,363985,1,0,0:0:0:0:
420,328,364110,1,0,0:0:0:0:
480,196,364235,1,0,0:0:0:0:
208,96,364485,1,0,0:0:0:0:
128,372,364735,1,2,0:0:0:0:
130,368,364797,1,0,0:0:0:0:
132,364,364860,1,0,0:0:0:0:
134,360,364922,1,0,0:0:0:0:
136,356,364985,1,0,0:0:0:0:
180,300,365110,6,0,B|232:296,2,40,0|0|2,0:0|0:0|0:0,0:0:0:0:
120,260,365360,1,0,0:0:0:0:
144,192,365485,1,0,0:0:0:0:
88,144,365610,2,0,B|48:112|64:64,1,80,0|8,0:0|0:0,0:0:0:0:
132,88,365860,1,0,0:0:0:0:
172,28,365985,2,0,B|256:44,1,80
216,108,366235,2,0,B|300:124,1,80,2|0,0:0|0:0,0:0:0:0:
336,64,366485,2,0,B|372:36,4,40
372,128,366860,1,0,0:0:0:0:
440,108,366985,5,0,0:0:0:0:
472,172,367110,2,0,B|492:216|464:252,1,80,0|8,0:0|0:0,0:0:0:0:
408,208,367360,1,0,0:0:0:0:
404,280,367485,2,0,B|376:360,1,80
308,344,367735,1,2,0:0:0:0:
292,272,367860,1,0,0:0:0:0:
240,320,367985,5,0,0:0:0:0:
172,344,368110,2,0,B|120:364,2,40
172,272,368360,1,0,0:0:0:0:
192,204,368485,2,0,B|172:152,2,40
264,200,368735,1,0,0:0:0:0:
284,172,368797,1,0,0:0:0:0:
308,144,368860,1,0,0:0:0:0:
376,116,368985,6,0,B|412:88|392:44,1,80
336,0,369235,2,0,B|300:28|320:72,1,80,2|0,0:0|0:0,0:0:0:0:
252,96,369485,1,0,0:0:0:0:
244,24,369610,2,0,B|212:-8|172:16,2,80,0|8|0,0:0|0:0|0:0,0:0:0:0:
252,96,369985,1,0,0:0:0:0:
180,88,370110,2,0,B|96:96,2,80,0|0|2,0:0|0:0|0:0,0:0:0:0:
200,156,370485,1,2,0:0:0:0:
140,196,370610,1,2,0:0:0:0:
172,260,370735,1,2,0:0:0:0:
144,328,370860,1,2,0:0:0:0:
212,352,370985,6,0,B|244:320|288:332,1,80
340,284,371235,2,0,B|381:295|413:263,1,80,2|0,0:0|0:0,0:0:0:0:
448,200,371485,2,0,B|416:168|372:180,1,80
320,132,371735,2,0,B|278:143|246:111,1,80,8|0,0:0|0:0,0:0:0:0:
246,111,371922,1,0,0:0:0:0:
246,111,371985,2,0,B|224:28,1,80
60,92,372485,5,0,0:0:0:0:
64,128,372547,1,0,0:0:0:0:
76,164,372610,1,2,0:0:0:0:
96,192,372672,1,0,0:0:0:0:
128,212,372735,2,0,P|168:228|216:224,1,80
256,336,372985,5,0,0:0:0:0:
324,360,373110,2,0,B|368:348|384:308,2,80
312,288,373485,1,0,0:0:0:0:
368,240,373610,2,0,B|460:244,2,80
332,180,373985,1,0,0:0:0:0:
332,180,374110,2,0,B|416:156|448:76,1,160
384,40,374485,1,0,0:0:0:0:
320,72,374610,1,0,0:0:0:0:
268,20,374735,1,0,0:0:0:0:
236,36,374797,1,0,0:0:0:0:
204,52,374860,1,0,0:0:0:0:
176,116,374985,5,0,0:0:0:0:
112,84,375110,1,0,0:0:0:0:
84,152,375235,1,0,0:0:0:0:
148,184,375360,1,0,0:0:0:0:
204,228,375485,5,0,0:0:0:0:
236,292,375610,1,0,0:0:0:0:
168,320,375735,1,0,0:0:0:0:
136,256,375860,1,0,0:0:0:0:
376,144,376110,6,0,B|396:136,4,20
236,292,376485,6,0,B|244:312,4,20
296,248,376735,2,0,B|304:268,4,20,0|0|0|0|0,0:0|0:0|0:0|0:0|0:0,0:0:0:0:
308,176,376985,1,0,0:0:0:0:
268,116,377110,2,0,B|288:72|332:64,2,80
196,104,377485,1,0,0:0:0:0:
160,40,377610,2,0,B|80:32,1,80
20,72,377860,2,2,B|-4:168|76:224,1,160
115,164,378235,2,2,B|183:211|159:307,1,160
224,344,378610,1,0,0:0:0:0:
272,292,378735,1,0,0:0:0:0:
304,308,378797,1,0,0:0:0:0:
336,328,378860,1,0,0:0:0:0:
400,296,378985,5,0,0:0:0:0:
452,244,379110,2,0,B|484:208|464:168,2,80,0|8|0,0:0|0:0|0:0,0:0:0:0:
400,196,379485,2,0,B|356:184,2,40
400,124,379735,1,0,0:0:0:0:
365,113,379797,1,0,0:0:0:0:
330,101,379860,1,0,0:0:0:0:
295,90,379922,1,0,0:0:0:0:
260,79,379985,1,0,0:0:0:0:
116,92,380110,5,0,0:0:0:0:
48,220,380235,1,2,0:0:0:0:
160,312,380360,1,0,0:0:0:0:
300,280,380485,1,0,0:0:0:0:
368,152,380610,1,2,0:0:0:0:
256,60,380735,2,0,B|264:28,8,20,0|0|0|0|0|0|0|2|2,0:0|0:0|0:0|0:0|0:0|0:0|0:0|0:0|0:0,0:0:0:0:
204,108,381110,5,0,0:0:0:0:
144,148,381235,2,0,B|108:120|72:148,1,80
36,212,381485,2,0,B|72:240|108:212,1,80,2|0,0:0|0:0,0:0:0:0:
180,212,381735,2,0,B|216:184|252:212,1,80
288,276,381985,2,0,B|252:304|216:276,1,80,2|0,0:0|0:0,0:0:0:0:
144,292,382235,2,0,B|116:328|144:364,1,80,0|0,0:0|0:0,0:0:0:0:
216,376,382485,2,0,B|252:348|288:376,1,80,2|0,0:0|0:0,0:0:0:0:
360,360,382735,2,0,B|388:324|360:288,1,80,0|0,0:0|0:0,0:0:0:0:
340,216,382985,2,0,B|392:144,1,80,2|0,0:0|0:0,0:0:0:0:
432,96,383235,5,0,0:0:0:0:
476,36,383360,1,0,0:0:0:0:
364,80,383485,5,8,0:0:0:0:
374,6,383610,1,0,0:0:0:0:
296,92,383735,5,0,0:0:0:0:
271,21,383860,1,0,0:0:0:0:
244,140,383985,5,8,0:0:0:0:
189,88,384110,1,0,0:0:0:0:
268,244,384235,5,0,0:0:0:0:
323,296,384360,1,0,0:0:0:0:
216,292,384485,5,8,0:0:0:0:
241,363,384610,1,0,0:0:0:0:
148,304,384735,5,0,0:0:0:0:
138,378,384860,1,0,0:0:0:0:
80,288,384985,5,8,0:0:0:0:
36,348,385110,1,0,0:0:0:0:
8,280,385235,6,0,B|16:232|64:216,1,80
112,176,385485,2,0,B|120:224|158:236,1,80,2|0,0:0|0:0,0:0:0:0:
184,168,385735,2,0,B|176:120|128:104,1,80
79,64,385985,2,0,B|71:111|32:123,1,80,2|0,0:0|0:0,0:0:0:0:
8,56,386235,5,0,0:0:0:0:
152,36,386485,1,2,0:0:0:0:
112,176,386735,1,0,0:0:0:0:
252,136,386985,1,2,0:0:0:0:
372,216,387235,6,0,B|344:252|364:292,1,80
420,336,387485,2,0,B|448:300|428:260,1,80,2|0,0:0|0:0,0:0:0:0:
444,192,387735,2,0,B|476:164,2,40
392,140,387985,1,8,0:0:0:0:
361,121,388047,1,0,0:0:0:0:
330,101,388110,1,8,0:0:0:0:
299,82,388172,1,0,0:0:0:0:
268,62,388235,1,8,0:0:0:0:
200,88,388360,1,0,0:0:0:0:
76,160,388485,5,4,0:0:0:0:
36,296,388610,1,4,0:0:0:0:
172,336,388735,1,4,0:0:0:0:
212,200,388860,1,4,0:0:0:0:
212,200,388985,6,2,B|264:192|288:240,1,80,2|0,0:0|0:0,0:0:0:0:
304,320,389235,2,0,B|280:356,2,40
400,312,389485,2,2,B|452:320|476:272,1,80,2|0,0:0|0:0,0:0:0:0:
448,188,389735,2,0,B|420:220,2,40
392,112,389985,2,0,B|384:64|340:56,1,80,2|0,0:0|0:0,0:0:0:0:
274,124,390235,2,0,B|282:172|326:180,1,80,0|0,0:0|0:0,0:0:0:0:
402,100,390485,6,0,B|394:52|350:44,1,80,2|0,0:0|0:0,0:0:0:0:
261,134,390735,2,0,B|269:182|313:190,1,80,0|0,0:0|0:0,0:0:0:0:
412,87,390985,6,0,B|404:39|360:31,1,80,2|0,0:0|0:0,0:0:0:0:
404,88,391235,6,0,B|412:136|456:144,1,80,0|0,0:0|0:0,0:0:0:0:
336,120,391485,1,2,0:0:0:0:
280,44,391610,1,0,0:0:0:0:
184,60,391735,2,0,B|100:40,1,80
40,112,391985,2,0,B|124:132,1,80,8|0,0:0|0:0,0:0:0:0:
142,224,392235,2,0,B|58:204,1,80
0,276,392485,2,0,B|84:296,1,80,8|0,0:0|0:0,0:0:0:0:
172,320,392735,2,0,B|216:388,2,80,0|0|8,0:0|0:0|0:0,0:0:0:0:
256,272,393110,1,0,0:0:0:0:
348,304,393235,5,0,0:0:0:0:
416,236,393360,1,0,0:0:0:0:
484,168,393485,2,8,B|476:120|440:104,1,80,8|0,0:0|0:0,0:0:0:0:
348,132,393735,1,0,0:0:0:0:
288,56,393860,2,0,B|308:16|352:12,2,80,0|8|0,0:0|0:0|0:0,0:0:0:0:
196,32,394235,1,0,0:0:0:0:
220,124,394360,2,0,B|224:216,2,80,0|8|0,0:0|0:0|0:0,0:0:0:0:
124,112,394735,1,0,0:0:0:0:
28,128,394860,1,0,0:0:0:0:
84,208,394985,2,0,B|96:252|64:292,1,80,8|0,0:0|0:0,0:0:0:0:
136,356,395235,5,0,0:0:0:0:
203,288,395360,1,0,0:0:0:0:
284,336,395485,1,2,0:0:0:0:
351,268,395610,1,0,0:0:0:0:
436,308,395735,1,0,0:0:0:0:
436,308,395860,1,0,0:0:0:0:
484,172,395985,5,2,0:0:0:0:
356,108,396110,1,2,0:0:0:0:
248,12,396235,2,2,B|176:68|96:40,1,160,2|0,0:0|0:0,0:0:0:0:
32,12,396610,1,0,0:0:0:0:
20,160,396735,5,2,0:0:0:0:
21,163,396797,1,2,0:0:0:0:
22,166,396860,1,2,0:0:0:0:
23,169,396922,1,2,0:0:0:0:
24,172,396985,1,14,0:0:0:0:
449,32,403985,5,2,0:0:0:0:
336,120,404110,1,0,0:0:0:0:
204,64,404235,1,2,0:0:0:0:
204,64,404297,1,2,0:0:0:0:
204,64,404360,1,2,0:0:0:0:
108,172,404485,1,0,0:0:0:0:
109,175,404547,1,0,0:0:0:0:
110,178,404610,1,0,0:0:0:0:
111,181,404672,1,0,0:0:0:0:
112,184,404735,1,2,0:0:0:0:
113,187,404797,1,0,0:0:0:0:
114,190,404860,1,2,0:0:0:0:
80,252,404985,6,12,B|72:300|24:312,1,80,12|0,0:0|0:0,0:0:0:0:
76,368,405235,1,2,0:0:0:0:
136,332,405360,1,0,0:0:0:0:
196,372,405485,2,0,B|252:364,2,40,8|0|0,0:0|0:0|0:0,0:0:0:0:
204,300,405735,2,2,B|284:284,1,80,2|0,0:0|0:0,0:0:0:0:
312,352,405985,2,0,B|384:300|464:332,1,160,0|2,0:0|0:0,0:0:0:0:
480,260,406360,2,0,B|428:188|460:108,1,160,0|2,0:0|0:0,0:0:0:0:
428,44,406735,1,2,0:0:0:0:
364,76,406860,1,2,0:0:0:0:
312,24,406985,6,0,B|224:16,1,80
236,88,407235,2,2,B|184:72|152:116,1,80,2|0,0:0|0:0,0:0:0:0:
212,156,407485,2,0,B|228:200|192:228,1,80,0|2,0:0|0:0,0:0:0:0:
144,176,407735,1,0,0:0:0:0:
88,132,407860,2,0,B|60:56,2,80
68,164,408172,1,0,0:0:0:0:
48,196,408235,1,0,0:0:0:0:
28,224,408297,1,0,0:0:0:0:
8,252,408360,1,0,0:0:0:0:
64,324,408485,5,2,0:0:0:0:
96,340,408547,1,0,0:0:0:0:
128,356,408610,1,0,0:0:0:0:
160,340,408672,1,0,0:0:0:0:
192,356,408735,1,2,0:0:0:0:
224,372,408797,1,0,0:0:0:0:
256,356,408860,1,0,0:0:0:0:
288,372,408922,1,0,0:0:0:0:
320,356,408985,6,0,B|356:328|396:344,1,80
484,264,409235,2,0,B|448:292|408:276,1,80,2|0,0:0|0:0,0:0:0:0:
344,220,409485,2,0,B|380:192|420:208,1,80,0|2,0:0|0:0,0:0:0:0:
508,128,409735,2,0,B|472:156|432:140,1,80,0|0,0:0|0:0,0:0:0:0:
400,76,409985,1,0,0:0:0:0:
344,32,410110,2,2,B|176:32,1,160,2|0,0:0|0:0,0:0:0:0:
160,100,410485,1,0,0:0:0:0:
96,68,410610,1,0,0:0:0:0:
60,132,410735,1,0,0:0:0:0:
124,164,410860,1,0,0:0:0:0:
196,164,410985,6,0,B|280:152,1,80
348,160,411235,2,2,B|364:204|408:208,1,80
416,136,411485,1,0,0:0:0:0:
484,112,411610,2,2,B|468:68|424:64,1,80
356,80,411860,2,0,B|312:44,2,40
212,88,412110,5,0,0:0:0:0:
80,28,412235,1,2,0:0:0:0:
68,172,412360,1,0,0:0:0:0:
300,296,412485,5,0,0:0:0:0:
432,356,412610,1,2,0:0:0:0:
444,212,412735,2,2,B|468:200,4,20
376,192,412985,5,2,0:0:0:0:
336,132,413110,1,0,0:0:0:0:
376,72,413235,1,0,0:0:0:0:
256,72,413485,5,2,0:0:0:0:
196,112,413610,1,0,0:0:0:0:
136,72,413735,1,0,0:0:0:0:
136,192,413985,5,2,0:0:0:0:
176,252,414110,1,0,0:0:0:0:
136,312,414235,1,0,0:0:0:0:
256,312,414485,5,2,0:0:0:0:
316,272,414610,1,0,0:0:0:0:
376,312,414735,1,0,0:0:0:0:
480,212,414985,5,2,0:0:0:0:
492,140,415110,1,0,0:0:0:0:
480,68,415235,1,0,0:0:0:0:
376,168,415485,5,2,0:0:0:0:
364,240,415610,1,0,0:0:0:0:
376,312,415735,1,0,0:0:0:0:
252,240,415985,5,2,0:0:0:0:
180,240,416110,1,0,0:0:0:0:
120,280,416235,1,0,0:0:0:0:
120,104,416485,5,2,0:0:0:0:
180,144,416610,1,0,0:0:0:0:
252,144,416735,1,0,0:0:0:0:
376,68,416985,5,2,0:0:0:0:
392,64,417110,1,0,0:0:0:0:
408,60,417235,1,0,0:0:0:0:
468,192,417485,5,2,0:0:0:0:
484,196,417610,1,0,0:0:0:0:
500,200,417735,1,0,0:0:0:0:
372,268,417985,5,2,0:0:0:0:
356,272,418110,1,0,0:0:0:0:
340,276,418235,1,0,0:0:0:0:
280,144,418485,5,2,0:0:0:0:
264,140,418610,1,0,0:0:0:0:
248,136,418735,1,0,0:0:0:0:
140,40,418985,5,2,0:0:0:0:
136,48,419110,1,0,0:0:0:0:
132,56,419235,1,0,0:0:0:0:
28,156,419485,5,2,0:0:0:0:
32,164,419610,1,0,0:0:0:0:
36,172,419735,1,0,0:0:0:0:
176,200,419985,5,2,0:0:0:0:
172,208,420110,1,0,0:0:0:0:
168,216,420235,1,0,0:0:0:0:
64,316,420485,5,14,0:0:0:0:
68,324,420610,1,0,0:0:0:0:
72,332,420735,1,12,0:0:0:0:
216,348,420985,6,2,B|248:316|296:328,1,80,2|0,0:0|0:0,0:0:0:0:
356,356,421235,1,0,0:0:0:0:
424,328,421360,2,0,B|456:360|504:348,2,80,0|2|0,0:0|0:0|0:0,0:0:0:0:
368,280,421735,1,0,0:0:0:0:
436,256,421860,1,0,0:0:0:0:
384,204,421985,2,2,B|400:160|444:160,1,80,2|0,0:0|0:0,0:0:0:0:
452,88,422235,2,2,B|496:72|496:28,1,80,2|0,0:0|0:0,0:0:0:0:
424,24,422485,2,2,B|380:40|380:84,1,80,2|0,0:0|0:0,0:0:0:0:
308,92,422735,2,2,B|292:136|248:136,1,80,2|0,0:0|0:0,0:0:0:0:
240,64,422985,5,8,0:0:0:0:
176,32,423110,1,0,0:0:0:0:
176,104,423235,2,0,B|129:100|110:60,1,80
40,68,423485,5,8,0:0:0:0:
8,132,423610,1,0,0:0:0:0:
80,132,423735,2,0,B|76:179|36:198,1,80
32,268,423985,6,0,B|16:316|56:340,1,80,2|0,0:0|0:0,0:0:0:0:
120,316,424235,2,0,B|136:268|96:244,1,80,2|0,0:0|0:0,0:0:0:0:
12,288,424485,2,0,B|-4:336|36:360,1,80,2|0,0:0|0:0,0:0:0:0:
140,296,424735,2,0,B|156:248|116:224,1,80,2|0,0:0|0:0,0:0:0:0:
172,180,424985,5,2,0:0:0:0:
216,240,425110,2,0,B|216:320,1,80
256,380,425360,1,0,0:0:0:0:
296,320,425485,2,0,B|296:240,1,80,2|0,0:0|0:0,0:0:0:0:
368,240,425735,1,0,0:0:0:0:
368,312,425860,1,0,0:0:0:0:
456,320,425985,6,2,B|456:240,1,80,2|0,0:0|0:0,0:0:0:0:
456,168,426235,2,0,B|456:88,1,80,2|0,0:0|0:0,0:0:0:0:
384,88,426485,2,0,B|384:168,1,80,8|0,0:0|0:0,0:0:0:0:
352,232,426735,1,8,0:0:0:0:
312,168,426860,5,0,0:0:0:0:
292,100,426985,1,8,0:0:0:0:
228,68,427110,2,0,B|236:20|280:12,2,80,0|2|0,0:0|0:0|0:0,0:0:0:0:
164,104,427485,2,0,B|139:62|167:27,2,80,8|0|2,0:0|0:0|0:0,0:0:0:0:
140,172,427860,2,0,B|94:155|93:111,1,80,0|2,0:0|0:0,0:0:0:0:
416,288,428235,1,2,0:0:0:0:
56,360,428485,1,2,0:0:0:0:
108,308,428610,1,0,0:0:0:0:
176,288,428735,1,0,0:0:0:0:
244,312,428860,1,0,0:0:0:0:
300,268,428985,6,8,B|340:244|328:200,1,80,8|0,0:0|0:0,0:0:0:0:
392,164,429235,1,0,0:0:0:0:
456,196,429360,1,0,0:0:0:0:
452,124,429485,2,0,B|480:88|468:48,2,80,2|0|0,0:0|0:0|0:0,0:0:0:0:
400,72,429860,1,0,0:0:0:0:
344,24,429985,2,2,B|264:24,1,80,2|0,0:0|0:0,0:0:0:0:
252,96,430235,2,2,B|332:96,1,80,2|0,0:0|0:0,0:0:0:0:
320,168,430485,2,2,B|240:168,1,80,2|0,0:0|0:0,0:0:0:0:
228,240,430735,2,2,B|308:240,1,80,2|0,0:0|0:0,0:0:0:0:
368,284,430985,5,8,0:0:0:0:
400,348,431110,2,0,B|444:336|464:300,2,80
328,344,431485,1,8,0:0:0:0:
296,280,431610,2,0,B|252:292|232:328,2,80
336,220,431985,1,2,0:0:0:0:
408,224,432110,2,0,B|456:244,2,40,0|0|2,0:0|0:0|0:0,0:0:0:0:
500,148,432485,2,0,B|452:128,3,40
436,108,432735,6,2,B|388:96|380:48,1,80,2|0,0:0|0:0,0:0:0:0:
260,28,432985,2,2,B|308:40|316:88,1,80,2|0,0:0|0:0,0:0:0:0:
244,100,433235,1,8,0:0:0:0:
296,152,433360,1,0,0:0:0:0:
280,224,433485,2,2,B|232:212|224:164,1,80,2|0,0:0|0:0,0:0:0:0:
104,144,433735,2,2,B|152:156|160:204,1,80,2|0,0:0|0:0,0:0:0:0:
88,216,433985,1,2,0:0:0:0:
140,268,434110,1,0,0:0:0:0:
96,328,434235,1,2,0:0:0:0:
160,360,434360,1,0,0:0:0:0:
224,332,434485,2,2,B|272:328|296:368,1,80,2|0,0:0|0:0,0:0:0:0:
365,363,434735,2,2,B|386:327|434:331,1,80,2|0,0:0|0:0,0:0:0:0:
456,260,434985,5,2,0:0:0:0:
408,204,435110,1,0,0:0:0:0:
456,152,435235,1,0,0:0:0:0:
396,112,435360,1,0,0:0:0:0:
412,40,435485,1,2,0:0:0:0:
344,12,435610,1,0,0:0:0:0:
328,84,435735,1,0,0:0:0:0:
260,112,435860,1,0,0:0:0:0:
220,52,435985,5,4,0:0:0:0:
40,328,436235,1,0,0:0:0:0:
360,248,436485,5,4,0:0:0:0:
56,120,436735,1,0,0:0:0:0:
480,24,436985,6,4,B|500:64|464:96,1,80,4|0,0:0|0:0,0:0:0:0:
412,44,437235,2,8,B|376:84|392:132|416:152|416:152|444:168|432:196,1,160,8|2,0:0|0:0,0:0:0:0:
500,212,437610,2,0,B|488:260|504:296,2,80,0|8|0,0:0|0:0|0:0,0:0:0:0:
436,184,437985,2,2,B|416:248|428:320|456:344,1,160
352,180,438485,5,2,0:0:0:0:
336,252,438610,1,8,0:0:0:0:
280,300,438735,1,8,0:0:0:0:
208,300,438860,1,0,0:0:0:0:
144,328,438985,6,2,B|112:292|64:312,1,80,2|0,0:0|0:0,0:0:0:0:
160,248,439235,2,2,B|158:199|109:184,1,80,2|0,0:0|0:0,0:0:0:0:
236,236,439485,2,2,B|265:198|237:154,1,80,2|0,0:0|0:0,0:0:0:0:
280,300,439735,2,2,B|327:290|333:238,1,80,2|0,0:0|0:0,0:0:0:0:
208,300,439985,1,2,0:0:0:0:
188,156,440110,2,2,B|180:116,2,40
260,32,440485,2,2,B|268:72,2,40,2|2|2,0:0|0:0|0:0,0:0:0:0:
332,44,440735,2,2,B|340:84,2,40,2|2|2,0:0|0:0|0:0,0:0:0:0:
404,28,440985,5,8,0:0:0:0:
460,72,441110,1,0,0:0:0:0:
424,136,441235,1,0,0:0:0:0:
468,192,441360,1,0,0:0:0:0:
432,256,441485,1,8,0:0:0:0:
388,200,441610,1,0,0:0:0:0:
324,236,441735,1,0,0:0:0:0:
268,192,441860,1,0,0:0:0:0:
312,136,441985,1,8,0:0:0:0:
268,192,442110,1,0,0:0:0:0:
204,156,442235,1,0,0:0:0:0:
148,200,442360,1,0,0:0:0:0:
104,144,442485,5,8,0:0:0:0:
20,272,442610,1,8,0:0:0:0:
164,332,442735,1,8,0:0:0:0:
252,208,442860,1,8,0:0:0:0:
256,40,442985,5,2,0:0:0:0:
328,28,443110,1,0,0:0:0:0:
396,56,443235,1,0,0:0:0:0:
428,120,443360,1,0,0:0:0:0:
372,260,443485,5,2,0:0:0:0:
300,272,443610,1,0,0:0:0:0:
232,244,443735,1,0,0:0:0:0:
206,218,443797,1,0,0:0:0:0:
200,180,443860,1,0,0:0:0:0:
220,148,443922,1,0,0:0:0:0:
258,142,443985,5,2,0:0:0:0:
456,340,444235,1,2,0:0:0:0:
480,60,444485,1,2,0:0:0:0:
300,272,444735,1,2,0:0:0:0:
168,328,444985,6,4,B|84:304,1,80,4|0,0:0|0:0,0:0:0:0:
256,288,445235,1,0,0:0:0:0:
344,248,445360,2,4,B|428:224,1,80,4|0,0:0|0:0,0:0:0:0:
256,208,445610,1,0,0:0:0:0:
256,172,445672,1,0,0:0:0:0:
256,136,445735,1,0,0:0:0:0:
256,100,445797,1,0,0:0:0:0:
256,64,445860,1,0,0:0:0:0:
192,32,445985,5,2,0:0:0:0:
124,52,446110,1,2,0:0:0:0:
80,108,446235,1,0,0:0:0:0:
84,180,446360,1,2,0:0:0:0:
428,180,446485,5,2,0:0:0:0:
432,108,446610,1,2,0:0:0:0:
388,52,446735,1,0,0:0:0:0:
320,32,446860,1,2,0:0:0:0:
256,64,446985,6,0,B|216:140,1,80,2|0,0:0|0:0,0:0:0:0:
145,256,447235,2,0,B|230:252,1,80,2|0,0:0|0:0,0:0:0:0:
366,256,447485,2,0,B|321:183,1,80,2|0,0:0|0:0,0:0:0:0:
256,164,447735,1,2,0:0:0:0:
224,228,447860,1,2,0:0:0:0:
252,296,447985,5,2,0:0:0:0:
320,320,448110,1,2,0:0:0:0:
352,256,448235,1,2,0:0:0:0:
424,272,448360,1,2,0:0:0:0:
460,208,448485,5,2,0:0:0:0:
444,136,448610,1,2,0:0:0:0:
508,104,448735,1,2,0:0:0:0:
484,36,448860,1,2,0:0:0:0:
420,68,448985,6,12,B|340:28|264:76,1,160,12|0,0:0|0:0,0:0:0:0:
249,4,449360,2,12,B|289:84|241:160,1,160,12|0,0:0|0:0,0:0:0:0:
188,108,449735,2,0,B|100:56,1,80
56,104,449985,5,8,0:0:0:0:
112,148,450110,1,0,0:0:0:0:
44,176,450235,1,2,0:0:0:0:
100,220,450360,1,0,0:0:0:0:
168,196,450485,1,8,0:0:0:0:
224,240,450610,1,0,0:0:0:0:
156,268,450735,1,8,0:0:0:0:
212,312,450860,1,0,0:0:0:0:
280,288,450985,6,0,B|328:304|340:344,2,80,8|0|0,0:0|0:0|0:0,0:0:0:0:
312,220,451360,2,0,B|362:223|384:258,2,80,8|0|0,0:0|0:0|0:0,0:0:0:0:
324,148,451735,2,0,B|373:137|403:166,2,80,8|0|0,0:0|0:0|0:0,0:0:0:0:
260,116,452110,1,0,0:0:0:0:
288,48,452235,1,2,0:0:0:0:
224,12,452360,1,0,0:0:0:0:
164,52,452485,1,2,0:0:0:0:
150,85,452547,1,0,0:0:0:0:
136,118,452610,1,0,0:0:0:0:
123,151,452672,1,0,0:0:0:0:
107,184,452735,2,0,B|119:216,6,20,2|0|0|0|0|0|0,0:0|0:0|0:0|0:0|0:0|0:0|0:0,0:0:0:0:
80,224,452985,5,12,0:0:0:0:
340,312,453360,1,12,0:0:0:0:
336,24,453860,1,2,0:0:0:0:
336,24,454485,1,2,0:0:0:0:
56,252,455110,5,2,0:0:0:0:
252,344,455485,1,2,0:0:0:0:
200,212,455735,1,0,0:0:0:0:
200,212,455860,1,2,0:0:0:0:
200,212,456485,1,2,0:0:0:0:
444,56,456985,5,12,0:0:0:0:
408,116,457110,1,0,0:0:0:0:
372,176,457235,1,0,0:0:0:0:
336,116,457360,1,12,0:0:0:0:
296,56,457485,1,0,0:0:0:0:
296,272,457860,5,2,0:0:0:0:
216,272,458485,1,2,0:0:0:0:
504,272,458985,5,0,0:0:0:0:
504,272,459110,1,2,0:0:0:0:
296,272,459485,1,2,0:0:0:0:
392,172,459735,2,0,B|416:212,2,40,0|0|2,0:0|0:0|0:0,0:0:0:0:
412,100,459985,5,2,0:0:0:0:
340,84,460110,1,0,0:0:0:0:
316,152,460235,1,0,0:0:0:0:
292,220,460360,1,0,0:0:0:0:
244,164,460485,1,2,0:0:0:0:
268,96,460610,1,2,0:0:0:0:
196,104,460735,1,0,0:0:0:0:
52,104,460985,1,12,0:0:0:0:
84,168,461110,5,0,0:0:0:0:
52,232,461235,2,0,B|24:272|52:304,1,80
116,268,461485,1,2,0:0:0:0:
188,268,461610,1,0,0:0:0:0:
224,328,461735,2,0,B|264:356|296:328,1,80
260,264,461985,1,2,0:0:0:0:
260,192,462110,1,0,0:0:0:0:
196,156,462235,2,0,B|168:116|196:84,1,80
260,120,462485,1,2,0:0:0:0:
332,120,462610,1,0,0:0:0:0:
404,104,462735,2,0,B|472:60,2,80,0|0|2,0:0|0:0|0:0,0:0:0:0:
384,172,463110,5,0,0:0:0:0:
456,156,463235,2,0,B|500:228,1,80
428,244,463485,2,0,B|472:316,1,80,8|0,0:0|0:0,0:0:0:0:
408,348,463735,1,0,0:0:0:0:
336,348,463860,1,0,0:0:0:0:
292,292,463985,1,8,0:0:0:0:
336,236,464110,1,0,0:0:0:0:
308,172,464235,2,2,B|232:208,1,80,2|0,0:0|0:0,0:0:0:0:
224,136,464485,2,2,B|148:172,1,80,2|0,0:0|0:0,0:0:0:0:
140,100,464735,2,2,B|64:136,1,80,2|0,0:0|0:0,0:0:0:0:
28,196,464985,2,2,B|64:272,1,80,2|0,0:0|0:0,0:0:0:0:
104,328,465235,6,0,B|64:364,2,40
176,324,465485,2,2,B|220:316|252:344,1,80,2|0,0:0|0:0,0:0:0:0:
296,288,465735,2,0,B|256:252,2,40
368,292,465985,2,2,B|412:300|444:272,1,80,2|0,0:0|0:0,0:0:0:0:
452,200,466235,1,0,0:0:0:0:
420,136,466360,1,0,0:0:0:0:
352,116,466485,1,2,0:0:0:0:
284,140,466610,1,0,0:0:0:0:
212,128,466735,5,0,0:0:0:0:
144,152,466860,1,0,0:0:0:0:
96,96,466985,2,2,B|28:148,1,80,2|0,0:0|0:0,0:0:0:0:
48,216,467235,1,0,0:0:0:0:
88,276,467360,1,0,0:0:0:0:
76,348,467485,1,2,0:0:0:0:
144,368,467610,1,0,0:0:0:0:
196,316,467735,6,8,B|232:332,4,40,8|0|8|0|8,0:0|0:0|0:0|0:0|0:0,0:0:0:0:
228,208,468110,1,0,0:0:0:0:
328,256,468235,2,8,B|400:296,1,80,8|0,0:0|0:0,0:0:0:0:
388,184,468485,2,8,B|316:144,1,80,8|8,0:0|0:0,0:0:0:0:
256,52,468735,1,8,0:0:0:0:
193,145,468860,2,8,B|124:184,1,80,8|12,0:0|0:0,0:0:0:0:
64,148,469110,5,0,0:0:0:0:
32,212,469235,2,0,B|20:260|52:284,1,80,2|0,0:0|0:0,0:0:0:0:
120,264,469485,2,0,B|132:312|100:336,1,80,8|0,0:0|0:0,0:0:0:0:
120,264,469735,2,0,B|168:276|192:244,1,80,2|0,0:0|0:0,0:0:0:0:
172,176,469985,2,0,B|220:164|244:196,1,80,8|0,0:0|0:0,0:0:0:0:
192,244,470235,2,0,B|180:292|212:316,1,80,2|0,0:0|0:0,0:0:0:0:
280,296,470485,2,0,B|292:344|260:368,1,80,8|0,0:0|0:0,0:0:0:0:
280,296,470735,2,0,B|268:248|300:224,1,80,2|0,0:0|0:0,0:0:0:0:
368,244,470985,2,0,B|380:196|348:172,1,80,8|0,0:0|0:0,0:0:0:0:
328,104,471235,5,0,0:0:0:0:
368,44,471360,1,0,0:0:0:0:
308,0,471485,1,8,0:0:0:0:
268,60,471610,1,0,0:0:0:0:
260,132,471735,5,0,0:0:0:0:
304,192,471860,1,0,0:0:0:0:
244,236,471985,1,8,0:0:0:0:
204,176,472110,1,0,0:0:0:0:
148,220,472235,5,0,0:0:0:0:
188,280,472360,1,0,0:0:0:0:
128,324,472485,1,8,0:0:0:0:
88,264,472610,1,0,0:0:0:0:
80,192,472735,5,0,0:0:0:0:
124,132,472860,1,0,0:0:0:0:
64,88,472985,1,8,0:0:0:0:
24,148,473110,1,0,0:0:0:0:
92,20,473235,6,0,B|132:0|168:20,1,80,2|0,0:0|0:0,0:0:0:0:
132,84,473485,2,0,B|172:104|208:84,1,80,8|0,0:0|0:0,0:0:0:0:
168,20,473735,2,0,B|208:0|244:20,1,80,2|0,0:0|0:0,0:0:0:0:
208,84,473985,2,0,B|248:104|284:84,1,80,8|0,0:0|0:0,0:0:0:0:
244,20,474235,6,0,B|284:0|320:20,1,80,2|0,0:0|0:0,0:0:0:0:
284,84,474485,2,0,B|324:104|360:84,1,80,8|0,0:0|0:0,0:0:0:0:
320,20,474735,2,0,B|360:0|396:20,1,80,2|0,0:0|0:0,0:0:0:0:
360,84,474985,2,0,B|400:104|436:84,1,80,8|0,0:0|0:0,0:0:0:0:
472,148,475235,6,0,B|500:232,2,80,0|0|8,0:0|0:0|0:0,0:0:0:0:
404,176,475610,1,0,0:0:0:0:
392,248,475735,1,0,0:0:0:0:
424,312,475860,1,0,0:0:0:0:
424,312,475985,5,2,0:0:0:0:
288,356,476110,1,0,0:0:0:0:
184,256,476235,1,2,0:0:0:0:
184,256,476485,2,2,B|192:192|140:144|92:144,1,160
84,132,476797,1,2,0:0:0:0:
76,116,476860,1,2,0:0:0:0:
72,100,476922,1,2,0:0:0:0:
76,84,476992,5,12,0:0:0:0:
436,84,477367,1,12,0:0:0:0:
300,348,478242,5,2,0:0:0:0:
256,212,478492,1,0,0:0:0:0:
212,348,478742,1,2,0:0:0:0:
328,264,478992,5,0,0:0:0:0:
396,236,479117,1,0,0:0:0:0:
448,184,479242,2,0,B|464:144|448:100,2,80,8|0|0,0:0|0:0|0:0,0:0:0:0:
384,152,479617,2,0,B|368:112|384:68,2,80,8|0|0,0:0|0:0|0:0,0:0:0:0:
320,188,479992,1,2,0:0:0:0:
320,188,480242,1,2,0:0:0:0:
280,128,480367,1,2,0:0:0:0:
216,156,480492,1,2,0:0:0:0:
216,156,480554,1,0,0:0:0:0:
216,156,480617,1,0,0:0:0:0:
252,220,480742,1,2,0:0:0:0:
228,288,480867,1,2,0:0:0:0:
204,356,480992,5,12,0:0:0:0:
308,28,481367,1,12,0:0:0:0:
32,112,482242,5,2,0:0:0:0:
148,200,482492,1,0,0:0:0:0:
28,288,482742,1,0,0:0:0:0:
164,340,482992,5,8,0:0:0:0:
224,300,483117,1,8,0:0:0:0:
272,352,483242,1,0,0:0:0:0:
308,344,483304,1,0,0:0:0:0:
344,336,483367,1,0,0:0:0:0:
380,328,483429,1,0,0:0:0:0:
416,320,483492,1,8,0:0:0:0:
468,268,483617,5,0,0:0:0:0:
444,244,483679,1,0,0:0:0:0:
416,220,483742,1,8,0:0:0:0:
352,252,483867,1,8,0:0:0:0:
304,200,483992,1,8,0:0:0:0:
328,132,484117,1,8,0:0:0:0:
400,148,484242,1,0,0:0:0:0:
380,80,484367,1,0,0:0:0:0:
336,24,484492,1,2,0:0:0:0:
284,76,484617,5,0,0:0:0:0:
248,84,484679,1,0,0:0:0:0:
212,92,484742,1,2,0:0:0:0:
176,100,484804,1,0,0:0:0:0:
140,108,484867,1,0,0:0:0:0:
104,116,484929,1,0,0:0:0:0:
68,124,484992,5,12,0:0:0:0:
212,284,485367,1,12,0:0:0:0:
484,20,486242,5,2,0:0:0:0:
444,156,486492,1,0,0:0:0:0:
460,300,486742,1,2,0:0:0:0:
64,340,486992,6,12,B|112:216|260:212,1,240
320,228,487492,1,0,0:0:0:0:
332,156,487617,1,0,0:0:0:0:
300,136,487679,1,0,0:0:0:0:
268,116,487742,1,2,0:0:0:0:
208,152,487867,1,0,0:0:0:0:
156,100,487992,1,8,0:0:0:0:
92,132,488117,2,2,B|68:144|68:176,2,40
68,64,488367,1,0,0:0:0:0:
132,32,488492,2,2,B|156:20|156:-12,2,40
156,100,488742,1,0,0:0:0:0:
148,124,488805,1,0,0:0:0:0:
132,140,488867,1,2,0:0:0:0:
60,140,488992,5,12,0:0:0:0:
184,328,489367,1,12,0:0:0:0:
328,56,489992,5,12,0:0:0:0:
420,252,490367,1,12,0:0:0:0:
144,20,490992,5,12,0:0:0:0:
144,20,491054,1,0,0:0:0:0:
144,20,491117,1,0,0:0:0:0:
204,60,491242,1,0,0:0:0:0:
148,104,491367,2,12,B|88:116|60:188|92:232,1,160,12|0,0:0|0:0,0:0:0:0:
144,276,491742,1,8,0:0:0:0:
184,216,491867,1,0,0:0:0:0:
256,208,491992,5,0,0:0:0:0:
272,240,492054,1,0,0:0:0:0:
288,272,492117,1,2,0:0:0:0:
348,232,492242,1,0,0:0:0:0:
364,264,492304,1,0,0:0:0:0:
380,296,492367,1,2,0:0:0:0:
452,288,492492,1,0,0:0:0:0:
500,152,492617,1,0,0:0:0:0:
384,68,492742,1,0,0:0:0:0:
248,120,492867,1,0,0:0:0:0:
248,120,492992,6,0,B|160:164|104:84,1,160,2|0,0:0|0:0,0:0:0:0:
151,31,493367,2,0,B|75:83|119:171,1,160,2|0,0:0|0:0,0:0:0:0:
55,204,493742,1,0,0:0:0:0:
68,274,493867,1,0,0:0:0:0:
119,324,493992,6,0,B|207:368|263:288,1,160,2|0,0:0|0:0,0:0:0:0:
189,277,494367,2,0,B|277:321|333:241,1,160,2|0,0:0|0:0,0:0:0:0:
377,299,494742,1,0,0:0:0:0:
448,307,494867,1,0,0:0:0:0:
473,239,494992,2,0,B|482:146|399:102,1,160,2|0,0:0|0:0,0:0:0:0:
414,33,495367,2,0,B|423:126|340:170,1,160,2|0,0:0|0:0,0:0:0:0:
280,136,495742,1,0,0:0:0:0:
258,107,495804,1,0,0:0:0:0:
240,75,495867,1,0,0:0:0:0:
182,31,495992,5,8,0:0:0:0:
135,133,496117,1,0,0:0:0:0:
23,120,496242,1,0,0:0:0:0:
67,222,496367,1,8,0:0:0:0:
129,314,496492,1,0,0:0:0:0:
191,220,496617,1,0,0:0:0:0:
284,281,496742,1,8,0:0:0:0:
284,281,496867,1,8,0:0:0:0:
379,222,496992,6,2,B|436:199|492:234|492:234|503:276,1,160,2|0,0:0|0:0,0:0:0:0:
502,138,497367,2,2,B|445:161|389:126|389:126|378:84,1,160,2|0,0:0|0:0,0:0:0:0:
378,84,497742,1,0,0:0:0:0:
319,42,497867,1,8,0:0:0:0:
253,71,497992,6,2,B|133:38|127:115|16:76,2,240,2|2|0,0:0|0:0|0:0,0:0:0:0:
225,137,498867,1,0,0:0:0:0:
196,203,498992,2,2,B|316:236|322:159|433:198,2,240,2|2|0,0:0|0:0|0:0,0:0:0:0:
135,241,499867,1,0,0:0:0:0:
64,255,499992,2,2,B|83:338,1,80,2|0,0:0|0:0,0:0:0:0:
149,356,500242,1,0,0:0:0:0:
208,278,500367,2,2,B|227:361,1,80,2|0,0:0|0:0,0:0:0:0:
293,379,500617,1,0,0:0:0:0:
332,318,500742,1,8,0:0:0:0:
402,332,500867,1,8,0:0:0:0:
464,296,500992,6,2,B|498:215|447:144,1,160,2|0,0:0|0:0,0:0:0:0:
512,130,501367,2,2,B|431:164|360:113,1,160,2|0,0:0|0:0,0:0:0:0:
407,58,501742,1,8,0:0:0:0:
336,45,501867,1,0,0:0:0:0:
264,45,501992,6,2,B|196:32|164:88|164:88|104:64,1,160,2|0,0:0|0:0,0:0:0:0:
112,204,502367,2,2,B|180:217|212:161|212:161|251:176,1,160,2|0,0:0|0:0,0:0:0:0:
311,128,502742,1,8,0:0:0:0:
360,180,502867,1,0,0:0:0:0:
431,188,502992,6,2,B|506:247|464:329,1,160,2|0,0:0|0:0,0:0:0:0:
353,360,503367,2,2,B|278:301|320:219,1,160,2|0,0:0|0:0,0:0:0:0:
256,184,503742,1,0,0:0:0:0:
256,184,503867,1,0,0:0:0:0:
208,236,503992,6,2,B|112:256|80:344,1,160,2|0,0:0|0:0,0:0:0:0:
156,344,504367,2,2,B|136:248|48:216,1,160,2|0,0:0|0:0,0:0:0:0:
104,160,504742,1,8,0:0:0:0:
36,132,504867,1,0,0:0:0:0:
92,88,504992,6,2,B|128:56|124:16,1,80,2|0,0:0|0:0,0:0:0:0:
188,52,505242,1,0,0:0:0:0:
255,26,505367,2,2,B|360:20|400:88,1,160,2|0,0:0|0:0,0:0:0:0:
456,41,505742,1,8,0:0:0:0:
478,109,505867,1,0,0:0:0:0:
425,158,505992,2,2,B|400:252|473:310,1,160,2|0,0:0|0:0,0:0:0:0:
415,356,506367,2,2,B|363:290|269:315,1,160,2|0,0:0|0:0,0:0:0:0:
224,260,506742,1,8,0:0:0:0:
194,279,506804,1,0,0:0:0:0:
163,299,506867,1,0,0:0:0:0:
104,340,506992,6,2,B|44:308|41:248|41:248|40:204,1,160,2|0,0:0|0:0,0:0:0:0:
114,233,507367,2,2,B|116:168|116:168|58:137|52:100,1,160,2|0,0:0|0:0,0:0:0:0:
99,46,507742,2,8,B|127:72|129:87|129:87|157:104,1,80,8|0,0:0|0:0,0:0:0:0:
196,44,507992,5,2,0:0:0:0:
263,20,508117,1,0,0:0:0:0:
326,53,508242,1,0,0:0:0:0:
397,50,508367,1,0,0:0:0:0:
435,110,508492,1,2,0:0:0:0:
435,110,508554,1,0,0:0:0:0:
435,110,508617,1,0,0:0:0:0:
483,162,508742,1,2,0:0:0:0:
483,162,508804,1,0,0:0:0:0:
483,162,508867,1,0,0:0:0:0:
489,233,508992,6,12,B|475:334|384:338,1,160,12|0,0:0|0:0,0:0:0:0:
315,332,509367,2,12,B|228:328|214:227,1,160,12|0,0:0|0:0,0:0:0:0:
286,224,509742,2,0,B|339:161,1,80,2|0,0:0|0:0,0:0:0:0:
280,119,509992,6,12,B|266:18|175:14,1,160,12|0,0:0|0:0,0:0:0:0:
106,20,510367,2,12,B|19:23|5:124,1,160,12|0,0:0|0:0,0:0:0:0:
71,152,510742,2,0,B|33:224,1,80
97,257,510992,6,12,B|166:271|183:335|183:335|244:335,1,160,12|0,0:0|0:0,0:0:0:0:
292,335,511367,2,12,B|329:335|329:335|346:271|415:257,1,160,12|0,0:0|0:0,0:0:0:0:
296,192,511742,2,0,B|216:192,1,80
415,127,511992,6,12,B|346:113|329:49|329:49|268:49,1,160,12|0,0:0|0:0,0:0:0:0:
220,49,512367,2,12,B|182:49|182:49|165:113|96:127,1,160,12|0,0:0|0:0,0:0:0:0:
216,192,512742,2,0,B|296:192,1,80
368,204,512992,6,2,B|484:228|484:340|484:340|484:388,2,240,2|2|0,0:0|0:0|0:0,0:0:0:0:
144,204,513992,2,2,B|28:228|28:340|28:340|28:388,2,240,2|2|0,0:0|0:0|0:0,0:0:0:0:
256,308,514992,2,2,B|308:192|204:192|256:76,2,240,2|2|0,0:0|0:0|0:0,0:0:0:0:
344,192,515992,5,2,0:0:0:0:
200,248,516117,1,2,0:0:0:0:
164,136,516242,1,2,0:0:0:0:
256,72,516367,1,2,0:0:0:0:
356,120,516492,1,2,0:0:0:0:
256,176,516617,1,2,0:0:0:0:
312,276,516742,1,0,0:0:0:0:
256,376,516867,1,0,0:0:0:0:
256,376,516992,6,12,B|156:368|120:304,1,160,12|0,0:0|0:0,0:0:0:0:
128,232,517367,2,12,B|136:132|200:96,1,160,12|0,0:0|0:0,0:0:0:0:
268,116,517742,1,0,0:0:0:0:
184,24,517867,1,0,0:0:0:0:
256,8,517992,6,12,B|356:16|392:80,1,160,12|0,0:0|0:0,0:0:0:0:
384,152,518367,2,12,B|376:252|312:288,1,160,12|0,0:0|0:0,0:0:0:0:
240,276,518742,1,0,0:0:0:0:
352,348,518867,1,0,0:0:0:0:
424,344,518992,6,12,B|496:292|464:196,1,160,12|0,0:0|0:0,0:0:0:0:
384,152,519367,2,12,B|312:204|344:300,1,160,12|0,0:0|0:0,0:0:0:0:
296,352,519742,1,0,0:0:0:0:
232,320,519867,1,0,0:0:0:0:
176,272,519992,6,12,B|206:181|134:129,1,160,12|0,0:0|0:0,0:0:0:0:
52,179,520367,2,12,B|21:269|93:321,1,160,12|0,0:0|0:0,0:0:0:0:
160,356,520742,2,0,B|240:316,1,80
280,268,520992,6,12,B|388:192|520:220,2,240,12|12|0,0:0|0:0|0:0,0:0:0:0:
408,336,521992,2,12,B|332:228|360:96,2,240,12|12|0,0:0|0:0|0:0,0:0:0:0:
468,204,522992,6,2,B|464:36,1,160
396,24,523367,1,0,0:0:0:0:
340,72,523492,1,2,0:0:0:0:
276,40,523617,1,0,0:0:0:0:
220,84,523742,1,0,0:0:0:0:
160,44,523867,1,0,0:0:0:0:
108,96,523992,5,8,0:0:0:0:
36,204,524117,1,8,0:0:0:0:
148,264,524242,1,8,0:0:0:0:
264,208,524367,1,8,0:0:0:0:
376,272,524492,1,8,0:0:0:0:
376,272,524554,1,0,0:0:0:0:
376,272,524617,1,0,0:0:0:0:
428,156,524742,1,8,0:0:0:0:
428,156,524804,1,0,0:0:0:0:
428,156,524867,1,0,0:0:0:0:
348,56,524992,1,12,0:0:0:0:
456,56,526992,5,0,0:0:0:0:
428,148,527117,1,0,0:0:0:0:
340,108,527242,1,2,0:0:0:0:
244,108,527367,2,0,B|160:88|160:124|76:104,1,160
20,180,527742,2,0,B|40:260,1,80,2|0,0:0|0:0,0:0:0:0:
104,332,527992,2,0,B|108:376,2,40,2|0|2,0:0|0:0|0:0,0:0:0:0:
184,276,528242,2,0,B|224:304,2,40
184,180,528492,2,0,B|232:164,2,40,2|0|2,0:0|0:0|0:0,0:0:0:0:
116,112,528742,1,2,0:0:0:0:
132,96,528804,1,0,0:0:0:0:
148,80,528867,1,0,0:0:0:0:
164,64,528929,1,0,0:0:0:0:
180,48,528992,1,4,0:0:0:0:
180,48,529367,1,4,0:0:0:0:
436,80,530992,6,0,B|460:68|464:52,2,40,2|0|2,0:0|0:0|0:0,0:0:0:0:
388,164,531242,1,0,0:0:0:0:
436,248,531367,2,0,B|388:320|296:300,1,160,2|0,0:0|0:0,0:0:0:0:
204,332,531742,2,0,B|116:360,1,80
220,240,531992,2,0,B|208:220|216:196,2,40,2|0|2,0:0|0:0|0:0,0:0:0:0:
128,212,532242,2,0,B|128:156|168:136,1,80
296,204,532492,2,0,B|296:148|256:128,1,80
212,52,532742,1,0,0:0:0:0:
308,44,532867,1,0,0:0:0:0:
404,32,532992,1,4,0:0:0:0:
404,32,533367,1,12,0:0:0:0:
48,304,534992,5,12,0:0:0:0:
48,304,535367,1,12,0:0:0:0:
180,364,535617,5,0,0:0:0:0:
240,324,535742,1,2,0:0:0:0:
304,360,535867,1,0,0:0:0:0:
336,344,535929,1,0,0:0:0:0:
356,312,535992,1,8,0:0:0:0:
296,272,536117,2,0,B|284:228|240:216,2,80,8|0|8,0:0|0:0|0:0,0:0:0:0:
360,240,536492,2,8,B|448:224,1,80
472,164,536742,1,0,0:0:0:0:
416,120,536867,1,0,0:0:0:0:
352,152,536992,1,4,0:0:0:0:
352,152,537367,1,4,0:0:0:0:
16,24,537992,5,4,0:0:0:0:
16,24,538367,1,4,0:0:0:0:
168,352,538992,5,4,0:0:0:0:
100,328,539117,1,0,0:0:0:0:
64,264,539242,1,0,0:0:0:0:
59,191,539367,2,4,B|44:132|80:76|127:64,1,160,4|0,0:0|0:0,0:0:0:0:
192,96,539742,1,2,0:0:0:0:
244,48,539867,1,0,0:0:0:0:
256,192,539992,12,2,540742,0:0:0:0:
404,256,540992,6,12,B|360:260|348:304,1,80,12|0,0:0|0:0,0:0:0:0:
288,344,541242,1,0,0:0:0:0:
280,272,541367,2,8,B|292:184,1,80
244,140,541617,1,0,0:0:0:0:
228,136,541679,1,0,0:0:0:0:
212,128,541742,1,0,0:0:0:0:
140,144,541867,1,0,0:0:0:0:
120,76,541992,2,0,B|72:8,1,80,2|0,0:0|0:0,0:0:0:0:
20,60,542242,2,0,B|68:128,1,80,2|0,0:0|0:0,0:0:0:0:
35,192,542492,2,2,B|-8:280|52:368|139:352,1,240,2|0,0:0|0:0,0:0:0:0:
152,280,542992,6,0,B|168:236|212:232,1,80,2|0,0:0|0:0,0:0:0:0:
220,304,543242,1,0,0:0:0:0:
288,328,543367,2,0,B|272:372|228:376,2,80,0|2|0,0:0|0:0|0:0,0:0:0:0:
352,292,543742,1,0,0:0:0:0:
400,344,543867,1,0,0:0:0:0:
432,324,543929,1,0,0:0:0:0:
456,300,543992,1,2,0:0:0:0:
480,232,544117,2,0,B|488:184|460:152,1,80
392,176,544367,2,2,B|328:139|324:55|376:0|435:8,1,240
484,64,544867,1,0,0:0:0:0:
420,100,544992,6,0,B|352:44,1,80,2|0,0:0|0:0,0:0:0:0:
288,28,545242,2,0,B|268:60|272:104,1,80
200,112,545492,2,2,B|192:160|256:208|316:172,1,160
328,244,545867,1,0,0:0:0:0:
256,260,545992,2,2,B|264:308|200:356|140:320,1,160,2|0,0:0|0:0,0:0:0:0:
184,256,546367,2,2,B|192:208|128:160|68:196,1,160,2|0,0:0|0:0,0:0:0:0:
112,260,546742,2,0,B|68:272,2,40
36,36,546992,6,2,B|32:96|96:128|152:96,1,160,2|0,0:0|0:0,0:0:0:0:
115,33,547367,2,2,B|111:93|175:125|231:93,1,160,2|0,0:0|0:0,0:0:0:0:
188,28,547742,1,0,0:0:0:0:
260,24,547867,1,0,0:0:0:0:
324,52,547992,1,8,0:0:0:0:
340,48,548054,1,0,0:0:0:0:
356,44,548117,1,0,0:0:0:0:
392,108,548242,1,8,0:0:0:0:
376,112,548304,1,0,0:0:0:0:
360,116,548367,1,0,0:0:0:0:
308,164,548492,5,8,0:0:0:0:
204,220,548617,1,8,0:0:0:0:
356,236,548742,1,8,0:0:0:0:
156,148,548867,1,8,0:0:0:0:
132,80,548992,6,0,B|88:76|64:40,1,80,2|0,0:0|0:0,0:0:0:0:
12,92,549242,1,0,0:0:0:0:
52,152,549367,2,0,B|52:200|12:216,2,80,0|2|0,0:0|0:0|0:0,0:0:0:0:
124,152,549742,2,0,B|148:204,2,40
192,128,549992,2,2,B|276:116,1,80,2|0,0:0|0:0,0:0:0:0:
272,188,550242,2,2,B|356:176,1,80,2|0,0:0|0:0,0:0:0:0:
348,248,550492,2,8,B|394:237|394:237|437:227|471:248|478:279|478:279|480:287,1,160
412,308,550867,1,0,0:0:0:0:
340,320,550992,6,2,B|284:296|224:320|204:368,1,160
276,384,551367,2,2,B|300:328|276:268|228:248,1,160
168,292,551742,1,0,0:0:0:0:
100,308,551867,1,0,0:0:0:0:
32,332,551992,2,0,B|40:376,2,40,2|0|0,0:0|0:0|0:0,0:0:0:0:
24,260,552242,1,0,0:0:0:0:
64,200,552367,1,0,0:0:0:0:
16,148,552492,1,8,0:0:0:0:
48,84,552617,2,0,B|16:48|16:8,2,80,0|8|0,0:0|0:0|0:0,0:0:0:0:
120,96,552992,6,4,B|208:120|268:56,1,160,4|0,0:0|0:0,0:0:0:0:
204,20,553367,2,4,B|180:108|244:168,1,160,4|0,0:0|0:0,0:0:0:0:
316,168,553742,1,0,0:0:0:0:
368,120,553867,1,0,0:0:0:0:
440,116,553992,2,4,B|476:144|476:188,1,80,4|0,0:0|0:0,0:0:0:0:
412,224,554242,1,0,0:0:0:0:
432,292,554367,2,4,B|392:300|376:344,1,80,4|0,0:0|0:0,0:0:0:0:
304,364,554617,2,0,B|260:368,2,40,0|0|2,0:0|0:0|0:0,0:0:0:0:
312,292,554867,1,0,0:0:0:0:
247,255,554992,6,12,B|184:252|144:196|151:150,1,160,12|0,0:0|0:0,0:0:0:0:
224,168,555367,2,12,B|231:213|191:269|127:273,1,160,12|0,0:0|0:0,0:0:0:0:
80,328,555742,1,0,0:0:0:0:
36,272,555867,1,0,0:0:0:0:
84,216,555992,5,8,0:0:0:0:
16,108,556117,1,8,0:0:0:0:
144,92,556242,1,8,0:0:0:0:
244,12,556367,1,8,0:0:0:0:
352,80,556492,2,8,B|368:100,4,20
443,171,556742,2,2,B|427:191,4,20
351,262,556992,1,4,0:0:0:0:
460,20,564992,5,0,0:0:0:0:
488,88,565117,1,0,0:0:0:0:
420,104,565242,1,8,0:0:0:0:
444,172,565367,1,0,0:0:0:0:
437,186,565429,1,0,0:0:0:0:
430,200,565492,1,0,0:0:0:0:
423,214,565554,1,0,0:0:0:0:
416,228,565617,1,8,0:0:0:0:
416,300,565742,1,0,0:0:0:0:
401,306,565804,1,0,0:0:0:0:
386,312,565867,1,8,0:0:0:0:
344,253,565992,6,0,B|340:204|300:188,2,80,0|0|8,0:0|0:0|0:0,0:0:0:0:
271,255,566367,1,0,0:0:0:0:
262,268,566429,1,0,0:0:0:0:
252,281,566492,1,8,0:0:0:0:
258,352,566617,1,8,0:0:0:0:
190,325,566742,1,0,0:0:0:0:
118,336,566867,1,8,0:0:0:0:
60,293,566992,5,0,0:0:0:0:
86,226,567117,1,0,0:0:0:0:
14,236,567242,1,8,0:0:0:0:
41,169,567367,1,0,0:0:0:0:
34,154,567429,1,0,0:0:0:0:
34,137,567492,2,8,B|59:47|145:37,1,160,8|0,0:0|0:0,0:0:0:0:
255,169,567867,2,8,B|229:258|143:269,1,160,8|0,0:0|0:0,0:0:0:0:
150,196,568242,5,0,0:0:0:0:
189,135,568367,1,0,0:0:0:0:
251,98,568492,1,2,0:0:0:0:
316,128,568617,1,2,0:0:0:0:
324,199,568742,1,2,0:0:0:0:
288,261,568867,1,2,0:0:0:0:
460,352,568992,5,0,0:0:0:0:
388,340,569117,1,0,0:0:0:0:
437,287,569242,2,8,B|478:272|481:225,1,80,8|0,0:0|0:0,0:0:0:0:
408,223,569492,1,0,0:0:0:0:
411,187,569554,1,0,0:0:0:0:
415,150,569617,1,8,0:0:0:0:
480,120,569742,5,0,0:0:0:0:
447,55,569867,1,0,0:0:0:0:
382,86,569992,1,8,0:0:0:0:
328,37,570117,1,0,0:0:0:0:
328,37,570179,1,0,0:0:0:0:
328,37,570242,1,8,0:0:0:0:
282,92,570367,1,8,0:0:0:0:
210,88,570492,1,0,0:0:0:0:
185,155,570617,1,8,0:0:0:0:
113,146,570742,1,0,0:0:0:0:
70,204,570867,2,0,B|29:217|16:260,1,80
86,274,571117,5,0,0:0:0:0:
37,327,571242,2,2,B|100:381,1,80,2|0,0:0|0:0,0:0:0:0:
141,321,571492,1,0,0:0:0:0:
196,274,571617,2,2,B|133:220,1,80,2|0,0:0|0:0,0:0:0:0:
135,221,571804,1,0,0:0:0:0:
135,221,571867,1,0,0:0:0:0:
178,164,571992,1,2,0:0:0:0:
246,185,572117,1,8,0:0:0:0:
314,161,572242,1,8,0:0:0:0:
365,211,572367,1,0,0:0:0:0:
365,211,572429,1,0,0:0:0:0:
365,211,572492,1,8,0:0:0:0:
432,187,572617,1,8,0:0:0:0:
485,139,572742,2,0,B|499:97|485:56,1,80,2|2,0:0|0:0,0:0:0:0:
422,26,572992,6,2,B|361:6|308:21|273:73,1,160,2|0,0:0|0:0,0:0:0:0:
217,26,573367,2,2,B|200:76|154:105|89:103,1,160,2|0,0:0|0:0,0:0:0:0:
21,82,573742,2,0,B|37:40,2,40
24,154,573992,6,2,B|75:209|49:273|49:273|38:302,1,160,2|0,0:0|0:0,0:0:0:0:
101,337,574367,2,2,B|114:307|114:307|141:243|215:241,1,160,2|0,0:0|0:0,0:0:0:0:
261,296,574742,1,0,0:0:0:0:
284,323,574804,1,0,0:0:0:0:
320,323,574867,1,0,0:0:0:0:
390,336,574992,6,0,B|433:333|460:297,1,80,2|0,0:0|0:0,0:0:0:0:
440,229,575242,1,0,0:0:0:0:
374,259,575367,2,0,B|331:256|304:220,1,80,2|0,0:0|0:0,0:0:0:0:
325,152,575617,1,0,0:0:0:0:
394,171,575742,2,2,B|429:141|418:89,1,80,2|0,0:0|0:0,0:0:0:0:
400,28,575992,6,8,B|316:56|248:8,1,160,8|0,0:0|0:0,0:0:0:0:
180,36,576367,2,8,B|165:118|86:158,1,160,8|0,0:0|0:0,0:0:0:0:
36,208,576742,1,0,0:0:0:0:
24,240,576804,1,0,0:0:0:0:
24,276,576867,1,0,0:0:0:0:
40,308,576929,1,0,0:0:0:0:
68,332,576992,6,2,B|140:360|192:316|195:276,1,160,2|0,0:0|0:0,0:0:0:0:
124,264,577367,2,2,B|127:224|179:180|250:207,1,160,2|0,0:0|0:0,0:0:0:0:
304,256,577742,1,0,0:0:0:0:
320,288,577804,1,0,0:0:0:0:
348,312,577867,1,0,0:0:0:0:
384,316,577929,1,0,0:0:0:0:
420,312,577992,6,2,B|496:260|480:172,1,160,2|0,0:0|0:0,0:0:0:0:
408,180,578367,2,2,B|423:94|347:42,1,160,2|0,0:0|0:0,0:0:0:0:
316,108,578742,2,2,B|288:72|248:76,1,80,0|0,0:0|0:0,0:0:0:0:
244,148,578992,6,2,B|167:106|94:162,1,160,2|0,0:0|0:0,0:0:0:0:
52,104,579367,2,2,B|-17:156|2:245,1,160,2|0,0:0|0:0,0:0:0:0:
72,232,579742,2,0,B|148:296,1,80,2|0,0:0|0:0,0:0:0:0:
80,332,579992,2,0,B|112:376|172:360|192:328|192:328|216:288,1,160,2|0,0:0|0:0,0:0:0:0:
132,283,580367,2,0,B|147:257|147:257|167:225|227:209|259:253,1,160,2|8,0:0|0:0,0:0:0:0:
272,328,580742,2,8,B|356:356,1,80
416,328,580992,5,2,0:0:0:0:
464,276,581117,1,0,0:0:0:0:
396,256,581242,1,0,0:0:0:0:
448,204,581367,5,2,0:0:0:0:
496,152,581492,1,0,0:0:0:0:
428,132,581617,1,0,0:0:0:0:
480,84,581742,5,2,0:0:0:0:
412,60,581867,1,0,0:0:0:0:
340,36,581992,5,2,0:0:0:0:
292,88,582117,1,0,0:0:0:0:
360,108,582242,1,0,0:0:0:0:
308,160,582367,5,2,0:0:0:0:
260,212,582492,1,0,0:0:0:0:
328,232,582617,1,0,0:0:0:0:
276,280,582742,5,2,0:0:0:0:
344,304,582867,1,0,0:0:0:0:
288,352,582992,5,4,0:0:0:0:
220,328,583117,1,0,0:0:0:0:
148,340,583242,1,0,0:0:0:0:
32,256,583367,5,4,0:0:0:0:
100,280,583492,1,0,0:0:0:0:
172,268,583617,1,0,0:0:0:0:
128,212,583742,1,4,0:0:0:0:
200,200,583867,1,0,0:0:0:0:
296,152,583992,5,4,0:0:0:0:
228,128,584117,1,0,0:0:0:0:
156,140,584242,1,0,0:0:0:0:
40,56,584367,5,4,0:0:0:0:
108,80,584492,1,0,0:0:0:0:
180,68,584617,1,0,0:0:0:0:
136,12,584742,1,4,0:0:0:0:
208,0,584867,1,0,0:0:0:0:
272,28,584992,6,0,B|356:44,1,80,2|0,0:0|0:0,0:0:0:0:
424,48,585242,1,0,0:0:0:0:
480,92,585367,6,0,B|464:176,1,80,2|0,0:0|0:0,0:0:0:0:
460,244,585617,1,0,0:0:0:0:
424,304,585742,1,8,0:0:0:0:
388,308,585804,1,0,0:0:0:0:
364,336,585867,1,0,0:0:0:0:
300,372,585992,6,0,B|216:356,1,80,2|0,0:0|0:0,0:0:0:0:
148,352,586242,1,0,0:0:0:0:
92,308,586367,6,0,B|108:224,1,80,2|0,0:0|0:0,0:0:0:0:
112,156,586617,1,0,0:0:0:0:
148,96,586742,1,8,0:0:0:0:
184,92,586804,1,0,0:0:0:0:
208,64,586867,1,0,0:0:0:0:
272,93,586992,6,2,B|272:152|320:192|380:176,1,160,2|0,0:0|0:0,0:0:0:0:
239,290,587367,2,2,B|240:232|192:192|131:207,1,160,2|0,0:0|0:0,0:0:0:0:
92,264,587742,1,0,0:0:0:0:
160,284,587867,1,0,0:0:0:0:
108,336,587992,5,8,0:0:0:0:
48,204,588117,1,8,0:0:0:0:
192,212,588242,1,8,0:0:0:0:
132,80,588367,1,8,0:0:0:0:
276,88,588492,1,8,0:0:0:0:
276,88,588554,1,0,0:0:0:0:
276,88,588617,1,0,0:0:0:0:
328,224,588742,1,8,0:0:0:0:
408,104,588867,1,8,0:0:0:0:
452,240,588992,1,4,0:0:0:0:
328,100,603992,5,8,0:0:0:0:
164,120,604117,1,8,0:0:0:0:
184,284,604242,1,8,0:0:0:0:
348,264,604367,1,8,0:0:0:0:
256,152,604492,5,8,0:0:0:0:
248,116,604554,1,0,0:0:0:0:
240,80,604617,1,0,0:0:0:0:
256,232,604742,5,2,0:0:0:0:
264,268,604804,1,0,0:0:0:0:
272,304,604867,1,2,0:0:0:0:
322,354,604992,5,4,0:0:0:0:
106,354,605367,1,4,0:0:0:0:
480,12,606992,5,0,0:0:0:0:
444,76,607117,2,0,B|424:116|380:120,1,80,0|8,0:0|0:0,0:0:0:0:
376,48,607367,1,0,0:0:0:0:
316,88,607492,2,8,B|296:128|324:168,1,80,0|8,0:0|0:0,0:0:0:0:
376,212,607742,1,0,0:0:0:0:
444,192,607867,1,0,0:0:0:0:
484,252,607992,5,8,0:0:0:0:
476,288,608054,1,0,0:0:0:0:
448,312,608117,1,0,0:0:0:0:
412,312,608179,1,0,0:0:0:0:
376,300,608242,1,8,0:0:0:0:
325,350,608367,5,8,0:0:0:0:
289,342,608429,1,0,0:0:0:0:
265,314,608492,1,0,0:0:0:0:
265,278,608554,1,0,0:0:0:0:
277,242,608617,1,8,0:0:0:0:
226,191,608742,5,8,0:0:0:0:
175,140,608867,1,8,0:0:0:0:
124,89,608992,1,4,0:0:0:0:
124,89,609367,1,4,0:0:0:0:
496,32,610992,5,2,0:0:0:0:
436,72,611117,1,2,0:0:0:0:
404,136,611242,1,0,0:0:0:0:
412,172,611304,1,0,0:0:0:0:
420,208,611367,1,0,0:0:0:0:
428,244,611429,1,0,0:0:0:0:
436,280,611492,6,2,B|380:344,1,80
316,320,611742,1,0,0:0:0:0:
332,248,611867,1,0,0:0:0:0:
264,268,611992,2,0,B|228:284,2,40,8|0|8,0:0|0:0|0:0,0:0:0:0:
284,200,612242,1,0,0:0:0:0:
212,200,612367,1,0,0:0:0:0:
148,168,612492,5,8,0:0:0:0:
184,48,612617,1,8,0:0:0:0:
184,48,612679,1,0,0:0:0:0:
184,48,612742,1,0,0:0:0:0:
292,120,612867,1,0,0:0:0:0:
352,4,612992,1,4,0:0:0:0:
352,4,613367,1,4,0:0:0:0:
368,360,614992,6,12,B|280:348,1,80,12|0,0:0|0:0,0:0:0:0:
232,304,615242,1,0,0:0:0:0:
184,356,615367,2,12,B|96:344,1,80,12|0,0:0|0:0,0:0:0:0:
48,300,615617,1,0,0:0:0:0:
96,244,615742,1,8,0:0:0:0:
56,184,615867,1,0,0:0:0:0:
100,128,615992,5,2,0:0:0:0:
125,102,616054,1,0,0:0:0:0:
150,76,616117,1,0,0:0:0:0:
200,126,616242,1,2,0:0:0:0:
250,176,616367,5,2,0:0:0:0:
275,150,616429,1,0,0:0:0:0:
300,124,616492,1,0,0:0:0:0:
350,174,616617,1,2,0:0:0:0:
400,123,616742,5,2,0:0:0:0:
450,173,616867,1,2,0:0:0:0:
399,223,616992,1,4,0:0:0:0:
399,223,617367,1,4,0:0:0:0:
113,161,617992,5,4,0:0:0:0:
113,161,618367,1,4,0:0:0:0:
40,344,618992,5,12,0:0:0:0:
72,328,619054,1,0,0:0:0:0:
104,312,619117,1,0,0:0:0:0:
164,352,619242,1,0,0:0:0:0:
236,352,619367,5,12,0:0:0:0:
268,336,619429,1,0,0:0:0:0:
300,320,619492,1,0,0:0:0:0:
360,360,619617,1,0,0:0:0:0:
432,360,619742,5,12,0:0:0:0:
256,24,620742,5,2,0:0:0:0:
396,65,620992,6,4,B|412:124|368:176|308:165,1,160,4|0,0:0|0:0,0:0:0:0:
244,140,621367,1,4,0:0:0:0:
216,116,621429,1,0,0:0:0:0:
188,92,621492,1,0,0:0:0:0:
116,92,621617,2,0,B|36:100,2,80,0|2|0,0:0|0:0|0:0,0:0:0:0:
120,164,621992,6,12,B|177:223|120:247|177:307,1,160,12|0,0:0|0:0,0:0:0:0:
112,336,622367,2,12,B|171:278|195:335|255:278,1,160,12|0,0:0|0:0,0:0:0:0:
300,336,622742,2,0,B|256:372,2,40
372,348,622992,6,2,B|444:304,1,80,2|0,0:0|0:0,0:0:0:0:
491,357,623242,1,0,0:0:0:0:
512,240,623367,6,2,B|440:196,1,80,2|0,0:0|0:0,0:0:0:0:
393,249,623617,1,0,0:0:0:0:
342,198,623742,1,8,0:0:0:0:
291,147,623867,1,0,0:0:0:0:
243,92,623992,6,2,B|152:128|100:57,1,160,2|0,0:0|0:0,0:0:0:0:
166,28,624367,2,2,B|79:37|64:134,1,160,2|0,0:0|0:0,0:0:0:0:
12,184,624742,2,8,B|39:219|28:259,1,80
80,312,624992,6,0,B|127:351|195:327|198:264,1,160,2|0,0:0|0:0,0:0:0:0:
212,196,625367,2,0,B|172:243|196:311|259:314,1,160,2|2,0:0|0:0,0:0:0:0:
268,244,625742,1,2,0:0:0:0:
318,193,625867,1,2,0:0:0:0:
380,228,625992,6,8,B|408:288|472:276|472:276|500:240,1,160,8|0,0:0|0:0,0:0:0:0:
450,187,626367,2,8,B|510:159|498:95|498:95|462:67,1,160,8|0,0:0|0:0,0:0:0:0:
409,116,626742,2,2,B|333:56,1,80
284,32,626992,6,8,B|124:40,1,160,8|0,0:0|0:0,0:0:0:0:
124,112,627367,2,8,B|284:104,1,160,8|0,0:0|0:0,0:0:0:0:
324,164,627742,1,0,0:0:0:0:
304,192,627804,1,0,0:0:0:0:
284,224,627867,1,0,0:0:0:0:
220,188,627992,6,8,B|60:196,1,160,8|0,0:0|0:0,0:0:0:0:
59,268,628367,2,8,B|139:264,1,80,8|0,0:0|0:0,0:0:0:0:
211,264,628617,1,2,0:0:0:0:
178,328,628742,1,2,0:0:0:0:
250,328,628867,1,0,0:0:0:0:
313,292,628992,6,2,B|360:296|377:333,1,80,2|0,0:0|0:0,0:0:0:0:
450,333,629242,1,0,0:0:0:0:
450,261,629367,2,2,B|357:253|322:178,1,160,2|0,0:0|0:0,0:0:0:0:
372,128,629742,1,8,0:0:0:0:
422,77,629867,1,8,0:0:0:0:
328,72,629992,6,2,B|281:68|263:30,1,80,2|0,0:0|0:0,0:0:0:0:
191,31,630242,1,0,0:0:0:0:
191,103,630367,2,2,B|283:110|318:185,1,160,2|0,0:0|0:0,0:0:0:0:
269,236,630742,1,8,0:0:0:0:
219,287,630867,1,8,0:0:0:0:
180,348,630992,6,2,B|16:348,1,160
20,276,631367,1,0,0:0:0:0:
92,276,631492,1,2,0:0:0:0:
56,212,631617,1,0,0:0:0:0:
56,140,631742,2,8,B|56:52,1,80
123,37,631992,6,2,B|120:88|168:140|236:124|236:124|293:76,1,240
256,16,632492,2,0,B|340:150,1,160,8|0,0:0|0:0,0:0:0:0:
412,151,632867,1,0,0:0:0:0:
484,151,632992,6,0,B|484:71,2,80,2|0|0,0:0|0:0|0:0,0:0:0:0:
484,223,633367,2,2,B|324:223,1,160
252,223,633742,1,8,0:0:0:0:
288,284,633867,1,0,0:0:0:0:
220,304,633992,6,2,B|198:364|136:383|91:353,1,160
132,292,634367,2,2,B|143:229|99:181|45:184,1,160
32,116,634742,2,0,B|28:64,2,40
104,118,634992,6,2,B|120:28|211:16,1,160
300,16,635367,2,2,B|392:28|407:118,1,160
336,136,635742,2,0,B|336:220,1,80
308,284,635992,5,8,0:0:0:0:
204,284,636117,1,8,0:0:0:0:
256,212,636242,1,2,0:0:0:0:
176,172,636367,1,0,0:0:0:0:
336,172,636492,1,8,0:0:0:0:
336,172,636554,1,0,0:0:0:0:
336,172,636617,1,0,0:0:0:0:
256,116,636742,1,8,0:0:0:0:
256,116,636804,1,0,0:0:0:0:
256,116,636867,1,0,0:0:0:0:
120,24,636992,5,4,0:0:0:0:
424,56,637492,1,4,0:0:0:0:
88,328,637992,1,4,0:0:0:0:
392,360,638492,1,4,0:0:0:0:
274,20,638992,5,4,0:0:0:0:
427,210,639492,1,4,0:0:0:0:
84,173,639992,1,4,0:0:0:0:
237,363,640492,1,4,0:0:0:0:
424,56,640992,5,4,0:0:0:0:
392,360,641492,1,4,0:0:0:0:
120,24,641992,1,4,0:0:0:0:
88,328,642492,1,4,0:0:0:0:
427,210,642992,5,4,0:0:0:0:
237,363,643492,1,4,0:0:0:0:
274,20,643992,1,4,0:0:0:0:
84,173,644492,1,4,0:0:0:0:
392,72,644992,5,4,0:0:0:0:
120,312,645492,1,4,0:0:0:0:
267,10,645992,5,4,0:0:0:0:
244,373,646492,1,4,0:0:0:0:
136,56,646992,5,4,0:0:0:0:
375,328,647492,1,4,0:0:0:0:
74,180,647992,5,4,0:0:0:0:
437,203,648492,1,4,0:0:0:0:
120,312,648992,5,4,0:0:0:0:
392,72,649492,1,4,0:0:0:0:
244,373,649992,5,4,0:0:0:0:
267,10,650492,1,4,0:0:0:0:
256,300,650992,6,0,B|256:212,1,80
256,148,651242,2,2,B|292:148|324:172|328:216|328:216|328:352,1,240,2|0,0:0|0:0,0:0:0:0:
400,347,651742,2,2,B|423:347|444:331|446:302|446:302|446:214,1,160,2|0,0:0|0:0,0:0:0:0:
395,162,652117,1,2,0:0:0:0:
242,9,652492,5,2,0:0:0:0:
191,59,652617,1,0,0:0:0:0:
38,211,652992,5,12,0:0:0:0:
124,40,668992,5,12,0:0:0:0:
388,344,669367,1,12,0:0:0:0:
424,52,670992,5,0,0:0:0:0:
444,120,671117,1,0,0:0:0:0:
372,104,671242,1,8,0:0:0:0:
88,52,671492,5,0,0:0:0:0:
68,120,671617,1,0,0:0:0:0:
140,104,671742,1,8,0:0:0:0:
256,312,671992,5,2,0:0:0:0:
256,276,672054,1,0,0:0:0:0:
256,240,672117,1,0,0:0:0:0:
256,168,672242,1,2,0:0:0:0:
256,96,672367,1,2,0:0:0:0:
256,24,672492,1,2,0:0:0:0:
292,32,672554,1,0,0:0:0:0:
320,60,672617,1,2,0:0:0:0:
328,96,672679,1,0,0:0:0:0:
320,132,672742,1,2,0:0:0:0:
256,96,672867,1,2,0:0:0:0:
184,96,672992,2,12,B|184:344,1,240
88,52,674992,5,0,0:0:0:0:
68,120,675117,1,0,0:0:0:0:
140,104,675242,1,8,0:0:0:0:
424,52,675492,5,0,0:0:0:0:
444,120,675617,1,0,0:0:0:0:
372,104,675742,1,8,0:0:0:0:
256,312,675992,5,2,0:0:0:0:
256,276,676054,1,0,0:0:0:0:
256,240,676117,1,0,0:0:0:0:
256,168,676242,1,2,0:0:0:0:
256,96,676367,1,2,0:0:0:0:
256,24,676492,1,2,0:0:0:0:
220,32,676554,1,0,0:0:0:0:
192,60,676617,1,2,0:0:0:0:
184,96,676679,1,0,0:0:0:0:
192,132,676742,1,2,0:0:0:0:
256,96,676867,1,2,0:0:0:0:
328,96,676992,2,12,B|328:344,1,240
59,248,678992,6,12,B|48:320|112:352|157:330,1,160,12|0,0:0|0:0,0:0:0:0:
132,264,679367,1,12,0:0:0:0:
160,124,679617,5,0,0:0:0:0:
216,80,679742,1,2,0:0:0:0:
256,140,679867,1,0,0:0:0:0:
296,80,679992,5,2,0:0:0:0:
296,80,680054,1,0,0:0:0:0:
296,80,680117,1,0,0:0:0:0:
352,124,680242,1,2,0:0:0:0:
352,196,680367,5,2,0:0:0:0:
352,196,680429,1,0,0:0:0:0:
352,196,680492,1,0,0:0:0:0:
408,240,680617,1,2,0:0:0:0:
357,290,680742,1,0,0:0:0:0:
285,290,680867,1,2,0:0:0:0:
216,316,680992,5,12,0:0:0:0:
296,68,681367,1,12,0:0:0:0:
70,132,681992,5,12,0:0:0:0:
442,252,682367,1,12,0:0:0:0:
408,32,682992,5,12,0:0:0:0:
352,76,683117,1,0,0:0:0:0:
280,76,683242,1,0,0:0:0:0:
188,116,683367,5,12,0:0:0:0:
244,160,683492,1,0,0:0:0:0:
316,160,683617,1,0,0:0:0:0:
412,192,683742,5,12,0:0:0:0:
448,256,683867,1,0,0:0:0:0:
396,308,683992,1,2,0:0:0:0:
360,304,684054,1,0,0:0:0:0:
324,300,684117,1,0,0:0:0:0:
252,292,684242,5,0,0:0:0:0:
180,304,684367,1,8,0:0:0:0:
108,316,684492,1,8,0:0:0:0:
76,252,684617,1,0,0:0:0:0:
40,188,684742,1,8,0:0:0:0:
72,124,684867,1,8,0:0:0:0:
108,60,684992,5,4,0:0:0:0:
424,68,688314,5,2,0:0:0:0:
432,104,688376,1,0,0:0:0:0:
440,140,688439,1,0,0:0:0:0:
448,176,688501,1,0,0:0:0:0:
456,212,688564,1,0,0:0:0:0:
320,184,688689,5,2,0:0:0:0:
328,220,688751,1,0,0:0:0:0:
336,256,688814,1,0,0:0:0:0:
344,292,688876,1,0,0:0:0:0:
352,328,688939,1,0,0:0:0:0:
208,304,689064,5,2,0:0:0:0:
72,260,689314,6,4,B|80:216|52:184,1,80,4|0,0:0|0:0,0:0:0:0:
56,112,689564,1,0,0:0:0:0:
128,128,689689,1,0,0:0:0:0:
108,60,689814,2,2,B|192:40,1,80
256,56,690064,1,0,0:0:0:0:
326,41,690189,2,2,B|404:60,1,80,0|2,0:0|0:0,0:0:0:0:
436,124,690439,1,0,0:0:0:0:
416,192,690564,6,0,B|472:256,1,80
324,264,690814,2,0,B|344:340,1,80,2|0,0:0|0:0,0:0:0:0:
188,264,691064,2,0,B|168:340,1,80,8|0,0:0|0:0,0:0:0:0:
96,192,691314,5,4,0:0:0:0:
164,168,691439,1,0,0:0:0:0:
164,96,691564,1,8,0:0:0:0:
232,120,691689,1,0,0:0:0:0:
232,192,691814,5,2,0:0:0:0:
300,168,691939,1,0,0:0:0:0:
300,97,692064,1,8,0:0:0:0:
368,120,692189,1,0,0:0:0:0:
428,80,692314,6,2,B|512:80,1,80,2|0,0:0|0:0,0:0:0:0:
428,160,692564,2,2,B|512:160,1,80,2|0,0:0|0:0,0:0:0:0:
428,240,692814,2,2,B|512:240,1,80,2|0,0:0|0:0,0:0:0:0:
428,320,693064,2,2,B|512:320,1,80,2|0,0:0|0:0,0:0:0:0:
342,356,693314,6,4,B|300:376|270:343,1,80,4|0,0:0|0:0,0:0:0:0:
320,288,693564,1,8,0:0:0:0:
248,272,693689,1,0,0:0:0:0:
184,308,693814,2,2,B|104:328,1,80
52,280,694064,1,0,0:0:0:0:
48,208,694189,1,0,0:0:0:0:
99,155,694314,2,2,B|80:96|136:44|189:63,1,160
168,132,694689,1,0,0:0:0:0:
240,116,694814,2,0,B|316:80,1,80,2|0,0:0|0:0,0:0:0:0:
352,140,695064,2,0,B|428:104,1,80,2|0,0:0|0:0,0:0:0:0:
476,156,695314,6,4,B|476:316,1,160,4|8,0:0|0:0,0:0:0:0:
412,348,695689,1,0,0:0:0:0:
388,280,695814,2,2,B|407:226|355:170|295:190,1,160
256,252,696189,1,0,0:0:0:0:
216,190,696314,2,2,B|156:170|104:226|124:280,1,160,8|2,0:0|0:0,0:0:0:0:
100,348,696689,1,0,0:0:0:0:
36,316,696814,2,4,B|36:156,1,160,2|8,0:0|0:0,0:0:0:0:
86,105,697189,1,0,0:0:0:0:
116,40,697314,6,0,B|200:8,1,80,2|0,0:0|0:0,0:0:0:0:
232,72,697564,2,0,B|148:104,1,80,8|0,0:0|0:0,0:0:0:0:
176,168,697814,2,0,B|336:168,1,160,2|0,0:0|0:0,0:0:0:0:
408,152,698189,1,0,0:0:0:0:
354,100,698314,2,0,B|280:72,1,80,2|0,0:0|0:0,0:0:0:0:
321,11,698564,2,0,B|396:40,1,80,8|0,0:0|0:0,0:0:0:0:
448,88,698814,1,2,0:0:0:0:
500,136,698939,1,0,0:0:0:0:
468,200,699064,1,0,0:0:0:0:
504,260,699189,1,0,0:0:0:0:
459,315,699314,6,4,B|412:312|393:349,1,80,4|0,0:0|0:0,0:0:0:0:
324,324,699564,1,0,0:0:0:0:
264,364,699689,1,0,0:0:0:0:
220,308,699814,2,2,B|177:270|105:297|101:360,1,160
36,328,700189,1,0,0:0:0:0:
68,264,700314,2,2,B|105:221|78:149|15:145,1,160
40,76,700689,1,0,0:0:0:0:
108,104,700814,2,2,B|150:141|222:114|226:51,1,160
292,20,701189,1,0,0:0:0:0:
352,56,701314,5,4,0:0:0:0:
416,92,701439,1,0,0:0:0:0:
448,156,701564,2,0,B|444:204|404:216,1,80
352,164,701814,2,0,B|311:176|307:224,1,80,2|0,0:0|0:0,0:0:0:0:
359,275,702064,2,0,B|355:323|315:335,1,80
263,284,702314,2,0,B|167:276|143:196,1,160,2|0,0:0|0:0,0:0:0:0:
188,136,702689,1,0,0:0:0:0:
232,76,702814,2,0,B|328:84|352:164,1,160,2|0,0:0|0:0,0:0:0:0:
420,188,703189,1,0,0:0:0:0:
488,160,703314,6,0,B|456:124|464:80,1,80,2|0,0:0|0:0,0:0:0:0:
368,8,703564,2,0,B|400:44|392:88,1,80,2|0,0:0|0:0,0:0:0:0:
464,4,703814,1,2,0:0:0:0:
419,188,704064,6,0,B|416:236|455:253,1,80
475,324,704314,2,2,B|388:352|326:294,1,160,2|0,0:0|0:0,0:0:0:0:
324,224,704689,2,2,B|345:300|292:344|292:344|268:360,1,160
196,344,705064,1,0,0:0:0:0:
140,296,705189,1,0,0:0:0:0:
148,224,705314,5,4,0:0:0:0:
368,96,713314,6,4,B|324:96|300:60,1,80,4|0,0:0|0:0,0:0:0:0:
211,60,713564,2,4,B|188:96|144:96,1,80,0|0,0:0|0:0,0:0:0:0:
132,168,713814,2,0,B|212:208|196:300,1,160,8|0,0:0|0:0,0:0:0:0:
132,332,714189,1,0,0:0:0:0:
268,312,714314,2,0,B|308:232|400:248,1,160,8|0,0:0|0:0,0:0:0:0:
448,304,714689,2,0,B|448:348|488:368,2,80,0|8|0,0:0|0:0|0:0,0:0:0:0:
408,168,715064,1,0,0:0:0:0:
436,100,715189,1,0,0:0:0:0:
476,40,715314,6,0,B|312:16,1,160,8|0,0:0|0:0,0:0:0:0:
256,56,715689,1,0,0:0:0:0:
194,16,715814,2,0,B|36:40,1,160,8|0,0:0|0:0,0:0:0:0:
40,112,716189,1,0,0:0:0:0:
104,140,716314,2,0,B|160:208,1,80,8|0,0:0|0:0,0:0:0:0:
88,232,716564,2,0,B|108:308,1,80,0|0,0:0|0:0,0:0:0:0:
36,304,716814,2,0,B|24:384,1,80,8|0,0:0|0:0,0:0:0:0:
8,232,717064,1,0,0:0:0:0:
8,232,717189,1,0,0:0:0:0:
176,260,717314,6,0,B|256:244|288:156,1,160,8|0,0:0|0:0,0:0:0:0:
264,88,717689,1,0,0:0:0:0:
336,80,717814,2,0,B|504:132,1,160,8|0,0:0|0:0,0:0:0:0:
476,200,718189,2,0,B|472:248|512:272,2,80,0|8|0,0:0|0:0|0:0,0:0:0:0:
404,192,718564,2,0,B|324:168,1,80
276,220,718814,2,0,B|259:299|327:363,1,160,8|0,0:0|0:0,0:0:0:0:
400,356,719189,2,0,B|480:356,2,80,0|8|0,0:0|0:0|0:0,0:0:0:0:
240,384,719564,1,0,0:0:0:0:
240,384,719689,1,0,0:0:0:0:
172,360,719814,2,0,B|76:356|56:268,1,160,8|0,0:0|0:0,0:0:0:0:
80,200,720189,1,0,0:0:0:0:
256,192,720314,12,8,721064,0:0:0:0:
208,44,721314,6,4,B|320:168,1,160,4|0,0:0|0:0,0:0:0:0:
256,208,721689,1,0,0:0:0:0:
196,162,721814,2,4,B|304:44,1,160,4|0,0:0|0:0,0:0:0:0:
372,64,722189,1,0,0:0:0:0:
412,124,722314,2,0,B|480:176,1,80,2|0,0:0|0:0,0:0:0:0:
424,223,722564,2,0,B|356:275,1,80,2|0,0:0|0:0,0:0:0:0:
411,322,722814,2,0,B|479:374,1,80,2|0,0:0|0:0,0:0:0:0:
340,352,723064,1,0,0:0:0:0:
340,352,723189,1,0,0:0:0:0:
280,312,723314,6,0,B|116:324,1,160,2|0,0:0|0:0,0:0:0:0:
56,292,723689,1,0,0:0:0:0:
56,220,723814,2,0,B|220:208,1,160,2|0,0:0|0:0,0:0:0:0:
284,180,724189,1,0,0:0:0:0:
300,108,724314,6,0,B|380:96,1,80,2|0,0:0|0:0,0:0:0:0:
212,108,724564,2,0,B|132:96,1,80,2|0,0:0|0:0,0:0:0:0:
376,24,724814,2,0,B|296:35,1,80,2|0,0:0|0:0,0:0:0:0:
136,24,725064,2,0,B|215:35,1,80,2|0,0:0|0:0,0:0:0:0:
184,180,725314,6,0,B|152:264|56:272,1,160,4|0,0:0|0:0,0:0:0:0:
24,212,725689,1,0,0:0:0:0:
76,344,725814,2,0,B|-12:376,1,80,4|0,0:0|0:0,0:0:0:0:
152,356,726064,2,0,B|240:324,1,80,0|0,0:0|0:0,0:0:0:0:
278,379,726314,6,0,B|310:295|406:287,1,160,4|0,0:0|0:0,0:0:0:0:
468,308,726689,2,0,B|520:376,2,80,0|4|0,0:0|0:0|0:0,0:0:0:0:
480,236,727064,1,0,0:0:0:0:
500,168,727189,1,0,0:0:0:0:
472,100,727314,6,0,B|380:116|320:52,1,160,4|0,0:0|0:0,0:0:0:0:
260,24,727689,1,0,0:0:0:0:
192,52,727814,2,0,B|116:72,1,80,2|0,0:0|0:0,0:0:0:0:
32,180,728064,2,0,B|108:160,1,80,2|0,0:0|0:0,0:0:0:0:
160,210,728314,6,0,B|176:302|112:362,1,160,4|0,0:0|0:0,0:0:0:0:
44,368,728689,1,0,0:0:0:0:
188,384,728814,2,0,B|268:360,1,80,2|0,0:0|0:0,0:0:0:0:
315,309,729064,2,0,B|395:285,1,80,2|0,0:0|0:0,0:0:0:0:
448,244,729314,6,0,B|496:176|472:80,1,160,4|0,0:0|0:0,0:0:0:0:
424,40,729689,1,0,0:0:0:0:
352,28,729814,2,0,B|304:96|328:192,1,160,4|0,0:0|0:0,0:0:0:0:
276,232,730189,1,0,0:0:0:0:
204,224,730314,2,0,B|124:248,1,80,2|0,0:0|0:0,0:0:0:0:
112,176,730564,2,0,B|28:160,1,80,2|0,0:0|0:0,0:0:0:0:
56,92,730814,2,0,B|0:32,2,80,0|2|0,0:0|0:0|0:0,0:0:0:0:
128,80,731189,1,0,0:0:0:0:
180,32,731314,6,0,B|352:32,1,160,2|0,0:0|0:0,0:0:0:0:
390,82,731689,1,0,0:0:0:0:
339,132,731814,2,0,B|339:304,1,160,2|0,0:0|0:0,0:0:0:0:
389,342,732189,1,0,0:0:0:0:
288,344,732314,2,0,B|116:344,1,160,2|0,0:0|0:0,0:0:0:0:
72,296,732689,2,0,B|-12:296,2,80,0|2|0,0:0|0:0|0:0,0:0:0:0:
122,245,733064,2,0,B|206:245,1,80
256,200,733314,6,0,B|248:116|172:72,1,160,2|0,0:0|0:0,0:0:0:0:
222,20,733689,1,0,0:0:0:0:
284,56,733814,2,0,B|349:115|339:198,1,160,2|0,0:0|0:0,0:0:0:0:
396,244,734189,2,0,B|448:312,2,80,0|2|0,0:0|0:0|0:0,0:0:0:0:
446,193,734564,2,0,B|498:125,1,80
464,64,734814,1,2,0:0:0:0:
400,28,734939,1,0,0:0:0:0:
328,40,735064,1,0,0:0:0:0:
280,92,735189,1,0,0:0:0:0:
272,164,735314,6,2,B|192:304,1,160
141,353,735689,1,0,0:0:0:0:
90,302,735814,2,2,B|10:163,1,160,2|2,0:0|0:0,0:0:0:0:
61,111,736189,1,0,0:0:0:0:
256,192,736314,12,0,737064,0:0:0:0:
256,48,737314,6,4,B|304:116|404:88,1,160,4|0,0:0|0:0,0:0:0:0:
456,136,737689,2,0,B|520:184,2,80,0|2|0,0:0|0:0|0:0,0:0:0:0:
392,168,738064,1,0,0:0:0:0:
372,236,738189,1,0,0:0:0:0:
392,304,738314,2,0,B|256:388,1,160,2|0,0:0|0:0,0:0:0:0:
188,364,738689,1,0,0:0:0:0:
176,292,738814,1,2,0:0:0:0:
136,232,738939,1,0,0:0:0:0:
76,192,739064,1,0,0:0:0:0:
8,172,739189,1,0,0:0:0:0:
56,120,739314,6,0,B|92:40|184:36,1,160,2|0,0:0|0:0,0:0:0:0:
216,100,739689,1,0,0:0:0:0:
260,156,739814,2,0,B|356:176,1,80,2|0,0:0|0:0,0:0:0:0:
364,104,740064,1,0,0:0:0:0:
424,60,740189,2,0,B|500:116|488:200,2,160,2|0|0,0:0|0:0|0:0,0:0:0:0:
360,28,740814,2,0,B|276:28,1,80,2|0,0:0|0:0,0:0:0:0:
128,28,741064,2,0,B|212:28,1,80,2|0,0:0|0:0,0:0:0:0:
216,100,741314,6,0,B|188:168|188:168|96:168,1,160,2|0,0:0|0:0,0:0:0:0:
92,240,741689,1,0,0:0:0:0:
140,292,741814,2,0,B|220:292,1,80,2|0,0:0|0:0,0:0:0:0:
256,356,742064,1,0,0:0:0:0:
292,292,742189,2,0,B|378:292|378:292|406:224,2,160,2|0|0,0:0|0:0|0:0,0:0:0:0:
280,220,742814,1,2,0:0:0:0:
300,152,742939,1,0,0:0:0:0:
360,112,743064,1,0,0:0:0:0:
432,116,743189,1,0,0:0:0:0:
472,56,743314,6,2,B|400:8|316:28,1,160,2|0,0:0|0:0,0:0:0:0:
256,64,743689,1,0,0:0:0:0:
192,27,743814,2,2,B|112:8|40:56,1,160,2|0,0:0|0:0,0:0:0:0:
48,128,744189,2,0,B|124:168|124:264,2,160,2|0|0,0:0|0:0|0:0,0:0:0:0:
12,192,744814,1,2,0:0:0:0:
8,264,744939,1,0,0:0:0:0:
44,328,745064,1,0,0:0:0:0:
112,352,745189,1,0,0:0:0:0:
184,340,745314,6,0,B|344:300,2,160,2|0|0,0:0|0:0|0:0,0:0:0:0:
164,272,745939,1,0,0:0:0:0:
176,200,746064,1,0,0:0:0:0:
232,156,746189,2,0,B|315:124|383:176,1,160,2|0,0:0|0:0,0:0:0:0:
444,44,746689,6,0,B|512:104,2,80,0|2|0,0:0|0:0|0:0,0:0:0:0:
372,32,747064,1,0,0:0:0:0:
308,60,747189,1,0,0:0:0:0:
236,56,747314,6,2,B|64:56,1,160,2|0,0:0|0:0,0:0:0:0:
32,116,747689,1,0,0:0:0:0:
60,184,747814,2,0,B|144:216,2,80,2|0|0,0:0|0:0|0:0,0:0:0:0:
16,240,748189,2,0,B|12:332|88:372,2,160,2|0|0,0:0|0:0|0:0,0:0:0:0:
60,184,748814,1,2,0:0:0:0:
124,148,748939,1,0,0:0:0:0:
196,144,749064,1,0,0:0:0:0:
256,184,749189,1,0,0:0:0:0:
288,248,749314,6,0,B|344:312|432:300,1,160,2|0,0:0|0:0,0:0:0:0:
456,232,749689,1,0,0:0:0:0:
492,172,749814,2,0,B|496:76,2,80,2|0|0,0:0|0:0|0:0,0:0:0:0:
420,164,750189,2,0,B|334:165|285:91,2,160,2|0|0,0:0|0:0|0:0,0:0:0:0:
432,92,750814,1,2,0:0:0:0:
396,28,750939,1,0,0:0:0:0:
328,4,751064,1,0,0:0:0:0:
256,16,751189,1,0,0:0:0:0:
204,64,751314,6,0,B|92:176,1,160,2|0,0:0|0:0,0:0:0:0:
44,232,751689,1,0,0:0:0:0:
88,288,751814,2,0,B|124:320|128:360,2,80,2|0|0,0:0|0:0|0:0,0:0:0:0:
144,240,752189,2,0,B|312:240,2,160,2|0|0,0:0|0:0|0:0,0:0:0:0:
148,168,752814,1,2,0:0:0:0:
204,120,752939,1,0,0:0:0:0:
276,120,753064,1,0,0:0:0:0:
332,168,753189,1,0,0:0:0:0:
452,40,756314,5,8,0:0:0:0:
436,72,756376,1,0,0:0:0:0:
408,92,756439,1,0,0:0:0:0:
372,100,756501,1,0,0:0:0:0:
336,100,756564,1,0,0:0:0:0:
256,192,756689,1,0,0:0:0:0:
176,284,756814,5,0,0:0:0:0:
140,284,756876,1,0,0:0:0:0:
104,292,756939,1,0,0:0:0:0:
76,312,757001,1,0,0:0:0:0:
60,344,757064,1,4,0:0:0:0:
256,76,757314,6,4,B|332:32|408:76,1,160,4|0,0:0|0:0,0:0:0:0:
460,125,757689,2,4,B|516:204|472:300|384:303,1,240,2|0,0:0|0:0,0:0:0:0:
320,272,758189,1,0,0:0:0:0:
256,308,758314,6,4,B|180:352|104:308,1,160,4|0,0:0|0:0,0:0:0:0:
51,258,758689,2,4,B|-4:180|40:84|127:80,1,240,2|0,0:0|0:0,0:0:0:0:
192,112,759189,1,0,0:0:0:0:
256,148,759314,6,0,B|340:116|336:24,1,160,4|0,0:0|0:0,0:0:0:0:
264,12,759689,1,0,0:0:0:0:
412,36,759814,2,0,B|472:92,1,80,2|0,0:0|0:0,0:0:0:0:
419,141,760064,2,0,B|359:197,1,80,2|0,0:0|0:0,0:0:0:0:
411,246,760314,2,4,B|408:333|312:377|233:321,1,240,4|0,0:0|0:0,0:0:0:0:
182,372,760814,2,0,B|122:316,1,80,2|0,0:0|0:0,0:0:0:0:
175,267,761064,2,0,B|235:211,1,80,2|0,0:0|0:0,0:0:0:0:
200,148,761314,6,4,B|202:60|298:16|377:72,2,240,4|4|0,0:0|0:0|0:0,0:0:0:0:
312,148,762314,2,4,B|309:60|213:16|134:72,2,240,4|4|0,0:0|0:0|0:0,0:0:0:0:
448,259,763314,6,4,B|390:384|256:417|121:384|63:259,1,480,4|0,0:0|0:0,0:0:0:0:
64,124,764314,2,4,B|121:0|256:-33|390:0|448:124,1,480,4|0,0:0|0:0,0:0:0:0:
424,192,765189,1,0,0:0:0:0:
384,252,765314,6,0,B|300:272|292:368,1,160,4|0,0:0|0:0,0:0:0:0:
220,367,765689,2,0,B|212:272|128:252,1,160,4|0,0:0|0:0,0:0:0:0:
84,192,766064,2,0,B|28:128,1,80,8|0,0:0|0:0,0:0:0:0:
128,132,766314,6,0,B|212:112|220:16,1,160,4|0,0:0|0:0,0:0:0:0:
291,16,766689,2,0,B|300:112|384:132,1,160,4|0,0:0|0:0,0:0:0:0:
428,192,767064,2,0,B|484:256,1,80,8|0,0:0|0:0,0:0:0:0:
356,200,767314,6,0,B|292:252|292:252|292:332,1,160,4|0,0:0|0:0,0:0:0:0:
220,329,767689,2,0,B|220:252|220:252|156:200,1,160,4|0,0:0|0:0,0:0:0:0:
220,164,768064,2,0,B|256:182|256:182|292:164,1,80,8|0,0:0|0:0,0:0:0:0:
296,92,768314,6,0,B|373:92|373:92|425:156,1,160,4|0,0:0|0:0,0:0:0:0:
216,92,768689,2,0,B|138:92|138:92|86:156,1,160,4|0,0:0|0:0,0:0:0:0:
124,216,769064,2,0,B|124:296,1,80,8|0,0:0|0:0,0:0:0:0:
188,324,769314,5,2,0:0:0:0:
324,60,769564,1,0,0:0:0:0:
263,340,769814,1,2,0:0:0:0:
248,43,770064,1,0,0:0:0:0:
336,316,770314,1,2,0:0:0:0:
175,67,770564,1,0,0:0:0:0:
388,260,770814,1,2,0:0:0:0:
124,124,771064,1,8,0:0:0:0:
36,240,771314,6,8,B|136:240|136:240|168:296|168:296|184:272|184:272|232:272,2,240,8|8|0,0:0|0:0|0:0,0:0:0:0:
281,112,772314,2,8,B|328:112|328:112|344:88|344:88|376:144|376:144|476:144,2,240,8|8|8,0:0|0:0|0:0,0:0:0:0:
230,162,773189,1,0,0:0:0:0:
280,212,773314,6,0,B|368:224|404:308,1,160,4|0,0:0|0:0,0:0:0:0:
352,356,773689,1,0,0:0:0:0:
316,364,773751,1,0,0:0:0:0:
280,352,773814,2,0,B|208:312,1,80,2|0,0:0|0:0,0:0:0:0:
159,364,774064,2,0,B|87:324,1,80,8|0,0:0|0:0,0:0:0:0:
38,274,774314,6,0,B|50:186|134:150,1,160,4|0,0:0|0:0,0:0:0:0:
108,84,774689,2,0,B|40:40,2,80,0|2|0,0:0|0:0|0:0,0:0:0:0:
180,88,775064,1,8,0:0:0:0:
200,117,775126,1,0,0:0:0:0:
220,148,775189,1,0,0:0:0:0:
256,212,775314,6,0,B|380:212|380:212|408:240,1,160,2|8,0:0|0:0,0:0:0:0:
408,312,775689,2,0,B|492:312,2,80,0|2|0,0:0|0:0|0:0,0:0:0:0:
332,308,776064,2,0,B|272:308|272:308|236:348|236:348|184:348,1,160,8|2,0:0|0:0,0:0:0:0:
128,312,776439,2,0,B|48:312,2,80,0|8|0,0:0|0:0|0:0,0:0:0:0:
152,244,776814,1,2,0:0:0:0:
116,180,776939,1,0,0:0:0:0:
48,160,777064,1,8,0:0:0:0:
48,160,777189,1,0,0:0:0:0:
88,100,777314,6,0,B|124:24|220:28,2,160,2|0|0,0:0|0:0|0:0,0:0:0:0:
160,120,777939,1,0,0:0:0:0:
147,192,778064,2,0,B|234:222|234:222|256:261|277:222|277:222|364:192,1,240,2|0,0:0|0:0,0:0:0:0:
352,120,778564,1,2,0:0:0:0:
256,332,778814,1,0,0:0:0:0:
160,120,779064,1,2,0:0:0:0:
272,32,779314,6,4,B|356:4|428:56,1,160,4|0,0:0|0:0,0:0:0:0:
480,100,779689,1,4,0:0:0:0:
496,132,779751,1,0,0:0:0:0:
492,168,779814,1,0,0:0:0:0:
440,220,779939,2,8,B|392:288,1,80
328,336,780189,1,0,0:0:0:0:
240,352,780314,6,4,B|156:380|84:328,1,160,4|0,0:0|0:0,0:0:0:0:
32,284,780689,1,4,0:0:0:0:
16,252,780751,1,0,0:0:0:0:
20,216,780814,1,0,0:0:0:0:
72,164,780939,2,8,B|108:92,1,80
176,64,781189,1,0,0:0:0:0:
236,104,781314,6,0,B|408:104,1,160,2|0,0:0|0:0,0:0:0:0:
448,52,781689,2,0,B|488:20,2,40,0|0|2,0:0|0:0|0:0,0:0:0:0:
400,176,781939,1,0,0:0:0:0:
420,244,782064,1,8,0:0:0:0:
480,280,782189,1,0,0:0:0:0:
416,316,782314,6,0,B|256:368,1,160,2|8,0:0|0:0,0:0:0:0:
200,332,782689,1,0,0:0:0:0:
188,320,782751,1,0,0:0:0:0:
176,308,782814,1,2,0:0:0:0:
120,264,782939,2,0,B|72:264|52:304,2,80,0|8|0,0:0|0:0|0:0,0:0:0:0:
156,204,783314,6,0,B|96:152,1,80,2|0,0:0|0:0,0:0:0:0:
171,49,783564,2,0,B|176:129,1,80,8|0,0:0|0:0,0:0:0:0:
244,92,783814,2,0,B|296:31,1,80,2|0,0:0|0:0,0:0:0:0:
398,107,784064,2,0,B|318:112,1,80,8|0,0:0|0:0,0:0:0:0:
356,180,784314,2,0,B|416:232,1,80,2|0,0:0|0:0,0:0:0:0:
340,334,784564,2,0,B|335:254,1,80,8|0,0:0|0:0,0:0:0:0:
256,256,784814,5,2,0:0:0:0:
256,112,785064,1,0,0:0:0:0:
140,28,785314,6,4,B|80:40|40:88|64:168|64:168|184:248,1,320,4|0,0:0|0:0,0:0:0:0:
373,355,786064,2,4,B|432:344|472:296|448:216|448:216|333:139,1,320,4|0,0:0|0:0,0:0:0:0:
232,324,786814,1,2,0:0:0:0:
272,264,786939,1,0,0:0:0:0:
256,192,787064,1,8,0:0:0:0:
240,120,787189,1,0,0:0:0:0:
280,60,787314,1,4,0:0:0:0:
320,48,789314,6,0,B|336:88|380:96,1,80,8|0,0:0|0:0,0:0:0:0:
400,256,789564,2,0,B|360:272|352:316,1,80,8|0,0:0|0:0,0:0:0:0:
192,336,789814,2,0,B|176:296|132:288,1,80,8|0,0:0|0:0,0:0:0:0:
112,128,790064,2,0,B|152:112|160:68,1,80,8|0,0:0|0:0,0:0:0:0:
371,84,790314,6,0,B|370:127|407:152,1,80,8|0,0:0|0:0,0:0:0:0:
363,307,790564,2,0,B|320:306|295:343,1,80,8|0,0:0|0:0,0:0:0:0:
140,299,790814,2,0,B|141:256|104:231,1,80,8|0,0:0|0:0,0:0:0:0:
148,76,791064,2,0,B|191:77|216:40,1,80,8|0,0:0|0:0,0:0:0:0:
403,135,791314,6,0,B|386:175|411:211,1,80,8|0,0:0|0:0,0:0:0:0:
312,339,791564,2,0,B|272:322|236:347,1,80,8|0,0:0|0:0,0:0:0:0:
108,248,791814,2,0,B|125:208|100:172,1,80,8|0,0:0|0:0,0:0:0:0:
199,44,792064,2,0,B|239:61|275:36,1,80,8|0,0:0|0:0,0:0:0:0:
413,197,792314,6,0,B|382:227|391:271,1,80,8|0,0:0|0:0,0:0:0:0:
250,349,792564,2,0,B|220:318|176:327,1,80,8|0,0:0|0:0,0:0:0:0:
98,186,792814,2,0,B|129:156|120:112,1,80,8|0,0:0|0:0,0:0:0:0:
261,34,793064,2,0,B|291:65|335:56,1,80,8|0,0:0|0:0,0:0:0:0:
400,256,793314,6,0,B|360:272|352:316,1,80,8|0,0:0|0:0,0:0:0:0:
192,336,793564,2,0,B|176:296|132:288,1,80,8|0,0:0|0:0,0:0:0:0:
112,128,793814,2,0,B|152:112|160:68,1,80,8|0,0:0|0:0,0:0:0:0:
320,48,794064,2,0,B|336:88|380:96,1,80,8|0,0:0|0:0,0:0:0:0:
363,307,794314,6,0,B|320:306|295:343,1,80,8|0,0:0|0:0,0:0:0:0:
140,299,794564,2,0,B|141:256|104:231,1,80,8|0,0:0|0:0,0:0:0:0:
148,76,794814,2,0,B|191:77|216:40,1,80,8|0,0:0|0:0,0:0:0:0:
371,84,795064,2,0,B|370:127|407:152,1,80,8|0,0:0|0:0,0:0:0:0:
312,339,795314,6,0,B|272:322|236:347,1,80,8|0,0:0|0:0,0:0:0:0:
108,248,795564,2,0,B|125:208|100:172,1,80,8|0,0:0|0:0,0:0:0:0:
199,44,795814,2,0,B|239:61|275:36,1,80,8|0,0:0|0:0,0:0:0:0:
403,135,796064,2,0,B|386:175|411:211,1,80,8|0,0:0|0:0,0:0:0:0:
250,349,796314,6,0,B|220:318|176:327,1,80,8|0,0:0|0:0,0:0:0:0:
98,186,796564,2,0,B|129:156|120:112,1,80,8|0,0:0|0:0,0:0:0:0:
261,34,796814,2,0,B|291:65|335:56,1,80,8|0,0:0|0:0,0:0:0:0:
413,197,797064,2,0,B|382:227|391:271,1,80,8|0,0:0|0:0,0:0:0:0:
324,292,797314,5,8,0:0:0:0:
296,228,797439,1,0,0:0:0:0:
296,156,797564,1,8,0:0:0:0:
324,92,797689,1,0,0:0:0:0:
188,92,797814,5,8,0:0:0:0:
216,156,797939,1,0,0:0:0:0:
216,228,798064,1,8,0:0:0:0:
188,292,798189,1,0,0:0:0:0:
140,236,798314,5,8,0:0:0:0:
216,228,798439,1,0,0:0:0:0:
296,228,798564,1,8,0:0:0:0:
372,236,798689,1,0,0:0:0:0:
372,148,798814,5,8,0:0:0:0:
296,156,798939,1,0,0:0:0:0:
216,156,799064,1,8,0:0:0:0:
140,148,799189,1,0,0:0:0:0:
88,100,799314,6,8,B|16:144,1,80,8|0,0:0|0:0,0:0:0:0:
19,242,799564,2,0,B|88:284,1,80,8|0,0:0|0:0,0:0:0:0:
139,335,799814,2,0,B|207:293,1,80,8|0,0:0|0:0,0:0:0:0:
207,90,800064,2,0,B|139:49,1,80,8|0,0:0|0:0,0:0:0:0:
304,90,800314,2,0,B|373:49,1,80,8|0,0:0|0:0,0:0:0:0:
304,293,800564,2,0,B|373:335,1,80,8|0,0:0|0:0,0:0:0:0:
424,284,800814,2,0,B|492:242,1,80,8|0,0:0|0:0,0:0:0:0:
424,100,801064,2,8,B|496:144,1,80,8|0,0:0|0:0,0:0:0:0:
440,192,801314,5,8,0:0:0:0:
384,240,801439,1,0,0:0:0:0:
312,240,801564,1,8,0:0:0:0:
256,192,801689,1,0,0:0:0:0:
200,144,801814,1,8,0:0:0:0:
128,144,801939,1,0,0:0:0:0:
72,192,802064,1,8,0:0:0:0:
128,240,802189,1,0,0:0:0:0:
200,240,802314,5,8,0:0:0:0:
256,192,802439,1,0,0:0:0:0:
312,144,802564,1,8,0:0:0:0:
384,144,802689,1,0,0:0:0:0:
440,192,802814,1,8,0:0:0:0:
384,240,802939,1,0,0:0:0:0:
312,240,803064,1,8,0:0:0:0:
256,192,803189,1,0,0:0:0:0:
200,144,803314,5,8,0:0:0:0:
128,144,803439,1,0,0:0:0:0:
72,192,803564,1,8,0:0:0:0:
128,240,803689,1,0,0:0:0:0:
200,240,803814,1,8,0:0:0:0:
256,192,803939,1,0,0:0:0:0:
312,144,804064,1,8,0:0:0:0:
384,144,804189,1,0,0:0:0:0:
440,192,804314,6,8,B|440:284,1,80,8|0,0:0|0:0,0:0:0:0:
324,272,804564,2,8,B|324:364,1,80,8|0,0:0|0:0,0:0:0:0:
188,272,804814,2,8,B|188:364,1,80,8|0,0:0|0:0,0:0:0:0:
72,192,805064,2,8,B|72:284,1,80,8|0,0:0|0:0,0:0:0:0:
40,112,805314,6,0,B|64:72,2,40,4|0|0,0:0|0:0|0:0,0:0:0:0:
108,136,805564,1,0,0:0:0:0:
176,116,805689,1,0,0:0:0:0:
212,52,805814,2,0,B|300:28,1,80,2|0,0:0|0:0,0:0:0:0:
388,160,806064,2,0,B|300:184,1,80,8|0,0:0|0:0,0:0:0:0:
268,116,806314,2,0,B|356:92,1,80,0|0,0:0|0:0,0:0:0:0:
444,224,806564,2,0,B|356:248,1,80,8|0,0:0|0:0,0:0:0:0:
296,244,806814,1,2,0:0:0:0:
228,268,806939,1,0,0:0:0:0:
168,312,807064,1,8,0:0:0:0:
136,376,807189,1,0,0:0:0:0:
92,320,807314,6,0,B|68:244,1,80,2|0,0:0|0:0,0:0:0:0:
67,140,807564,2,0,B|92:64,1,80,8|0,0:0|0:0,0:0:0:0:
168,132,807814,2,0,B|244:107,1,80,2|0,0:0|0:0,0:0:0:0:
244,276,808064,2,0,B|168:252,1,80,8|0,0:0|0:0,0:0:0:0:
296,56,808314,2,0,B|372:81,1,80,2|0,0:0|0:0,0:0:0:0:
372,304,808564,2,0,B|296:328,1,80,8|0,0:0|0:0,0:0:0:0:
384,156,808814,2,0,B|456:120,1,80,2|0,0:0|0:0,0:0:0:0:
456,264,809064,2,0,B|384:228,1,80,8|0,0:0|0:0,0:0:0:0:
316,252,809314,5,4,0:0:0:0:
280,256,809376,1,0,0:0:0:0:
252,280,809439,1,0,0:0:0:0:
188,316,809564,2,0,B|104:316,1,80,8|0,0:0|0:0,0:0:0:0:
108,68,809814,2,0,B|188:68,1,80,2|0,0:0|0:0,0:0:0:0:
252,104,810064,1,8,0:0:0:0:
280,128,810126,1,0,0:0:0:0:
316,132,810189,1,0,0:0:0:0:
308,60,810314,6,0,B|392:60,1,80,2|0,0:0|0:0,0:0:0:0:
472,140,810564,2,0,B|388:140,1,80,8|0,0:0|0:0,0:0:0:0:
392,244,810814,2,0,B|472:244,1,80,2|0,0:0|0:0,0:0:0:0:
388,324,811064,2,0,B|308:324,1,80,8|0,0:0|0:0,0:0:0:0:
240,352,811314,5,2,0:0:0:0:
240,352,811376,1,0,0:0:0:0:
240,352,811439,1,0,0:0:0:0:
176,320,811564,5,8,0:0:0:0:
176,320,811626,1,0,0:0:0:0:
176,320,811689,1,0,0:0:0:0:
144,256,811814,5,2,0:0:0:0:
144,256,811876,1,0,0:0:0:0:
144,256,811939,1,0,0:0:0:0:
148,184,812064,5,8,0:0:0:0:
148,184,812126,1,0,0:0:0:0:
148,184,812189,1,0,0:0:0:0:
192,124,812314,5,2,0:0:0:0:
192,124,812376,1,0,0:0:0:0:
192,124,812439,1,0,0:0:0:0:
263,119,812564,5,8,0:0:0:0:
263,119,812626,1,0,0:0:0:0:
263,119,812689,1,0,0:0:0:0:
323,159,812814,5,2,0:0:0:0:
323,159,812876,1,0,0:0:0:0:
323,159,812939,1,0,0:0:0:0:
355,223,813064,5,8,0:0:0:0:
355,223,813126,1,0,0:0:0:0:
355,223,813189,1,0,0:0:0:0:
356,296,813314,6,2,B|312:292|288:328,1,80,4|0,0:0|0:0,0:0:0:0:
360,92,813564,2,2,B|356:136|392:160,1,80,8|0,0:0|0:0,0:0:0:0:
156,88,813814,2,2,B|200:92|224:56,1,80,2|0,0:0|0:0,0:0:0:0:
152,292,814064,2,2,B|156:248|120:224,1,80,8|0,0:0|0:0,0:0:0:0:
388,248,814314,6,2,B|346:262|338:304,1,80,4|0,0:0|0:0,0:0:0:0:
312,59,814564,2,2,B|326:101|368:109,1,80,8|0,0:0|0:0,0:0:0:0:
123,135,814814,2,2,B|165:121|173:79,1,80,2|0,0:0|0:0,0:0:0:0:
199,324,815064,2,2,B|185:282|143:274,1,80,8|0,0:0|0:0,0:0:0:0:
388,248,815314,6,2,B|346:262|338:304,1,80,4|0,0:0|0:0,0:0:0:0:
312,59,815564,2,2,B|326:101|368:109,1,80,8|0,0:0|0:0,0:0:0:0:
123,135,815814,2,2,B|165:121|173:79,1,80,2|0,0:0|0:0,0:0:0:0:
199,324,816064,2,2,B|185:282|143:274,1,80,8|0,0:0|0:0,0:0:0:0:
400,192,816314,6,2,B|366:221|376:263,1,80,4|0,0:0|0:0,0:0:0:0:
256,47,816564,2,2,B|285:81|327:71,1,80,8|0,0:0|0:0,0:0:0:0:
111,191,816814,2,2,B|145:162|135:120,1,80,2|0,0:0|0:0,0:0:0:0:
255,336,817064,2,2,B|226:302|184:312,1,80,8|0,0:0|0:0,0:0:0:0:
312,123,817314,38,4,B|391:113|423:211|353:310|293:265|229:316|229:316|191:243|118:260|94:141|163:65|232:106,2,640,4|4|4,0:0|0:0|0:0,0:0:0:0:
256,192,819439,12,4,821314,0:0:0:0:
256,192,821564,12,2,830064,0:0:0:0:
356,40,846314,6,0,B|356:84|396:104,1,80,4|0,0:0|0:0,0:0:0:0:
428,40,846564,1,8,0:0:0:0:
416,172,846689,1,0,0:0:0:0:
388,240,846814,2,0,B|427:259|427:303,1,80,2|0,0:0|0:0,0:0:0:0:
356,308,847064,2,0,B|272:296|212:364,1,160,8|2,0:0|0:0,0:0:0:0:
148,332,847439,2,0,B|108:348,2,40,0|0|8,0:0|0:0|0:0,0:0:0:0:
192,272,847689,1,0,0:0:0:0:
152,212,847814,1,2,0:0:0:0:
80,200,847939,1,0,0:0:0:0:
16,232,848064,1,8,0:0:0:0:
204,40,848314,6,0,B|248:12,2,40,2|0|0,0:0|0:0|0:0,0:0:0:0:
224,108,848564,1,8,0:0:0:0:
296,120,848689,2,0,B|328:152|320:192,2,80,0|2|0,0:0|0:0|0:0,0:0:0:0:
348,68,849064,2,0,B|431:56|490:122,1,160,8|2,0:0|0:0,0:0:0:0:
448,180,849439,1,0,0:0:0:0:
444,216,849501,1,0,0:0:0:0:
440,252,849564,1,8,0:0:0:0:
372,280,849689,2,0,B|360:320|392:356,2,80,0|2|0,0:0|0:0|0:0,0:0:0:0:
300,268,850064,2,8,B|140:304,1,160,8|4,0:0|0:0,0:0:0:0:
80,272,850439,5,0,0:0:0:0:
52,248,850501,1,0,0:0:0:0:
44,212,850564,1,8,0:0:0:0:
68,144,850689,2,0,B|32:72,1,80,0|2,0:0|0:0,0:0:0:0:
140,136,850939,1,0,0:0:0:0:
208,108,851064,1,8,0:0:0:0:
256,56,851189,1,0,0:0:0:0:
276,124,851314,6,0,B|440:144,1,160,2|8,0:0|0:0,0:0:0:0:
486,92,851689,1,0,0:0:0:0:
352,204,851814,2,0,B|510:223,2,160,2|8|4,0:0|0:0|0:0,0:0:0:0:
292,248,852439,1,0,0:0:0:0:
280,280,852501,1,0,0:0:0:0:
292,316,852564,1,8,0:0:0:0:
360,340,852689,2,0,B|404:332|432:368,2,80,0|2|0,0:0|0:0|0:0,0:0:0:0:
232,360,853064,6,0,B|175:380|121:326|139:271,1,160,8|2,0:0|0:0,0:0:0:0:
80,228,853439,1,0,0:0:0:0:
64,196,853501,1,0,0:0:0:0:
48,164,853564,1,8,0:0:0:0:
36,92,853689,1,0,0:0:0:0:
80,36,853814,1,2,0:0:0:0:
152,20,853939,1,0,0:0:0:0:
216,48,854064,2,8,B|268:120,1,80
238,180,854314,6,0,B|294:200|348:146|330:91,1,160,4|0,0:0|0:0,0:0:0:0:
376,32,854689,1,0,0:0:0:0:
412,24,854751,1,0,0:0:0:0:
444,20,854814,1,8,0:0:0:0:
484,80,854939,2,0,B|516:116|504:160,1,80,0|2,0:0|0:0,0:0:0:0:
452,204,855189,1,0,0:0:0:0:
392,244,855314,2,0,B|331:247|303:318|341:361,1,160,4|0,0:0|0:0,0:0:0:0:
396,316,855689,1,0,0:0:0:0:
256,364,855814,2,0,B|232:312|252:240|288:216,2,160,2|0|4,0:0|0:0|0:0,0:0:0:0:
184,376,856439,5,0,0:0:0:0:
148,368,856501,1,0,0:0:0:0:
128,336,856564,1,8,0:0:0:0:
140,264,856689,2,0,B|140:172,2,80,0|2|0,0:0|0:0|0:0,0:0:0:0:
72,288,857064,2,0,B|4:237|9:148,1,160,8|2,0:0|0:0,0:0:0:0:
28,80,857439,1,0,0:0:0:0:
80,32,857564,1,8,0:0:0:0:
152,24,857689,1,0,0:0:0:0:
220,48,857814,1,2,0:0:0:0:
268,100,857939,1,0,0:0:0:0:
284,172,858064,1,8,0:0:0:0:
256,240,858189,1,0,0:0:0:0:
184,256,858314,6,0,B|138:292|154:367|212:381,1,160,4|8,0:0|0:0,0:0:0:0:
272,340,858689,1,0,0:0:0:0:
316,284,858814,1,2,0:0:0:0:
380,252,858939,1,0,0:0:0:0:
452,240,859064,2,0,B|496:240|512:284,1,80,8|0,0:0|0:0,0:0:0:0:
408,184,859314,2,0,B|340:133|345:44,1,160,2|8,0:0|0:0,0:0:0:0:
412,16,859689,2,0,B|492:12,2,80,0|2|0,0:0|0:0|0:0,0:0:0:0:
272,40,860064,2,0,B|220:12|157:56|167:115,1,160,8|4,0:0|0:0,0:0:0:0:
240,104,860439,5,0,0:0:0:0:
240,140,860501,1,0,0:0:0:0:
240,176,860564,1,8,0:0:0:0:
180,216,860689,2,0,B|100:216,2,80,0|2|0,0:0|0:0|0:0,0:0:0:0:
240,256,861064,2,0,B|267:307|223:370|164:360,1,160,8|4,0:0|0:0,0:0:0:0:
176,288,861439,1,0,0:0:0:0:
176,288,861501,1,0,0:0:0:0:
176,288,861564,1,8,0:0:0:0:
332,292,861689,1,0,0:0:0:0:
332,216,861814,2,0,B|412:216,2,80,0|2|0,0:0|0:0|0:0,0:0:0:0:
180,140,862189,1,0,0:0:0:0:
332,64,862314,1,4,0:0:0:0:
256,52,870314,5,2,0:0:0:0:
256,52,870439,1,0,0:0:0:0:
409,191,870814,5,8,0:0:0:0:
358,241,871064,1,0,0:0:0:0:
358,241,871189,1,8,0:0:0:0:
307,291,871439,1,0,0:0:0:0:
307,291,871564,1,8,0:0:0:0:
256,341,871814,1,8,0:0:0:0:
103,193,872314,5,8,0:0:0:0:
153,142,872564,1,0,0:0:0:0:
153,142,872689,1,0,0:0:0:0:
153,142,872814,1,8,0:0:0:0:
203,91,873064,1,0,0:0:0:0:
203,91,873189,1,2,0:0:0:0:
253,40,873439,1,2,0:0:0:0:
253,40,873564,1,0,0:0:0:0:
256,192,873814,5,0,0:0:0:0:
256,192,873939,1,0,0:0:0:0:
256,192,874064,1,0,0:0:0:0:
256,192,874189,1,0,0:0:0:0:
256,192,874314,1,8,0:0:0:0:
256,192,874439,12,4,878314,0:0:0:0:
80,192,883439,5,0,0:0:0:0:
96,120,883564,1,2,0:0:0:0:
148,72,883689,1,0,0:0:0:0:
220,56,883814,1,2,0:0:0:0:
292,56,883939,1,2,0:0:0:0:
364,72,884064,1,0,0:0:0:0:
416,120,884189,1,2,0:0:0:0:
432,192,884314,1,0,0:0:0:0:
416,264,884439,1,2,0:0:0:0:
364,312,884564,1,0,0:0:0:0:
256,192,885064,12,0,886064,0:0:0:0:
156,272,886314,6,4,B|108:276|92:316,1,80,4|0,0:0|0:0,0:0:0:0:
160,344,886564,1,8,0:0:0:0:
224,308,886689,1,0,0:0:0:0:
224,236,886814,2,0,B|196:188|140:196|140:196|80:220,1,160,2|8,0:0|0:0,0:0:0:0:
28,268,887189,1,0,0:0:0:0:
16,196,887314,6,0,B|40:124|40:124|124:100,1,160,2|0,0:0|0:0,0:0:0:0:
296,28,887689,2,0,B|272:100|272:100|188:124,1,160,2|0,0:0|0:0,0:0:0:0:
176,52,888064,1,8,0:0:0:0:
176,52,888189,1,0,0:0:0:0:
216,192,888314,5,4,0:0:0:0:
284,216,888439,1,0,0:0:0:0:
356,200,888564,1,8,0:0:0:0:
396,140,888689,1,0,0:0:0:0:
384,68,888814,2,0,B|452:20,2,80,2|0|8,0:0|0:0|0:0,0:0:0:0:
396,140,889189,1,0,0:0:0:0:
428,204,889314,6,0,B|424:252|384:276|348:272|348:272|308:296,1,160,2|0,0:0|0:0,0:0:0:0:
200,294,889689,2,0,B|164:272|164:272|128:276|88:252|84:204,1,160,2|0,0:0|0:0,0:0:0:0:
60,136,890064,1,8,0:0:0:0:
92,72,890189,1,0,0:0:0:0:
164,56,890314,6,0,B|252:28,2,80,2|0|8,0:0|0:0|0:0,0:0:0:0:
144,124,890689,1,0,0:0:0:0:
188,184,890814,2,0,B|240:212|303:168|293:109,1,160,2|8,0:0|0:0,0:0:0:0:
221,120,891189,1,0,0:0:0:0:
360,88,891314,2,0,B|408:68|408:68|468:72|492:128,1,160,2|0,0:0|0:0,0:0:0:0:
468,196,891689,2,0,B|420:216|420:216|360:212|336:156,1,160,2|0,0:0|0:0,0:0:0:0:
415,143,892064,1,8,0:0:0:0:
464,312,892314,6,4,B|392:344,1,80,4|0,0:0|0:0,0:0:0:0:
329,306,892564,2,4,B|257:338,1,80,8|0,0:0|0:0,0:0:0:0:
184,288,892814,2,4,B|257:255,1,80,8|0,0:0|0:0,0:0:0:0:
44,312,893064,2,4,B|117:279,1,80,8|0,0:0|0:0,0:0:0:0:
120,208,893314,5,4,0:0:0:0:
128,172,893376,1,0,0:0:0:0:
136,136,893439,1,0,0:0:0:0:
184,84,893564,1,0,0:0:0:0:
220,24,893689,1,0,0:0:0:0:
256,20,893751,1,0,0:0:0:0:
292,24,893814,1,4,0:0:0:0:
328,84,893939,1,0,0:0:0:0:
376,136,894064,1,8,0:0:0:0:
384,172,894126,1,0,0:0:0:0:
392,208,894189,1,0,0:0:0:0:
364,276,894314,6,0,B|384:320|432:312,2,80,4|0|8,0:0|0:0|0:0,0:0:0:0:
312,224,894689,1,0,0:0:0:0:
244,204,894814,1,2,0:0:0:0:
176,232,894939,1,0,0:0:0:0:
144,296,895064,1,8,0:0:0:0:
168,364,895189,1,0,0:0:0:0:
96,356,895314,6,0,B|28:316|28:316|4:276|28:240,1,160,4|0,0:0|0:0,0:0:0:0:
79,188,895689,2,0,B|103:151|79:111|79:111|11:71,1,160,4|0,0:0|0:0,0:0:0:0:
64,20,896064,2,0,B|136:60,1,80,8|0,0:0|0:0,0:0:0:0:
172,120,896314,5,2,0:0:0:0:
240,140,896439,1,0,0:0:0:0:
312,124,896564,1,8,0:0:0:0:
348,60,896689,1,0,0:0:0:0:
404,16,896814,2,0,B|488:16,2,80,2|0|8,0:0|0:0|0:0,0:0:0:0:
416,88,897189,1,0,0:0:0:0:
468,136,897314,6,0,B|468:296,1,160,2|0,0:0|0:0,0:0:0:0:
324,368,897689,2,0,B|324:208,1,160,2|0,0:0|0:0,0:0:0:0:
396,192,898064,1,8,0:0:0:0:
396,264,898189,1,0,0:0:0:0:
396,336,898314,6,0,B|416:376|460:376,2,80,2|0|8,0:0|0:0|0:0,0:0:0:0:
396,264,898689,1,0,0:0:0:0:
396,192,898814,2,0,B|232:192,1,160,2|8,0:0|0:0,0:0:0:0:
172,224,899189,1,0,0:0:0:0:
100,236,899314,2,0,B|72:288|116:351|175:341,1,160,2|0,0:0|0:0,0:0:0:0:
124,168,899689,2,0,B|152:116|108:53|49:63,1,160,2|0,0:0|0:0,0:0:0:0:
56,136,900064,1,8,0:0:0:0:
32,204,900189,1,0,0:0:0:0:
256,192,900314,12,4,902314,0:0:0:0:
188,144,917814,5,8,0:0:0:0:
208,260,917939,1,8,0:0:0:0:
324,240,918064,1,8,0:0:0:0:
304,124,918189,1,8,0:0:0:0:
372,40,918314,6,4,B|460:36|508:112,1,160,4|0,0:0|0:0,0:0:0:0:
464,168,918689,1,0,0:0:0:0:
448,236,918814,2,0,B|456:276|492:300,1,80,2|0,0:0|0:0,0:0:0:0:
444,356,919064,1,0,0:0:0:0:
380,320,919189,2,0,B|216:320,1,160,2|0,0:0|0:0,0:0:0:0:
148,308,919564,2,0,B|100:320,2,40,2|0|0,0:0|0:0|0:0,0:0:0:0:
192,248,919814,2,0,B|240:236,2,40,2|0|0,0:0|0:0|0:0,0:0:0:0:
124,220,920064,1,0,0:0:0:0:
104,152,920189,1,0,0:0:0:0:
124,84,920314,6,0,B|140:28|200:8|256:36,1,160,4|0,0:0|0:0,0:0:0:0:
220,100,920689,2,0,B|176:172,2,80,0|2|0,0:0|0:0|0:0,0:0:0:0:
292,100,921064,2,0,B|336:172,2,80,0|2|0,0:0|0:0|0:0,0:0:0:0:
257,35,921439,6,0,B|312:8|372:28|388:84,1,160,4|0,0:0|0:0,0:0:0:0:
432,140,921814,2,0,B|376:155|356:215|383:270,1,160,2|0,0:0|0:0,0:0:0:0:
452,296,922189,1,0,0:0:0:0:
328,316,922314,6,0,B|168:328,1,160,4|0,0:0|0:0,0:0:0:0:
104,296,922689,1,0,0:0:0:0:
112,224,922814,2,0,B|28:200,2,80,2|0|0,0:0|0:0|0:0,0:0:0:0:
163,172,923189,2,0,B|247:148,2,80,0|2|0,0:0|0:0|0:0,0:0:0:0:
104,132,923564,1,0,0:0:0:0:
116,60,923689,1,0,0:0:0:0:
176,24,923814,1,2,0:0:0:0:
248,32,923939,1,0,0:0:0:0:
292,88,924064,2,0,B|384:120,1,80
418,165,924314,6,0,B|475:145|529:199|511:254,1,160,8|2,0:0|0:0,0:0:0:0:
460,304,924689,1,0,0:0:0:0:
428,320,924751,1,0,0:0:0:0:
392,320,924814,1,2,0:0:0:0:
320,312,924939,2,0,B|272:312|256:352,2,80,0|2|0,0:0|0:0|0:0,0:0:0:0:
360,252,925314,1,8,0:0:0:0:
308,204,925439,1,0,0:0:0:0:
236,204,925564,1,2,0:0:0:0:
180,248,925689,1,0,0:0:0:0:
172,320,925814,5,8,0:0:0:0:
152,352,925876,1,0,0:0:0:0:
116,364,925939,1,0,0:0:0:0:
80,360,926001,1,0,0:0:0:0:
52,336,926064,1,0,0:0:0:0:
48,264,926189,1,0,0:0:0:0:
84,200,926314,6,0,B|108:116|40:52,1,160,4|0,0:0|0:0,0:0:0:0:
0,112,926689,1,0,0:0:0:0:
104,16,926814,2,0,B|188:-8|252:60,1,160,2|0,0:0|0:0,0:0:0:0:
264,132,927189,2,0,B|325:197|409:173,1,160,2|0,0:0|0:0,0:0:0:0:
452,116,927564,2,0,B|452:32,2,80,0|0|2,0:0|0:0|0:0,0:0:0:0:
428,248,927939,1,0,0:0:0:0:
396,312,928064,1,0,0:0:0:0:
328,332,928189,1,0,0:0:0:0:
264,300,928314,6,0,B|180:276|116:344,1,160,4|0,0:0|0:0,0:0:0:0:
48,324,928689,1,0,0:0:0:0:
28,256,928814,1,2,0:0:0:0:
60,192,928939,1,0,0:0:0:0:
128,172,929064,1,0,0:0:0:0:
104,20,929189,5,2,0:0:0:0:
168,52,929314,1,0,0:0:0:0:
188,120,929439,1,0,0:0:0:0:
352,276,929564,5,0,0:0:0:0:
284,296,929689,1,2,0:0:0:0:
220,264,929814,1,0,0:0:0:0:
200,196,929939,1,0,0:0:0:0:
260,152,930064,2,0,B|360:140,1,80
404,172,930314,6,0,B|444:127|416:56|358:51,1,160,4|0,0:0|0:0,0:0:0:0:
292,76,930689,1,0,0:0:0:0:
448,12,930814,1,2,0:0:0:0:
492,68,930939,1,0,0:0:0:0:
500,140,931064,1,0,0:0:0:0:
476,208,931189,1,0,0:0:0:0:
440,272,931314,1,0,0:0:0:0:
440,344,931439,2,0,B|472:372|516:364,2,80,0|2|0,0:0|0:0|0:0,0:0:0:0:
376,312,931814,1,0,0:0:0:0:
304,300,931939,1,0,0:0:0:0:
232,316,932064,1,0,0:0:0:0:
180,364,932189,1,0,0:0:0:0:
120,324,932314,6,0,B|40:176,2,160,4|0|2,0:0|0:0|0:0,0:0:0:0:
172,272,932939,1,0,0:0:0:0:
196,204,933064,1,0,0:0:0:0:
180,136,933189,1,0,0:0:0:0:
140,76,933314,6,0,B|-8:156,2,160,4|0|2,0:0|0:0|0:0,0:0:0:0:
204,44,933939,1,0,0:0:0:0:
276,40,934064,1,0,0:0:0:0:
328,88,934189,1,0,0:0:0:0:
328,160,934314,1,4,0:0:0:0:
432,348,934564,6,2,B|340:376|284:312,1,160,2|0,0:0|0:0,0:0:0:0:
220,344,934939,2,2,B|165:281|73:309,1,160,2|0,0:0|0:0,0:0:0:0:
22,360,935314,1,2,0:0:0:0:
76,228,935564,6,2,B|104:136|40:80,1,160,2|0,0:0|0:0,0:0:0:0:
93,30,935939,2,2,B|185:2|241:66,1,160,2|0,0:0|0:0,0:0:0:0:
280,124,936314,1,2,0:0:0:0:
352,124,936439,1,0,0:0:0:0:
408,76,936564,6,4,B|480:16,1,80,4|0,0:0|0:0,0:0:0:0:
424,148,936814,1,0,0:0:0:0:
488,184,936939,2,2,B|515:275|453:330,1,160,2|0,0:0|0:0,0:0:0:0:
380,328,937314,1,2,0:0:0:0:
332,276,937439,1,0,0:0:0:0:
260,264,937564,6,0,B|100:304,1,160,2|0,0:0|0:0,0:0:0:0:
68,240,937939,2,0,B|228:200,1,160,2|0,0:0|0:0,0:0:0:0:
248,132,938314,1,2,0:0:0:0:
224,64,938439,1,0,0:0:0:0:
164,108,938564,6,0,B|86:77|86:138|9:108,1,160,2|0,0:0|0:0,0:0:0:0:
9,35,938939,2,0,B|-21:112|39:112|9:189,1,160,2|0,0:0|0:0,0:0:0:0:
28,260,939314,1,2,0:0:0:0:
96,284,939439,1,0,0:0:0:0:
152,240,939564,6,0,B|210:244|238:315|198:360,1,160,4|0,0:0|0:0,0:0:0:0:
315,360,939939,2,0,B|274:315|302:244|360:240,1,160,2|0,0:0|0:0,0:0:0:0:
368,312,940314,1,2,0:0:0:0:
444,188,940564,6,0,B|420:148|360:124|304:160,1,160,2|0,0:0|0:0,0:0:0:0:
208,160,940939,2,0,B|152:124|92:148|68:188,1,160,2|0,0:0|0:0,0:0:0:0:
116,244,941314,1,2,0:0:0:0:
256,304,941439,1,0,0:0:0:0:
396,244,941564,1,2,0:0:0:0:
256,20,941814,5,0,0:0:0:0:
256,36,941876,1,0,0:0:0:0:
256,56,941939,1,0,0:0:0:0:
256,72,942001,1,0,0:0:0:0:
256,92,942064,1,2,0:0:0:0:
256,164,942189,1,2,0:0:0:0:
316,208,942314,6,4,B|372:188|424:240|404:300,1,160,4|8,0:0|0:0,0:0:0:0:
336,276,942689,2,0,B|300:296|300:296|300:336,2,80,0|2|0,0:0|0:0|0:0,0:0:0:0:
472,328,943064,2,0,B|492:280|480:216|447:176,1,160,8|2,0:0|0:0,0:0:0:0:
380,148,943439,1,0,0:0:0:0:
316,112,943564,1,8,0:0:0:0:
296,44,943689,1,0,0:0:0:0:
228,24,943814,6,0,B|140:20,1,80,2|0,0:0|0:0,0:0:0:0:
20,100,944064,2,0,B|108:96,1,80,8|0,0:0|0:0,0:0:0:0:
164,128,944314,1,4,0:0:0:0:
212,184,944439,1,0,0:0:0:0:
220,256,944564,1,8,0:0:0:0:
184,316,944689,1,0,0:0:0:0:
112,332,944814,1,2,0:0:0:0:
48,296,944939,1,0,0:0:0:0:
24,228,945064,1,8,0:0:0:0:
488,228,945314,5,4,0:0:0:0:
464,296,945439,1,0,0:0:0:0:
400,332,945564,1,8,0:0:0:0:
328,316,945689,1,0,0:0:0:0:
292,256,945814,1,2,0:0:0:0:
300,184,945939,1,0,0:0:0:0:
348,128,946064,1,8,0:0:0:0:
416,104,946189,1,0,0:0:0:0:
460,48,946314,6,4,B|300:28,1,160,4|8,0:0|0:0,0:0:0:0:
240,68,946689,1,0,0:0:0:0:
212,88,946751,1,0,0:0:0:0:
180,108,946814,1,2,0:0:0:0:
108,108,946939,2,0,B|64:88|72:44,2,80,0|8|0,0:0|0:0|0:0,0:0:0:0:
140,172,947314,2,0,B|176:212|172:280|112:304,1,160,2|8,0:0|0:0,0:0:0:0:
44,280,947689,1,0,0:0:0:0:
24,212,947814,1,2,0:0:0:0:
48,144,947939,1,0,0:0:0:0:
108,108,948064,1,8,0:0:0:0:
256,168,948314,5,4,0:0:0:0:
288,152,948376,1,0,0:0:0:0:
320,136,948439,1,0,0:0:0:0:
384,100,948564,2,0,B|396:56|364:24,2,80,8|0|2,0:0|0:0|0:0,0:0:0:0:
384,172,948939,1,0,0:0:0:0:
436,220,949064,2,0,B|400:260|404:328|464:352,1,160,8|2,0:0|0:0,0:0:0:0:
488,280,949439,2,0,B|512:244,2,40,0|0|2,0:0|0:0|0:0,0:0:0:0:
360,352,949689,5,0,0:0:0:0:
312,300,949814,1,2,0:0:0:0:
192,348,949939,1,0,0:0:0:0:
116,256,950064,1,8,0:0:0:0:
116,256,950189,1,8,0:0:0:0:
140,144,950314,6,4,B|148:88|104:36|44:48,1,160,4|8,0:0|0:0,0:0:0:0:
28,120,950689,1,0,0:0:0:0:
32,156,950751,1,0,0:0:0:0:
36,192,950814,2,0,B|24:272,2,80,2|0|8,0:0|0:0|0:0,0:0:0:0:
108,208,951189,1,0,0:0:0:0:
152,264,951314,2,0,B|120:308|152:356|152:356|216:356,1,160,2|8,0:0|0:0,0:0:0:0:
256,300,951689,1,0,0:0:0:0:
360,264,951814,2,0,B|392:308|360:356|360:356|296:356,1,160,2|8,0:0|0:0,0:0:0:0:
256,300,952189,1,0,0:0:0:0:
220,236,952314,5,4,0:0:0:0:
204,204,952376,1,0,0:0:0:0:
188,172,952439,1,0,0:0:0:0:
180,100,952564,1,8,0:0:0:0:
218,39,952689,2,8,B|255:17|292:39,1,80,0|2,0:0|0:0,0:0:0:0:
332,100,952939,1,0,0:0:0:0:
324,172,953064,1,8,0:0:0:0:
308,204,953126,1,0,0:0:0:0:
292,236,953189,1,0,0:0:0:0:
360,264,953314,6,0,B|448:264,2,80,0|0|8,0:0|0:0|0:0,0:0:0:0:
256,300,953689,1,0,0:0:0:0:
152,264,953814,2,0,B|64:264,2,80,2|0|8,0:0|0:0|0:0,0:0:0:0:
256,300,954189,1,0,0:0:0:0:
256,176,954314,6,0,B|256:12,1,160,4|8,0:0|0:0,0:0:0:0:
184,24,954689,1,0,0:0:0:0:
120,56,954814,2,0,B|72:120,1,80,2|0,0:0|0:0,0:0:0:0:
116,232,955064,2,0,B|164:168,1,80,8|0,0:0|0:0,0:0:0:0:
180,300,955314,2,0,B|256:256|332:300,1,160,2|8,0:0|0:0,0:0:0:0:
348,168,955689,2,0,B|396:232,1,80,0|2,0:0|0:0,0:0:0:0:
440,120,955939,2,0,B|392:56,1,80,0|8,0:0|0:0,0:0:0:0:
304,40,956189,1,0,0:0:0:0:
256,92,956314,6,0,B|172:104,1,80,4|0,0:0|0:0,0:0:0:0:
64,172,956564,2,0,B|148:184,1,80,8|0,0:0|0:0,0:0:0:0:
200,228,956814,1,2,0:0:0:0:
216,300,956939,1,0,0:0:0:0:
176,360,957064,1,8,0:0:0:0:
104,348,957189,1,0,0:0:0:0:
60,292,957314,5,4,0:0:0:0:
52,256,957376,1,0,0:0:0:0:
60,220,957439,1,0,0:0:0:0:
128,192,957564,1,8,0:0:0:0:
180,140,957689,5,0,0:0:0:0:
188,104,957751,1,0,0:0:0:0:
180,68,957814,1,0,0:0:0:0:
112,40,957939,1,8,0:0:0:0:
44,68,958064,1,8,0:0:0:0:
44,140,958189,1,0,0:0:0:0:
112,112,958314,1,4,0:0:0:0:
256,72,968064,5,0,0:0:0:0:
408,63,968314,6,2,B|448:47|517:88|521:164|470:231|366:203|366:203|287:306|307:378|390:378|422:306|343:243|299:211|256:231|256:231|212:211|168:243|89:306|121:378|204:378|224:306|145:203|145:203|41:231|-9:164|-5:88|63:47|103:63,1,1280
256,192,972376,12,0,974064,0:0:0:0:
292,296,974314,6,2,B|360:244|340:152,1,160
288,104,975064,1,0,0:0:0:0:
220,88,975314,2,2,B|152:140|172:232,1,160
224,280,976064,1,0,0:0:0:0:
292,296,976314,2,2,B|360:244|340:152,2,160,2|0|2,0:0|0:0|0:0,0:0:0:0:
256,192,977439,12,0,978314,0:0:0:0:
256,36,993439,5,0,0:0:0:0:
334,56,993564,1,2,0:0:0:0:
391,113,993689,1,0,0:0:0:0:
412,192,993814,1,2,0:0:0:0:
391,270,993939,1,0,0:0:0:0:
334,327,994064,1,0,0:0:0:0:
256,348,994189,1,0,0:0:0:0:
178,327,994314,1,8,0:0:0:0:
120,270,994439,1,0,0:0:0:0:
99,192,994564,1,0,0:0:0:0:
256,192,994689,12,0,996064,0:0:0:0:
288,288,996314,6,4,B|376:300|424:220,1,160,4|0,0:0|0:0,0:0:0:0:
396,156,996689,1,0,0:0:0:0:
420,88,996814,2,0,B|484:36,1,80,2|0,0:0|0:0,0:0:0:0:
344,100,997064,1,0,0:0:0:0:
320,168,997189,2,0,B|256:220,1,80,2|0,0:0|0:0,0:0:0:0:
212,272,997439,5,0,0:0:0:0:
184,292,997501,1,0,0:0:0:0:
156,312,997564,1,2,0:0:0:0:
92,276,997689,2,0,B|12:276,2,80,0|2|0,0:0|0:0|0:0,0:0:0:0:
140,220,998064,1,0,0:0:0:0:
136,148,998189,1,0,0:0:0:0:
92,92,998314,6,4,B|136:16|224:16,1,160,4|0,0:0|0:0,0:0:0:0:
276,64,998689,2,0,B|320:84|356:64,2,80,0|2|0,0:0|0:0|0:0,0:0:0:0:
232,120,999064,1,0,0:0:0:0:
228,192,999189,2,0,B|184:212|148:192,2,80,2|0|0,0:0|0:0|0:0,0:0:0:0:
296,168,999564,1,0,0:0:0:0:
364,192,999689,1,0,0:0:0:0:
408,248,999814,1,2,0:0:0:0:
412,320,999939,1,0,0:0:0:0:
360,372,1000064,2,0,B|272:372,1,80
216,336,1000314,6,4,B|172:256|83:267,1,160,4|0,0:0|0:0,0:0:0:0:
20,232,1000689,1,0,0:0:0:0:
20,196,1000751,1,0,0:0:0:0:
20,160,1000814,2,0,B|20:80,1,80,2|0,0:0|0:0,0:0:0:0:
128,28,1001064,1,0,0:0:0:0:
128,28,1001189,2,0,B|128:108,1,80,2|0,0:0|0:0,0:0:0:0:
228,160,1001439,1,0,0:0:0:0:
228,160,1001564,2,0,B|228:80,2,80,2|0|2,0:0|0:0|0:0,0:0:0:0:
284,204,1001939,1,0,0:0:0:0:
316,220,1002001,1,0,0:0:0:0:
352,216,1002064,1,0,0:0:0:0:
412,176,1002189,2,0,B|468:108,1,80,0|4,0:0|0:0,0:0:0:0:
328,64,1002564,5,0,0:0:0:0:
330,318,1002814,1,2,0:0:0:0:
109,193,1003064,1,2,0:0:0:0:
52,236,1003189,1,0,0:0:0:0:
52,308,1003314,1,0,0:0:0:0:
104,356,1003439,1,0,0:0:0:0:
176,344,1003564,2,0,B|232:272,1,80,2|0,0:0|0:0,0:0:0:0:
256,216,1003814,5,2,0:0:0:0:
272,184,1003876,1,0,0:0:0:0:
256,152,1003939,1,0,0:0:0:0:
236,120,1004001,1,0,0:0:0:0:
256,88,1004064,1,2,0:0:0:0:
308,40,1004189,1,0,0:0:0:0:
380,28,1004314,6,4,B|432:36|472:96|448:152,1,160,4|0,0:0|0:0,0:0:0:0:
392,196,1004689,2,0,B|352:168,2,40,0|0|2,0:0|0:0|0:0,0:0:0:0:
348,252,1004939,1,0,0:0:0:0:
348,252,1005064,1,0,0:0:0:0:
420,264,1005189,2,0,B|460:236,2,40,0|0|2,0:0|0:0|0:0,0:0:0:0:
464,320,1005439,1,0,0:0:0:0:
464,320,1005564,1,0,0:0:0:0:
396,340,1005689,2,0,B|316:340,1,80,0|2,0:0|0:0,0:0:0:0:
248,316,1005939,1,0,0:0:0:0:
208,256,1006064,1,0,0:0:0:0:
208,184,1006189,1,0,0:0:0:0:
264,136,1006314,6,0,B|420:80,1,160,4|0,0:0|0:0,0:0:0:0:
480,112,1006689,2,0,B|468:160|496:188,2,80,0|2|0,0:0|0:0|0:0,0:0:0:0:
392,12,1007064,1,0,0:0:0:0:
324,32,1007189,2,0,B|244:32,1,80,2|0,0:0|0:0,0:0:0:0:
188,76,1007439,1,0,0:0:0:0:
128,116,1007564,2,0,B|48:116,1,80,2|0,0:0|0:0,0:0:0:0:
48,268,1007814,2,0,B|128:268,1,80,2|0,0:0|0:0,0:0:0:0:
172,192,1008064,1,0,0:0:0:0:
256,280,1008189,1,0,0:0:0:0:
376,232,1008314,6,4,B|412:148|508:156,1,160,4|0,0:0|0:0,0:0:0:0:
504,84,1008689,2,0,B|452:20,1,80,0|2,0:0|0:0,0:0:0:0:
460,240,1008939,1,0,0:0:0:0:
460,240,1009064,2,0,B|512:304,1,80
472,364,1009314,1,2,0:0:0:0:
400,372,1009439,1,0,0:0:0:0:
340,332,1009564,5,2,0:0:0:0:
320,264,1009689,1,0,0:0:0:0:
207,275,1009814,5,2,0:0:0:0:
148,315,1009939,1,0,0:0:0:0:
105,128,1010064,5,2,0:0:0:0:
161,171,1010189,1,0,0:0:0:0:
246,96,1010314,5,2,0:0:0:0:
270,29,1010439,1,0,0:0:0:0:
415,155,1010564,5,8,0:0:0:0:
256,192,1010626,12,2,1012064,0:0:0:0:
320,52,1012314,6,4,B|348:84|392:76,1,80,4|0,0:0|0:0,0:0:0:0:
192,52,1012564,2,0,B|164:84|120:76,1,80,0|0,0:0|0:0,0:0:0:0:
108,148,1012814,2,0,B|184:184,1,80,4|0,0:0|0:0,0:0:0:0:
256,208,1013064,1,0,0:0:0:0:
404,148,1013189,2,0,B|331:182,1,80,4|0,0:0|0:0,0:0:0:0:
460,216,1013439,1,0,0:0:0:0:
376,268,1013564,5,4,0:0:0:0:
428,368,1013689,1,0,0:0:0:0:
316,368,1013814,1,2,0:0:0:0:
256,268,1013939,1,0,0:0:0:0:
196,368,1014064,1,0,0:0:0:0:
84,368,1014189,1,0,0:0:0:0:
136,268,1014314,6,0,B|152:220|112:156|49:167,1,160,4|0,0:0|0:0,0:0:0:0:
60,244,1014689,1,0,0:0:0:0:
52,84,1014814,6,4,B|128:56,1,80,4|0,0:0|0:0,0:0:0:0:
256,124,1015064,1,0,0:0:0:0:
460,84,1015189,2,4,B|384:56,1,80,4|0,0:0|0:0,0:0:0:0:
256,260,1015439,1,0,0:0:0:0:
172,184,1015564,6,0,B|100:144,1,80,4|0,0:0|0:0,0:0:0:0:
340,200,1015814,2,0,B|412:240,1,80,2|0,0:0|0:0,0:0:0:0:
332,304,1016064,1,8,0:0:0:0:
180,80,1016189,1,0,0:0:0:0:
256,28,1016314,6,4,B|304:-4|376:24|384:80,1,160,4|0,0:0|0:0,0:0:0:0:
332,128,1016689,1,0,0:0:0:0:
340,200,1016814,2,0,B|420:200,1,80,2|0,0:0|0:0,0:0:0:0:
256,192,1017064,1,0,0:0:0:0:
172,184,1017189,2,0,B|92:184,2,80,0|2|0,0:0|0:0|0:0,0:0:0:0:
208,260,1017564,1,8,0:0:0:0:
304,260,1017689,1,0,0:0:0:0:
376,324,1017814,2,0,B|296:340,1,80,2|0,0:0|0:0,0:0:0:0:
136,324,1018064,2,0,B|216:340,1,80,2|0,0:0|0:0,0:0:0:0:
128,248,1018314,6,0,B|88:232,2,40,4|0|0,0:0|0:0|0:0,0:0:0:0:
256,192,1018564,1,0,0:0:0:0:
384,248,1018689,2,0,B|424:232,2,40,4|0|0,0:0|0:0|0:0,0:0:0:0:
256,116,1018939,1,0,0:0:0:0:
148,28,1019064,6,4,B|100:100,1,80,4|0,0:0|0:0,0:0:0:0:
408,94,1019314,2,4,B|364:28,1,80,4|0,0:0|0:0,0:0:0:0:
20,116,1019564,2,4,B|64:182,1,80,4|0,0:0|0:0,0:0:0:0:
447,182,1019814,2,4,B|492:116,2,80
256,192,1020189,1,0,0:0:0:0:
96,264,1020314,6,4,B|84:324|148:368|204:340,1,160,4|0,0:0|0:0,0:0:0:0:
256,296,1020689,1,0,0:0:0:0:
308,244,1020814,2,4,B|388:268,1,80,4|0,0:0|0:0,0:0:0:0:
256,192,1021064,1,0,0:0:0:0:
204,140,1021189,2,4,B|124:116,1,80,4|0,0:0|0:0,0:0:0:0:
148,48,1021439,1,0,0:0:0:0:
220,64,1021564,2,0,B|304:44,1,80,2|0,0:0|0:0,0:0:0:0:
292,320,1021814,2,0,B|208:340,1,80,2|0,0:0|0:0,0:0:0:0:
384,156,1022064,2,0,B|404:240,1,80,2|0,0:0|0:0,0:0:0:0:
128,228,1022314,6,4,B|64:212|40:152|60:96,1,160,4|0,0:0|0:0,0:0:0:0:
112,56,1022689,2,0,B|192:44,2,80,0|2|0,0:0|0:0|0:0,0:0:0:0:
256,128,1023064,1,0,0:0:0:0:
400,56,1023189,2,0,B|320:44,2,80,2|0|2,0:0|0:0|0:0,0:0:0:0:
360,144,1023564,1,8,0:0:0:0:
349,258,1023689,1,0,0:0:0:0:
245,306,1023814,1,8,0:0:0:0:
152,240,1023939,1,0,0:0:0:0:
162,125,1024064,1,8,0:0:0:0:
266,77,1024189,1,0,0:0:0:0:
364,150,1024314,5,12,0:0:0:0:
364,150,1024376,1,0,0:0:0:0:
364,150,1024439,1,0,0:0:0:0:
297,299,1024564,1,0,0:0:0:0:
148,232,1024689,5,12,0:0:0:0:
148,232,1024751,1,0,0:0:0:0:
148,232,1024814,1,0,0:0:0:0:
215,83,1024939,1,0,0:0:0:0:
324,104,1025064,5,12,0:0:0:0:
344,260,1025189,1,0,0:0:0:0:
188,280,1025314,1,12,0:0:0:0:
168,124,1025439,1,0,0:0:0:0:
84,128,1025564,5,8,0:0:0:0:
184,200,1025689,1,8,0:0:0:0:
264,264,1025814,1,8,0:0:0:0:
192,364,1025939,1,8,0:0:0:0:
428,256,1026064,5,8,0:0:0:0:
328,184,1026189,1,8,0:0:0:0:
248,120,1026314,1,8,0:0:0:0:
320,20,1026439,1,8,0:0:0:0:
404,88,1026564,6,8,B|488:88,1,80
108,296,1026814,2,8,B|24:296,1,80
76,192,1027064,5,8,0:0:0:0:
80,163,1027126,1,0,0:0:0:0:
96,137,1027189,1,8,0:0:0:0:
118,118,1027251,1,0,0:0:0:0:
147,112,1027314,1,8,0:0:0:0:
176,112,1027376,1,0,0:0:0:0:
204,121,1027439,1,8,0:0:0:0:
227,140,1027501,1,0,0:0:0:0:
246,163,1027564,1,8,0:0:0:0:
256,192,1027626,1,0,0:0:0:0:
265,220,1027689,1,8,0:0:0:0:
284,243,1027751,1,0,0:0:0:0:
307,262,1027814,1,8,0:0:0:0:
336,272,1027876,1,0,0:0:0:0:
364,272,1027939,1,8,0:0:0:0:
393,265,1028001,1,0,0:0:0:0:
416,246,1028064,1,8,0:0:0:0:
432,220,1028126,1,0,0:0:0:0:
435,192,1028189,1,8,0:0:0:0:
