osu file format v9

[General]
AudioFilename: Renard - Banned Forever.mp3
AudioLeadIn: 1445
PreviewTime: 104646
Countdown: 0
SampleSet: Normal
StackLeniency: 0.7
Mode: 0
LetterboxInBreaks: 1

[Editor]
DistanceSpacing: 0.4
BeatDivisor: 4
GridSize: 8

[Metadata]
Title:Banned Forever
Artist:Renard
Creator:SUNAKE1192
Version:Insane
Source:
Tags:post traumatic stress disorder furry

[Difficulty]
HPDrainRate:7
CircleSize:4
OverallDifficulty:7
ApproachRate:8
SliderMultiplier:1.6
SliderTickRate:1

[Events]
//Background and Video events
0,0,"BG.png"
//Break Periods
2,8983,16760
2,26301,33669
2,39528,42942
2,74437,86033
2,91892,94760
2,118073,120942
2,139892,156396
//Storyboard Layer 0 (Background)
//Storyboard Layer 1 (Fail)
//Storyboard Layer 2 (Pass)
//Storyboard Layer 3 (Foreground)
//Storyboard Sound Samples
//Background Colour Transformations
3,100,255,255,255

[TimingPoints]
56,272.727272727273,4,1,0,30,1,0
17510,-100,4,1,1,60,0,0
25828,-100,4,2,0,70,0,0
34965,-100,4,1,1,75,0,0
35237,-100,4,2,0,70,0,0
43692,-100,4,1,1,60,0,0
52419,-100,4,1,1,60,0,1
60328,-100,4,2,0,80,0,1
60601,-100,4,1,1,60,0,1
74374,-100,4,2,0,70,0,0
86783,-100,4,2,0,20,0,0
87328,-100,4,1,1,75,0,0
87465,-100,4,2,0,70,0,0
95510,-100,4,2,0,20,0,0
96056,-100,4,2,0,70,0,0
104783,-100,4,1,1,60,0,1
139692,-100,4,1,1,60,0,0
157146,-100,4,2,0,70,0,0
174601,-100,4,1,1,60,0,1
182510,-100,4,2,0,80,0,1
182783,-100,4,1,1,60,0,1
208965,-50,4,1,1,60,0,1
209502,-100,4,1,1,60,0,0

[Colours]
Combo1 : 97,97,97
Combo2 : 240,137,98
Combo3 : 249,164,204
Combo4 : 187,181,181

[HitObjects]
80,192,56,1,0
160,192,192,1,0
240,192,328,2,0,B|280:152|352:152|384:192,1,160
384,272,737,2,0,B|424:288,2,40
312,304,1010,1,0
232,304,1146,2,0,B|232:344,2,40
152,280,1419,1,0
152,280,1556,1,0
112,208,1692,2,0,B|88:176|96:128,1,80
176,152,1965,2,0,B|160:120|176:72,1,80
248,104,2237,5,0
328,104,2374,2,0,B|352:64,4,40
392,152,2783,1,0
432,224,2919,2,0,B|480:232,2,40
424,304,3192,1,0
424,304,3328,2,0,B|344:304,1,80
264,304,3601,1,0
264,304,3737,2,0,B|216:296|192:248,1,80
152,192,4010,1,0
128,160,4078,1,0
120,120,4146,2,0,B|120:80|152:48,1,80
232,48,4419,5,0
304,88,4556,1,0
360,144,4692,2,0,B|392:176|392:224,1,80
400,296,4965,2,0,B|376:328|328:328,1,80
329,327,5237,1,0
248,328,5374,2,0,B|168:328|104:264,1,160
56,200,5783,2,0,B|48:112|112:56,1,160
192,56,6192,2,0,B|272:56,2,80
232,128,6601,5,0
312,128,6737,2,0,B|352:128,4,40
352,200,7146,1,0
352,280,7283,2,0,B|392:280,2,40
272,280,7556,1,0
192,280,7692,2,0,B|152:264|136:224,1,80
120,144,7965,2,0,B|120:96|152:64,1,80
224,64,8237,2,0,B|264:80,3,40
240,112,8510,2,0,B|240:152,3,40
200,144,8783,1,0
288,160,17510,6,0,B|336:112|336:112|424:72,1,160,8|0
224,224,17919,2,0,B|176:272|176:272|88:304,1,160,8|0
224,224,18328,1,8
416,320,18601,6,0,B|376:256|288:224,1,160,8|0
96,64,19010,2,0,B|136:128|224:160,1,160,8|0
221,158,19419,1,8
456,192,19692,5,8
64,192,19965,1,0
64,192,20101,1,8
456,192,20374,1,0
456,192,20510,1,8
64,192,20783,6,0,B|104:120|192:104,1,160,8|0
192,104,21192,2,0,B|208:104|208:104|216:96|216:96|224:112|224:112|232:96|232:96|240:112|240:112|248:96|248:96|256:112|256:112|264:96|264:96|272:112|272:112|280:96|280:96|288:112|288:112|296:96|296:96|304:112|304:112|312:104|312:104|328:104,1,240,8|0
448,320,21874,5,8
64,320,22283,1,8
256,48,22692,1,8
304,192,22965,2,0,B|304:120|304:120|336:136|368:120|384:104,1,160,8|0
208,191,23374,2,0,B|208:120|208:120|176:135|144:120|128:104,1,160,8|0
128,104,23783,1,8
288,328,24056,6,0,B|288:224|384:224,1,160,8|0
224,56,24465,2,0,B|224:160|128:159,1,160,8|0
224,56,24874,1,8
448,192,25146,6,0,B|280:192,1,160,8|0
288,192,25556,1,8
88,104,25828,1,4
32,192,25965,1,4
88,272,26101,1,4
120,272,34419,5,2
152,296,34488,1,2
192,304,34556,1,2
256,256,34692,2,0,B|264:256|264:256|272:248|272:248|280:264|280:264|288:248|288:248|296:264|296:264|304:248|304:248|312:264|312:264|320:248|320:248|328:264|328:264|336:248|336:248|344:256|344:256|352:256,1,160,0|8
424,112,35237,5,2
264,112,35510,1,0
264,112,35646,2,0,B|200:112|160:152|160:216,1,160,2|2
160,288,36056,1,0
240,288,36192,1,0
320,288,36328,2,0,B|376:232,1,80,2|0
408,144,36601,2,0,B|352:200,1,80
264,224,36874,2,0,B|320:168,1,80,2|0
344,88,37146,1,2
72,88,37419,5,2
72,320,37692,2,0,B|72:240,2,80,0|0|2
72,320,38101,2,0,B|232:320,1,160
312,320,38510,1,2
384,288,38646,1,0
440,232,38783,1,2
472,160,38919,1,0
472,80,39056,2,0,B|392:80,1,80,2|0
256,80,39328,1,4
144,184,43692,6,0,B|144:88|248:88,1,160,8|0
368,200,44101,2,0,B|367:296|264:296,1,160,8|0
256,192,44510,1,8
256,192,44646,1,0
176,192,44783,2,0,B|160:152|112:152|128:192|112:208|40:208,1,160,8|0
336,192,45192,2,0,B|352:232|400:232|384:192|400:176|472:176,1,160,8|0
256,192,45601,1,10
256,192,45737,1,2
256,112,45874,6,0,B|96:112,1,160,8|0
96,272,46283,2,0,B|256:272,1,160,8|0
256,192,46692,1,8
256,192,46828,1,0
336,192,46965,2,0,B|336:32,1,160,8|0
176,32,47374,2,0,B|176:192,1,160,8|0
256,192,47783,1,10
256,272,47919,1,2
256,352,48056,6,0,B|344:352|408:288,1,160,8|0
256,192,48465,2,0,B|168:192|104:256,1,160,8|0
256,272,48874,1,8
256,272,49010,1,0
256,272,49146,1,8
384,88,49419,1,0
384,88,49556,1,8
160,88,49828,1,0
160,88,49965,2,2,B|160:176,1,80,10|2
184,248,50237,6,0,B|256:304|336:248,1,160,8|0
328,104,50646,2,0,B|256:48|176:103,1,160,8|0
256,176,51056,1,10
256,176,51192,2,0,B|336:176,1,80,2|8
56,176,51601,1,8
56,176,51738,1,8
456,192,52419,5,8
408,128,52556,1,0
344,80,52692,2,0,B|304:56|256:56,1,80,2|8
184,64,52965,1,2
144,72,53033,1,0
112,96,53101,1,0
48,152,53237,2,0,B|32:192|48:240,1,80,10|0
80,304,53510,2,2,B|240:304,1,160,10|0
432,192,53919,2,2,B|272:192,1,160,10|0
192,192,54328,1,10
192,192,54465,1,0
192,112,54601,6,2,B|272:88|360:112,3,160,10|2|2|10
416,256,55692,1,8
392,288,55760,1,0
360,312,55828,1,2
280,328,55965,2,0,B|240:328|200:304,1,80,2|8
144,256,56237,1,2
144,256,56374,1,0
96,192,56510,1,10
96,192,56646,1,0
56,120,56783,6,2,B|112:64|208:64,2,160,10|2|2
201,64,57601,1,10
352,128,57874,2,0,B|432:104,1,80,10|0
384,200,58146,2,0,B|472:216,1,80,0|10
384,280,58419,1,0
312,320,58556,1,0
272,248,58692,1,10
200,288,58828,1,0
128,328,58965,6,2,B|64:264|64:184,3,160,10|2|2|10
72,104,59919,1,0
144,64,60056,1,10
304,64,60328,2,0,B|336:64,4,20,2|2|2|2|2
336,136,60601,2,0,B|376:160|384:208,1,80,2|0
400,272,60874,1,10
368,344,61010,1,0
320,280,61146,6,0,B|240:280,1,80,10|0
56,280,61419,2,0,B|136:280,1,80,2|8
320,216,61692,2,0,B|240:216,1,80,2|0
56,216,61965,2,0,B|136:216,1,80,10|0
320,144,62237,2,0,B|376:136,5,40,10|0|0|0|0|0
328,104,62646,2,0,B|360:72,5,40,10|0|0|0|0|0
320,56,63056,2,0,B|240:56,1,80,10|2
160,56,63328,5,10
160,328,63601,1,2
160,56,63874,1,2
160,328,64146,1,10
408,192,64419,2,2,B|168:192,1,240,10|10
120,128,64965,1,2
64,184,65101,1,0
120,240,65237,1,10
256,328,65510,5,10
256,56,65783,1,2
456,192,66056,1,2
456,192,66192,1,2
456,192,66328,2,0,B|392:128,1,80,8|2
344,80,66601,1,10
344,80,66737,1,0
344,80,66874,2,0,B|264:80,1,80,0|10
208,136,67146,1,0
208,136,67283,1,0
208,136,67419,2,0,B|152:192,1,80,10|0
96,256,67692,6,0,B|168:304|248:256,2,160,10|2|2
246,256,68510,1,10
408,256,68783,1,8
368,184,68919,1,0
304,128,69056,1,0
224,104,69192,1,8
144,96,69328,2,0,B|104:96,8,40,8|8|8|8|8|8|8|8|12
72,320,70146,5,2
152,320,70283,1,8
232,320,70419,1,0
440,64,70692,1,10
360,64,70828,1,0
280,64,70965,1,8
440,320,71237,2,0,B|440:240,2,80,2|8|0
72,64,71783,2,0,B|72:144,2,80,10|0|8
152,64,72192,5,0
152,64,72328,2,0,B|208:120,1,80,2|8
264,176,72601,1,0
264,176,72737,2,0,B|264:256,1,80,0|10
264,336,73010,2,0,B|360:336,1,80,0|8
400,280,73283,2,0,B|440:296,2,40,0|0|2
392,200,73556,2,0,B|432:184,2,40,8|0|2
376,120,73828,1,0
376,120,73896,1,0
376,120,73965,2,0,B|360:88|312:72,1,80,10|0
232,72,74237,1,12
88,88,86783,6,0,B|88:136,3,40
88,168,87056,2,0,B|88:208,3,40
88,248,87328,1,8
304,336,87601,1,0
272,128,87874,1,0
352,128,88010,1,2
352,208,88146,1,0
432,208,88283,2,0,B|432:280|400:312|336:312,1,160,2|0
338,311,88692,1,2
144,272,88965,5,0
80,224,89101,1,0
144,176,89237,1,2
80,128,89374,1,0
144,80,89510,2,0,B|224:64|304:80,1,160,2|2
424,192,90056,6,0,B|424:272,1,80
296,352,90328,2,0,B|296:272,1,80,2|0
296,112,90737,1,0
224,80,90874,1,2
144,80,91010,1,0
72,120,91146,2,0,B|40:152|40:192,1,80,2|0
112,216,91419,2,0,B|112:264|144:296,1,80,2|0
256,216,91692,1,6
440,288,95510,5,0
440,256,95578,1,0
440,224,95646,1,0
440,192,95715,1,0
440,160,95783,2,0,B|440:111,3,40
440,88,96056,5,0
248,88,96328,1,2
56,88,96601,1,2
104,152,96737,1,0
56,216,96874,1,0
104,280,97010,2,0,B|184:312|264:280,1,160,2|0
260,281,97419,1,2
456,280,97692,5,0
392,232,97828,1,0
440,168,97965,1,2
376,120,98101,2,0,B|304:80,1,80,0|2
306,81,98510,1,2
144,80,98783,2,0,B|208:144,1,80
257,193,99056,2,0,B|201:137,1,80,2|0
200,136,99465,5,0
136,184,99601,1,2
136,264,99737,1,0
192,320,99874,1,2
248,264,100010,1,0
304,320,100146,2,0,B|360:264,1,80,2|0
416,208,100419,6,0,B|416:112|312:112,1,160,0|2
416,208,100965,2,0,B|416:288,2,80,0|0|2
416,208,101374,1,0
256,208,101647,1,0
256,208,101783,1,2
160,336,102056,6,0,B|128:312|120:264,1,80
112,192,102328,2,0,B|112:152|144:112,1,80,2|0
200,64,102601,2,0,B|288:48|352:96,2,160,0|2|0
232,136,103283,1,0
264,208,103419,1,2
296,280,103556,1,0
256,192,103692,12,4,104510
256,192,104783,5,0
256,192,104919,1,0
256,192,105056,2,2,B|320:128|400:128,1,160,2|0
398,128,105465,1,2
400,288,105737,1,2
400,288,105874,2,0,B|376:320|328:320,1,80
304,320,106078,1,0
280,320,106146,1,2
200,304,106283,1,2
128,272,106419,2,0,B|88:248|80:208,1,80
160,200,106692,2,0,B|136:168|128:128,1,80,2|0
200,96,106965,6,0,B|256:40,1,80,2|0
200,96,107237,2,0,B|144:40,1,80,2|0
200,96,107510,2,2,B|200:144|224:168|248:168|264:184|264:240,1,160,2|0
424,240,108056,1,2
408,160,108192,2,0,B|448:144,2,40,0|0|2
360,96,108465,1,0
328,168,108601,2,2,B|272:168|256:184|256:208|240:224|184:224,1,160,2|2
184,223,109010,1,0
176,304,109146,6,0,B|136:296|112:256,1,80
72,192,109419,2,2,B|72:112|72:112|96:88|152:88,1,160,2|0
224,88,109828,2,2,B|296:88|296:88|320:112|384:112,1,160,2|2
432,168,110237,1,0
384,232,110374,2,0,B|424:248,2,40,0|0|2
320,280,110646,1,0
248,320,110783,2,0,B|208:336|168:320,1,80,2|0
104,280,111056,2,0,B|72:304,2,40,2|0|0
48,216,111328,5,2
104,152,111465,1,0
48,88,111601,2,0,B|80:56|128:64,1,80,2|0
200,64,111874,2,2,B|240:64|240:64|256:48|256:48|272:64|272:64|288:48|288:48|304:64|304:64|336:64,1,160,2|0
400,104,112283,1,0
376,184,112419,1,2
440,240,112556,2,0,B|480:240,2,40,0|0|2
376,296,112828,1,0
312,352,112965,2,2,B|272:352|248:328|192:328,1,120,2|0
168,328,113237,2,2,B|112:328|112:328|64:280|64:240,1,160,2|0
64,160,113646,5,0
128,104,113783,1,2
208,80,113919,2,0,B|248:64|288:80,1,80,0|0
360,112,114192,1,2
416,176,114328,2,0,B|448:208|448:248,1,80,0|2
392,304,114601,1,0
328,248,114737,2,0,B|304:216,2,40,0|0|2
264,304,115010,1,0
264,304,115146,2,2,B|232:272|232:232,1,80,2|0
192,304,115419,2,2,B|168:288|168:224,1,80,2|0
160,152,115692,6,0,B|104:96,1,80,2|0
160,152,115965,2,0,B|104:208,1,80,2|0
160,152,116237,2,2,B|216:96|256:136|304:88,1,160,2|0
424,192,116783,1,2
360,240,116919,2,0,B|400:272,2,40,0|0|2
288,280,117192,1,0
216,320,117328,2,2,B|192:296|192:296|160:296|160:264|160:264|136:240,1,120,2|0
112,216,117601,2,2,B|80:184|80:184|112:152|80:120|80:120|112:88,1,160,2|4
96,64,121692,5,8
120,64,121760,1,8
144,64,121828,1,8
168,64,121896,1,8
200,64,121965,2,8,B|240:64,4,40
280,64,122374,5,0
280,64,122510,2,2,B|296:80|296:80|312:80|312:80|328:96|328:96|344:96|344:96|360:112|360:112|376:112|376:112|392:128|392:128|408:128|408:128|416:136,1,160,2|0
432,144,122919,2,2,B|416:160|416:160|416:176|416:176|400:192|400:192|400:208|400:208|384:224|384:224|384:240|384:240|368:256|368:256|368:272|368:272|360:280,1,160,2|0
328,344,123328,1,2
280,280,123465,2,0,B|296:240,2,40,0|0|2
200,280,123737,1,0
144,224,123874,2,0,B|112:192|112:152,1,80,2|0
104,72,124146,2,0,B|64:72,2,40,2|0|0
184,72,124419,6,2,B|264:72,1,80,2|0
232,144,124692,2,2,B|312:144,1,80,2|0
344,72,124965,2,2,B|376:104|400:144|376:184|344:216,1,160,2|0
152,208,125510,1,2
208,264,125646,2,0,B|176:296,2,40,0|0|2
264,320,125919,1,0
344,320,126056,2,2,B|400:264,1,80,2|0
432,144,126328,2,2,B|376:200,1,80,2|0
320,144,126601,5,8
320,144,126737,1,0
320,144,126874,2,2,B|256:80|176:80,1,160,2|0
96,80,127283,2,2,B|32:144|32:224,1,160,2|2
80,288,127692,2,0,B|104:320|152:312,1,80
176,312,127896,1,0
208,312,127965,2,0,B|247:317|275:278,1,80,2|0
328,224,128237,1,2
376,160,128374,1,0
424,96,128510,2,0,B|464:120,2,40,2|0|0
344,88,128783,6,2,B|304:72|264:88,1,80,2|0
184,88,129056,2,2,B|144:72|104:88,1,80,2|0
144,160,129328,2,2,B|144:216|160:232|184:232|200:248|200:304,1,160,2|0
360,304,129874,2,0,B|360:224,1,80,2|0
360,208,130078,1,0
360,192,130146,1,2
360,112,130283,1,0
280,112,130419,2,2,B|200:112,1,80,2|0
232,184,130692,2,2,B|152:184,1,80,2|0
184,256,130965,6,0,B|104:256,2,80,0|0|2
184,336,131374,2,0,B|104:336,2,80,0|0|2
264,336,131783,1,0
264,336,131919,2,2,B|304:328|328:288,1,80,2|0
368,224,132192,2,0,B|400:248,2,40,0|0|2
392,144,132465,2,0,B|472:144,2,80,0|2|0
320,104,132874,2,0,B|352:72,2,40,2|0|0
296,184,133146,6,2,B|216:184,1,80,2|0
208,104,133419,2,2,B|128:104,1,80,2|0
48,104,133692,2,2,B|48:176|120:176|120:240,1,160,2|0
256,328,134237,2,2,B|304:336|336:312,1,80,2|0
344,304,134442,1,0
352,296,134510,1,2
408,240,134646,1,0
472,192,134783,1,0
256,192,135056,1,0
40,192,135328,6,0,B|40:112,2,80,0|0|2
80,264,135737,1,0
144,312,135874,1,0
224,328,136010,2,2,B|304:328,1,80,2|0
360,272,136283,1,2
408,208,136419,1,0
352,144,136556,2,0,B|384:112,2,40,0|0|2
304,208,136828,1,0
304,208,136965,2,2,B|224:208,1,80,2|0
176,144,137237,2,0,B|136:144,2,40,2|0|0
216,72,137510,6,0,B|256:72,7,40,2|2|2|2|2|2|2|2
296,72,138056,2,0,B|312:112|296:160,3,80
216,152,138601,2,0,B|176:152,7,40,2|2|2|2|2|2|2|2
136,152,139146,2,0,B|120:192|136:240,2,80
376,192,139692,1,12
88,104,157146,5,0
256,104,157419,1,0
416,104,157692,1,0
256,192,159328,1,0
368,304,159601,1,0
304,160,159874,1,0
320,320,160146,1,0
48,104,160692,2,0,B|128:64|208:104,1,160,2|0
272,144,161101,1,0
336,192,161237,1,0
456,312,161510,2,0,B|377:359|305:311,2,160
72,80,163692,5,0
136,224,163965,1,0
200,80,164237,1,0
264,224,164510,1,0
440,320,165056,2,0,B|464:320,4,20,2|2|2|2|2
400,248,165328,2,0,B|368:176,1,80
448,176,165601,2,0,B|448:96,1,80
368,96,165874,5,0
208,96,166146,1,0
48,96,166419,1,0
392,224,168056,2,0,B|304:240|288:336,1,160
120,160,168601,2,0,B|208:144|224:48,1,160
256,192,169419,1,2
176,336,169692,1,0
256,336,169828,1,0
336,336,169965,1,0
400,192,170237,5,0
256,56,170510,1,0
112,192,170783,1,0
256,192,172419,12,4,173919
56,192,174601,5,8
104,256,174738,1,0
168,303,174874,2,0,B|208:328|256:328,1,80,2|8
328,320,175147,1,2
368,312,175215,1,0
400,288,175283,1,0
464,232,175419,2,0,B|480:191|464:144,1,80,10|0
431,80,175692,2,2,B|272:80,1,160,10|0
80,192,176101,2,2,B|240:192,1,160,10|0
320,192,176510,1,10
320,192,176647,1,0
320,272,176783,6,2,B|240:296|152:272,3,160,10|2|2|10
64,152,177874,1,8
80,120,177942,1,0
112,96,178010,1,0
192,72,178146,1,2
272,96,178283,2,2,B|311:56|375:56|415:95,1,160,10|2
456,160,178692,1,10
456,160,178828,1,0
464,240,178965,6,2,B|408:296|312:295,2,160,10|2|2
319,296,179783,1,10
160,328,180056,2,2,B|112:280|160:232|104:176,1,160,10|0
32,184,180465,2,2,B|32:136|64:96|120:96|152:120,1,160,10|0
144,114,180806,1,0
144,114,180874,1,10
224,88,181010,1,2
304,72,181147,6,2,B|367:136|368:216,3,160,10|2|2|10
432,264,182101,1,0
368,328,182238,1,10
208,320,182510,2,0,B|176:320,4,20,2|2|2|2|2
176,247,182783,2,0,B|136:223|128:176,1,80,2|0
112,112,183056,1,10
144,40,183192,1,0
192,104,183328,6,0,B|256:168,1,80,10|0
376,288,183601,2,0,B|320:232,1,80,2|8
192,288,183874,2,0,B|248:232,1,80,2|0
376,104,184147,2,0,B|320:160,1,80,10|0
248,192,184419,2,2,B|200:144|96:144,1,160,10|0
32,192,184828,2,2,B|32:272|96:336,1,160,10|0
176,336,185238,2,0,B|256:336,1,80,10|2
336,336,185510,5,10
336,64,185783,1,2
336,336,186056,1,2
336,64,186328,1,10
120,192,186601,2,2,B|256:192|256:256|160:256|160:192|296:192,1,240,10|10
344,248,187147,1,2
400,192,187283,1,0
344,136,187419,1,10
208,40,187692,5,10
208,344,187965,1,2
56,192,188238,1,2
56,192,188374,1,0
56,192,188510,2,0,B|56:272,1,80,10|2
128,304,188783,2,0,B|168:304,5,40,8|0|0|0|0|0
160,256,189192,2,0,B|192:224,5,40,8|0|0|0|0|0
144,200,189601,1,10
120,120,189737,1,2
200,112,189874,6,0,B|278:64|350:112,2,160,10|2|2
350,112,190692,1,10
424,256,190965,1,8
346,278,191101,1,0
261,272,191238,1,0
187,234,191374,1,8
125,182,191510,2,0,B|96:153,7,40,8|8|8|8|8|8|8|8
72,128,192056,6,2,B|128:72|176:120|224:72,1,160,10|10
296,112,192465,1,0
360,160,192601,1,8
416,216,192737,2,2,B|360:272|312:224|264:272,1,160,2|2
136,176,193283,2,0,B|168:176|184:160|216:160,1,80,0|10
344,64,193692,5,8
408,112,193828,1,0
432,144,193896,1,0
440,184,193965,2,0,B|440:224|424:240|424:272,1,80,10|0
424,262,194237,2,0,B|424:328|424:328|400:352|368:352|336:320,1,160,10|10
340,324,194646,1,0
264,320,194783,6,0,B|240:296|216:296|192:272,1,80,8|0
120,264,195056,2,2,B|120:224|96:224|96:184,1,80,10|0
240,80,195465,1,0
320,80,195601,1,10
400,80,195737,1,0
400,160,195874,2,0,B|440:160,3,40,10|0|0|0
400,160,196146,2,2,B|368:160|368:192|328:192,1,80,10|0
256,152,196419,6,2,B|184:152|184:208|104:208,1,160,10|10
38,240,196828,2,0,B|70:240|70:208|112:208,1,80
77,137,197101,2,0,B|77:169|109:169|109:209,1,80,2|8
108,207,197374,2,0,B|160:256|192:224|256:288,1,160,2|0
312,328,197783,1,10
77,137,198056,5,8
144,88,198192,1,0
224,96,198328,2,2,B|224:136|248:136|248:176,1,80,10|0
304,224,198601,2,2,B|344:184|408:184|448:224,2,160,10|10|8
376,272,199283,2,0,B|376:352,2,80,0|10|0
216,304,199828,6,0,B|136:304,2,80,0|10|0
176,232,200237,1,0
168,216,200306,1,0
160,200,200374,1,0
152,184,200442,1,0
144,168,200510,2,0,B|104:88,1,80
108,96,200783,2,2,B|164:96|196:128|268:128,2,160,2|2|0
108,96,201465,2,2,B|68:136|68:184|12:240,1,160
216,296,202010,1,0
216,296,202146,1,2
376,296,202419,5,0
376,216,202556,1,0
376,136,202692,2,2,B|360:112|336:112|312:88,1,80,2|0
240,56,202965,2,2,B|240:120|176:120|176:200,2,160,2|2|0
160,56,203646,2,0,B|80:56,2,80,0|2|0
160,216,204192,5,0
160,216,204260,1,0
160,216,204328,1,2
160,216,204465,1,0
160,296,204601,2,2,B|240:296,1,80,2|0
240,216,204874,2,2,B|320:216,1,80,2|0
400,216,205146,6,8,B|400:176|376:176|376:136,3,80
312,96,205692,2,8,B|272:96|272:120|232:120,3,80
200,192,206237,2,8,B|200:232|224:232|224:272,3,80
288,312,206783,2,8,B|328:312|328:288|368:288,3,80
400,216,207328,6,8,B|400:176|376:176|376:136,1,80
368,64,207601,2,8,B|328:64|328:88|288:88,1,80
216,120,207874,2,8,B|216:160|192:160|192:200,1,80
192,272,208146,2,8,B|232:272|232:248|272:248,1,80
312,184,208419,6,8,B|312:144,7,40
312,184,208965,2,0,B|312:224,13,40
312,184,209510,5,12
