osu file format v12

[General]
AudioFilename: Renard + Darius - The End.mp3
AudioLeadIn: 0
PreviewTime: 139844
Countdown: 0
SampleSet: None
StackLeniency: 0.7
Mode: 0
LetterboxInBreaks: 1
WidescreenStoryboard: 0

[Editor]
Bookmarks: 55844
DistanceSpacing: 1
BeatDivisor: 4
GridSize: 8

[Metadata]
Title:The End
TitleUnicode:The End
Artist:Renard + Darius
ArtistUnicode:Renard + Darius
Creator:Damnjelly
Version:The end
Source:LapfoxTrax
Tags:Renard Darius Lapfox
BeatmapID:333243
BeatmapSetID:132538

[Difficulty]
HPDrainRate:7
CircleSize:4
OverallDifficulty:8
ApproachRate:9
SliderMultiplier:2
SliderTickRate:2

[Events]
//Background and Video events
0,0,"BG.jpg",0,0
//Break Periods
2,59275,88013
2,199582,228321
2,285198,292244
//Storyboard Layer 0 (Background)
//Storyboard Layer 1 (Fail)
//Storyboard Layer 2 (Pass)
//Storyboard Layer 3 (Foreground)
//Storyboard Sound Samples
//Background Colour Transformations
3,100,163,162,255

[TimingPoints]
29536,461.538461538462,4,1,1,30,1,0
29537,-50,4,1,1,50,0,0
44537,-50,4,1,1,40,0,1
47997,-50,4,1,1,50,0,0
55612,-50,4,1,1,40,0,1
59074,-50,4,1,1,20,0,0
108574,-50,4,1,1,50,0,0
199382,-50,4,1,1,20,0,0
228920,-50,4,2,1,30,0,0
292843,-50,4,1,1,50,0,0

[Colours]
Combo1 : 0,102,102
Combo2 : 1,254,147
Combo3 : 0,232,232

[HitObjects]
256,192,25844,12,2,29537,0:0:0:0:
256,192,29652,1,0,0:0:0:0:
256,192,29767,1,0,0:0:0:0:
256,192,29883,1,8,0:0:0:0:
56,336,30229,2,8,P|96:240|200:288,1,200,2|0,0:0|0:0,0:0:0:0:
264,296,30575,1,0,0:0:0:0:
352,248,30690,1,8,0:0:0:0:
384,152,30806,1,0,0:0:0:0:
352,56,30921,6,8,P|256:112|256:192,2,200,2|0|0,0:0|0:0|0:0,0:0:0:0:
328,256,31613,2,8,P|288:112|128:216,2,400,0|0|10,0:0|0:0|0:0,0:0:0:0:
128,216,32767,1,10,0:0:0:0:
96,312,32883,1,0,0:0:0:0:
192,288,32998,2,8,P|288:328|328:256,1,200
312,160,33344,1,0,0:0:0:0:
240,88,33460,1,8,0:0:0:0:
144,80,33575,1,2,0:0:0:0:
16,352,33921,5,10,0:0:0:0:
32,152,34152,1,8,0:0:0:0:
56,248,34267,2,0,P|192:144|312:160,1,300,0|10,0:0|0:0,0:0:0:0:
392,216,34729,1,0,0:0:0:0:
376,312,34844,1,8,0:0:0:0:
280,280,34960,1,0,0:0:0:0:
184,312,35075,2,8,P|136:224|56:248,2,200,8|8|10,0:0|0:0|0:0,0:0:0:0:
280,280,35652,1,0,0:0:0:0:
376,312,35767,1,8,0:0:0:0:
392,216,35883,2,8,P|360:96|216:128,1,300,0|2,0:0|0:0,0:0:0:0:
304,176,36344,2,8,P|160:207|128:87,1,300,0|2,0:0|0:0,0:0:0:0:
216,136,36806,5,0,0:0:0:0:
216,136,36921,1,8,0:0:0:0:
304,176,37037,1,0,0:0:0:0:
304,176,37152,1,10,0:0:0:0:
440,328,37383,1,10,0:0:0:0:
248,280,37613,1,10,0:0:0:0:
392,136,37844,1,10,0:0:0:0:
344,328,38075,2,0,P|264:176|144:304,2,400,2|2|0,0:0|0:0|0:0,0:0:0:0:
144,296,39229,2,0,P|176:168|408:80,2,400,0|0|10,0:0|0:0|0:0,0:0:0:0:
224,240,40267,1,0,0:0:0:0:
320,224,40383,1,8,0:0:0:0:
408,272,40498,1,0,0:0:0:0:
496,224,40613,6,8,P|400:144|408:80,3,200
407,80,41537,1,8,0:0:0:0:
320,128,41652,1,0,0:0:0:0:
256,56,41767,1,8,0:0:0:0:
192,128,41883,1,0,0:0:0:0:
104,80,41998,2,8,P|112:144|16:224,2,200,10|8|8,0:0|0:0|0:0,0:0:0:0:
176,264,42690,2,0,P|464:240|192:128,1,800,0|2,0:0|0:0,0:0:0:0:
192,127,43844,1,2,0:0:0:0:
448,256,44537,6,0,P|408:216|392:176,1,100,2|0,0:0|0:0,0:0:0:0:
336,96,44767,2,0,P|376:136|392:176,1,100,2|0,0:0|0:0,0:0:0:0:
256,320,44998,2,0,L|256:384,2,50,0|0|0,0:0|0:0|0:0,0:0:0:0:
64,256,45229,6,0,P|104:216|120:176,1,100,2|0,0:0|0:0,0:0:0:0:
176,96,45459,2,0,P|136:136|120:176,1,100,2|0,0:0|0:0,0:0:0:0:
256,32,45690,2,0,L|256:-24,2,50
256,336,45921,6,0,L|256:236,1,100,2|0,0:0|0:0,0:0:0:0:
256,136,46152,2,0,L|256:236,1,100,2|0,0:0|0:0,0:0:0:0:
96,352,46383,6,0,P|184:272|16:136,1,400,2|10,0:0|0:0,0:0:0:0:
72,216,46960,1,0,0:0:0:0:
160,256,47075,1,8,0:0:0:0:
256,232,47190,1,0,0:0:0:0:
352,256,47306,1,8,0:0:0:0:
440,216,47421,1,0,0:0:0:0:
494,135,47536,2,0,P|328:272|416:352,1,400,10|0,0:0|0:0,0:0:0:0:
320,344,48113,5,8,0:0:0:0:
256,272,48229,1,8,0:0:0:0:
192,192,48344,2,0,P|288:176|136:128,1,500,8|2,0:0|0:0,0:0:0:0:
232,104,49037,2,0,P|424:184|256:272,1,500,0|8,0:0|0:0,0:0:0:0:
296,176,49729,1,0,0:0:0:0:
232,104,49844,1,8,0:0:0:0:
192,192,49960,1,0,0:0:0:0:
256,272,50075,2,0,P|216:328|112:152,1,400,10|0,0:0|0:0,0:0:0:0:
192,192,50652,2,0,P|416:128|360:328,1,500,0|10,0:0|0:0,0:0:0:0:
296,328,51344,5,0,0:0:0:0:
200,304,51460,1,8,0:0:0:0:
128,240,51575,1,0,0:0:0:0:
112,144,51690,2,8,P|232:112|200:304,2,400,8|8|10,0:0|0:0|0:0,0:0:0:0:
192,200,52729,1,0,0:0:0:0:
288,232,52844,1,8,0:0:0:0:
384,200,52960,1,0,0:0:0:0:
464,144,53075,2,0,P|384:96|296:152,1,200,2|0,0:0|0:0,0:0:0:0:
192,312,53537,2,0,P|112:360|24:304,1,200,2|0,0:0|0:0,0:0:0:0:
16,208,53883,1,8,0:0:0:0:
64,120,53998,1,8,0:0:0:0:
160,104,54113,2,0,P|248:152|192:312,1,300,0|8,0:0|0:0,0:0:0:0:
120,248,54575,2,0,P|272:184|384:248,1,300,0|8,0:0|0:0,0:0:0:0:
380,244,55152,1,0,0:0:0:0:
380,244,55383,1,10,0:0:0:0:
456,56,55613,6,0,P|416:96|376:96,1,100,2|0,0:0|0:0,0:0:0:0:
296,136,55844,2,0,P|336:96|376:96,1,100,2|0,0:0|0:0,0:0:0:0:
256,256,56075,2,0,L|256:312|256:304,2,50
136,96,56306,6,0,P|176:96|216:136,1,100,2|0,0:0|0:0,0:0:0:0:
136,96,56537,2,0,P|96:96|56:56,1,100,2|0,0:0|0:0,0:0:0:0:
256,64,56767,2,0,L|256:128,2,50
160,232,56997,6,0,P|216:216|256:224,1,100,2|0,0:0|0:0,0:0:0:0:
352,232,57228,2,0,P|296:216|256:224,1,100,2|0,0:0|0:0,0:0:0:0:
472,72,57460,1,8,0:0:0:0:
384,112,57575,1,0,0:0:0:0:
304,48,57690,1,8,0:0:0:0:
208,48,57805,1,8,0:0:0:0:
128,112,57920,1,0,0:0:0:0:
40,72,58035,1,8,0:0:0:0:
56,200,58152,6,8,P|40:288|256:272,1,400,0|0,0:0|0:0,0:0:0:0:
152,264,58729,1,8,0:0:0:0:
224,200,58844,1,8,0:0:0:0:
304,136,58960,1,8,0:0:0:0:
376,64,59075,1,12,0:0:0:0:
152,192,88613,6,0,P|232:280|264:88,1,400,2|0,0:0|0:0,0:0:0:0:
152,192,89306,2,0,P|128:296|360:280,1,400
392,120,89998,1,8,0:0:0:0:
304,160,90113,1,0,0:0:0:0:
216,200,90229,1,8,0:0:0:0:
384,304,90460,6,0,P|448:136|304:160,1,400,2|0,0:0|0:0,0:0:0:0:
104,168,91152,2,0,P|200:24|304:160,1,400
208,336,91844,1,8,0:0:0:0:
480,40,92306,6,0,P|336:184|232:64,1,400,2|0,0:0|0:0,0:0:0:0:
120,240,92998,2,0,P|48:104|240:88,1,400
304,144,93575,1,0,0:0:0:0:
360,224,93690,1,8,0:0:0:0:
304,304,93806,1,0,0:0:0:0:
208,296,93921,1,8,0:0:0:0:
160,104,94152,6,0,P|264:248|480:280,1,400,2|0,0:0|0:0,0:0:0:0:
368,112,94844,2,0,P|264:256|48:288,1,400
54,289,95537,1,8,0:0:0:0:
54,289,95652,1,0,0:0:0:0:
54,289,95767,1,8,0:0:0:0:
448,208,95998,6,0,P|320:304|272:128,1,400,2|0,0:0|0:0,0:0:0:0:
448,208,96690,2,0,P|304:56|128:96,1,400
134,90,97383,1,8,0:0:0:0:
464,320,97844,6,0,P|272:296|208:112,1,400,2|0,0:0|0:0,0:0:0:0:
256,32,98421,1,0,0:0:0:0:
305,120,98537,2,0,P|240:296|48:320,1,400
32,224,99113,1,0,0:0:0:0:
104,152,99229,1,8,0:0:0:0:
200,120,99344,1,0,0:0:0:0:
304,120,99460,1,8,0:0:0:0:
432,304,99690,6,0,P|256:224|64:280,1,400,2|0,0:0|0:0,0:0:0:0:
40,80,100383,2,0,P|176:120|64:280,1,400
264,256,101075,2,0,P|208:64|40:80,1,400
64,280,101767,2,0,P|56:216|264:256,1,400
464,296,102460,1,8,0:0:0:0:
408,216,102575,1,0,0:0:0:0:
352,136,102690,1,8,0:0:0:0:
296,56,102806,1,0,0:0:0:0:
256,144,102921,2,0,P|256:272|112:144,2,400,0|2|0,0:0|0:0|0:0,0:0:0:0:
408,272,104075,6,0,P|336:336|256:144,1,400
256,143,104767,1,8,0:0:0:0:
160,104,104883,1,0,0:0:0:0:
64,72,104998,1,8,0:0:0:0:
120,264,105229,2,0,P|256:304|448:160,1,400,2|0,0:0|0:0,0:0:0:0:
256,224,105921,2,0,P|240:128|448:160,1,400
447,157,106613,1,8,0:0:0:0:
56,80,107075,6,0,P|56:224|256:192,1,400,2|0,0:0|0:0,0:0:0:0:
424,104,107767,2,0,P|408:272|256:192,1,400
256,193,108460,1,8,0:0:0:0:
256,192,108575,12,2,110766,0:0:0:0:
256,192,110883,5,0,0:0:0:0:
256,192,110998,1,0,0:0:0:0:
256,192,111113,1,8,0:0:0:0:
16,368,111460,6,8,P|104:304|64:192,1,200,0|0,0:0|0:0,0:0:0:0:
160,152,111806,1,0,0:0:0:0:
256,120,111921,1,0,0:0:0:0:
352,144,112037,1,0,0:0:0:0:
440,192,112152,2,8,P|424:72|360:56,1,200,0|0,0:0|0:0,0:0:0:0:
352,144,112498,1,8,0:0:0:0:
256,120,112613,1,8,0:0:0:0:
160,152,112729,1,8,0:0:0:0:
72,192,112844,2,8,P|88:72|152:56,1,200,8|10,0:0|0:0,0:0:0:0:
272,216,113306,6,0,P|64:256|72:192,1,400,2|8,0:0|0:0,0:0:0:0:
176,200,113883,1,0,0:0:0:0:
272,216,113998,1,8,0:0:0:0:
368,208,114113,1,0,0:0:0:0:
464,224,114229,2,0,P|416:128|328:112,1,200,0|0,0:0|0:0,0:0:0:0:
368,208,114575,2,0,P|320:304|232:320,1,200,0|0,0:0|0:0,0:0:0:0:
272,216,114921,2,0,P|224:120|136:104,1,200,0|0,0:0|0:0,0:0:0:0:
176,200,115267,1,0,0:0:0:0:
200,296,115383,2,8,P|448:312|464:224,1,400,0|0,0:0|0:0,0:0:0:0:
416,136,115960,5,0,0:0:0:0:
320,160,116075,1,8,0:0:0:0:
256,80,116190,1,0,0:0:0:0:
192,160,116306,1,8,0:0:0:0:
96,136,116421,1,0,0:0:0:0:
48,224,116537,6,0,P|64:312|312:296,1,400,8|0,0:0|0:0,0:0:0:0:
256,216,117113,1,0,0:0:0:0:
192,136,117229,1,8,0:0:0:0:
208,40,117344,1,0,0:0:0:0:
304,40,117460,1,8,0:0:0:0:
320,136,117575,1,0,0:0:0:0:
256,216,117690,2,0,B|168:272|336:320|256:384,1,200,10|10,0:0|0:0,0:0:0:0:
72,296,118152,5,8,0:0:0:0:
152,240,118267,1,0,0:0:0:0:
240,192,118383,1,8,0:0:0:0:
320,136,118498,2,0,P|432:200|336:288,1,300,0|8,0:0|0:0,0:0:0:0:
280,368,118960,2,0,P|200:208|240:192,1,300
320,136,119421,1,0,0:0:0:0:
232,96,119537,1,2,0:0:0:0:
144,144,119652,1,2,0:0:0:0:
112,48,119767,2,8,P|152:248|240:192,2,400,2|0|0,0:0|0:0|0:0,0:0:0:0:
152,136,120806,5,0,0:0:0:0:
240,192,120921,1,10,0:0:0:0:
328,136,121037,1,0,0:0:0:0:
392,208,121152,1,8,0:0:0:0:
424,112,121267,2,0,P|304:64|240:192,1,300
328,240,121729,2,0,P|280:64|160:64,1,300
96,88,122190,2,0,P|216:136|280:8,1,300
384,176,122767,5,0,0:0:0:0:
296,232,122883,1,8,0:0:0:0:
208,288,122998,1,0,0:0:0:0:
128,232,123112,1,0,0:0:0:0:
192,160,123228,2,0,P|272:144|384:176,1,200,8|0,0:0|0:0,0:0:0:0:
368,272,123575,1,0,0:0:0:0:
296,336,123690,1,8,0:0:0:0:
208,288,123806,1,0,0:0:0:0:
112,320,123921,2,0,P|112:32|208:288,1,800,8|0,0:0|0:0,0:0:0:0:
96,120,125075,5,8,0:0:0:0:
168,192,125190,1,0,0:0:0:0:
208,288,125306,1,8,0:0:0:0:
304,288,125421,1,0,0:0:0:0:
344,192,125537,1,10,0:0:0:0:
416,120,125652,1,0,0:0:0:0:
328,80,125767,2,0,P|256:112|200:112,1,100,8|0,0:0|0:0,0:0:0:0:
192,24,125998,2,0,P|152:144|288:192,1,300,8|0,0:0|0:0,0:0:0:0:
232,112,126460,5,0,0:0:0:0:
232,112,126575,1,0,0:0:0:0:
328,80,126690,2,0,P|416:224|288:192,1,400,0|8,0:0|0:0,0:0:0:0:
232,112,127267,1,0,0:0:0:0:
152,56,127383,1,8,0:0:0:0:
72,120,127498,1,0,0:0:0:0:
104,216,127613,1,8,0:0:0:0:
208,216,127729,1,0,0:0:0:0:
216,312,127844,2,0,P|360:240|232:112,1,400,8|8,0:0|0:0,0:0:0:0:
264,208,128421,2,8,P|368:272|304:80,1,500,0|8,0:0|0:0,0:0:0:0:
224,120,129113,1,0,0:0:0:0:
160,192,129229,1,8,0:0:0:0:
224,272,129344,1,0,0:0:0:0:
136,328,129460,2,0,P|264:352|304:208,2,300,8|0|8,0:0|0:0|0:0,0:0:0:0:
224,272,130267,2,8,P|267:134|395:158,1,300,0|0,0:0|0:0,0:0:0:0:
424,64,130729,5,0,0:0:0:0:
344,128,130844,1,8,0:0:0:0:
256,88,130960,1,0,0:0:0:0:
168,136,131075,1,8,0:0:0:0:
96,64,131190,2,0,P|96:208|232:216,1,300,0|8,0:0|0:0,0:0:0:0:
168,136,131652,2,0,P|288:144|296:304,1,300,0|8,0:0|0:0,0:0:0:0:
208,320,132113,5,0,0:0:0:0:
112,288,132229,1,8,0:0:0:0:
128,192,132344,1,0,0:0:0:0:
112,96,132460,1,10,0:0:0:0:
208,64,132576,1,0,0:0:0:0:
304,64,132690,1,10,0:0:0:0:
400,96,132806,1,0,0:0:0:0:
384,192,132922,1,10,0:0:0:0:
400,288,133037,1,0,0:0:0:0:
304,320,133153,1,8,0:0:0:0:
256,232,133267,6,0,P|184:168|304:64,1,300,0|8,0:0|0:0,0:0:0:0:
304,168,133729,2,0,P|168:136|128:264,1,300,0|8,0:0|0:0,0:0:0:0:
208,320,134190,1,0,0:0:0:0:
304,320,134306,1,8,0:0:0:0:
400,288,134421,1,0,0:0:0:0:
432,192,134537,2,0,P|296:200|392:48,1,400,8|8,0:0|0:0,0:0:0:0:
352,136,135113,2,0,P|224:224|160:88,1,300,0|8,0:0|0:0,0:0:0:0:
240,176,135575,1,0,0:0:0:0:
336,216,135690,2,0,P|368:296|176:256,1,400,8|8,0:0|0:0,0:0:0:0:
272,296,136267,2,0,P|74:282|80:328,1,300
88,184,136729,5,2,0:0:0:0:
184,152,136844,1,8,0:0:0:0:
280,120,136960,1,0,0:0:0:0:
376,88,137075,2,0,P|304:176|496:240,2,400,8|0|0,0:0|0:0|0:0,0:0:0:0:
400,184,138113,2,0,P|296:248|176:128,1,300
264,192,138575,1,0,0:0:0:0:
344,256,138690,1,0,0:0:0:0:
416,328,138806,2,0,P|512:240|400:184,1,300
400,183,139383,1,2,0:0:0:0:
40,352,139844,6,0,P|168:344|56:176,1,400
176,200,140421,1,0,0:0:0:0:
272,232,140537,1,0,0:0:0:0:
368,264,140652,2,0,P|296:168|408:48,1,300
200,64,141229,1,0,0:0:0:0:
128,128,141344,1,0,0:0:0:0:
56,192,141460,1,0,0:0:0:0:
208,320,141690,6,0,P|304:312|280:72,1,400
272,176,142267,2,0,P|344:232|464:96,1,300
368,136,142729,2,0,P|368:256|216:256,1,300
176,168,143190,1,0,0:0:0:0:
104,104,143306,1,0,0:0:0:0:
72,200,143421,1,0,0:0:0:0:
152,256,143537,2,0,P|224:328|320:328,2,200
248,256,144113,5,0,0:0:0:0:
344,216,144229,1,0,0:0:0:0:
440,232,144344,2,0,P|384:144|480:64,2,250
344,272,145037,2,0,P|360:136|488:192,1,300
280,160,145613,1,0,0:0:0:0:
249,256,145729,1,0,0:0:0:0:
149,256,145844,1,0,0:0:0:0:
118,160,145960,1,0,0:0:0:0:
199,102,146075,1,0,0:0:0:0:
280,160,146190,1,0,0:0:0:0:
40,344,146537,5,0,0:0:0:0:
240,360,146767,5,0,0:0:0:0:
336,320,146883,1,0,0:0:0:0:
424,272,146998,2,0,P|352:208|408:144,1,200
488,208,147344,2,0,P|480:304|424:272,1,200
376,184,147690,1,0,0:0:0:0:
296,128,147806,1,0,0:0:0:0:
256,40,147921,1,0,0:0:0:0:
216,128,148037,1,0,0:0:0:0:
136,184,148153,1,0,0:0:0:0:
88,96,148267,2,0,P|32:248|128:312,1,300
328,288,148844,5,0,0:0:0:0:
216,128,149075,1,0,0:0:0:0:
136,184,149190,2,0,P|216:256|296:128,1,300
384,168,149652,2,0,P|304:248|216:128,1,300
304,80,150113,2,0,P|200:40|136:184,1,300
136,184,150690,5,0,0:0:0:0:
136,184,150921,5,0,0:0:0:0:
136,184,151152,1,0,0:0:0:0:
136,184,151383,5,0,0:0:0:0:
168,280,151498,1,0,0:0:0:0:
256,232,151613,1,0,0:0:0:0:
344,280,151729,1,0,0:0:0:0:
376,184,151844,1,0,0:0:0:0:
376,184,152075,5,0,0:0:0:0:
376,184,152306,5,0,0:0:0:0:
376,184,152537,5,0,0:0:0:0:
376,184,152767,5,0,0:0:0:0:
376,184,152998,6,0,P|240:192|320:24,1,400
296,120,153575,1,0,0:0:0:0:
256,216,153690,1,0,0:0:0:0:
152,232,153806,1,0,0:0:0:0:
56,248,153921,2,0,P|56:168|168:160,1,200
200,56,154267,5,0,0:0:0:0:
157,150,154383,1,0,0:0:0:0:
360,152,154613,1,0,0:0:0:0:
317,58,154729,1,0,0:0:0:0:
400,240,154960,5,0,0:0:0:0:
320,304,155075,1,0,0:0:0:0:
256,232,155190,1,0,0:0:0:0:
192,304,155306,1,0,0:0:0:0:
112,240,155421,1,0,0:0:0:0:
56,160,155537,6,0,P|112:72|200:56,1,200
160,152,155883,2,0,P|216:240|304:256,1,200
272,160,156229,2,0,P|328:72|416:56,1,200
376,152,156575,5,0,0:0:0:0:
336,240,156690,1,0,0:0:0:0:
256,296,156806,1,0,0:0:0:0:
160,296,156921,2,0,P|104:256|152:152,2,200
208,208,157498,1,0,0:0:0:0:
256,120,157613,1,0,0:0:0:0:
304,208,157729,1,0,0:0:0:0:
352,296,157844,2,0,P|408:256|360:152,2,200
152,288,158537,5,0,0:0:0:0:
256,120,158767,6,0,P|304:64|400:248,1,400
352,160,159344,2,0,P|320:208|160:112,1,300
352,160,159921,1,0,0:0:0:0:
208,296,160152,1,0,0:0:0:0:
352,160,160383,6,0,P|272:184|368:88,1,400
168,112,161075,1,0,0:0:0:0:
88,176,161190,1,0,0:0:0:0:
16,240,161306,1,0,0:0:0:0:
208,296,161537,2,0,P|176:224|336:184,1,300
304,280,161998,2,0,P|376:272|336:184,1,200
256,120,162344,1,0,0:0:0:0:
288,24,162460,1,0,0:0:0:0:
376,80,162575,1,0,0:0:0:0:
352,176,162690,1,0,0:0:0:0:
168,256,162921,5,0,0:0:0:0:
56,88,163152,1,0,0:0:0:0:
256,120,163383,1,0,0:0:0:0:
56,88,163613,6,0,P|128:192|256:120,1,300
152,112,164075,2,0,P|120:176|288:256,1,300
216,184,164537,2,0,P|288:160|376:248,1,200
448,48,164998,1,0,0:0:0:0:
256,104,165229,1,0,0:0:0:0:
64,48,165460,1,0,0:0:0:0:
80,248,165690,6,0,P|176:264|216:184,1,200
256,280,166037,1,0,0:0:0:0:
296,184,166152,2,0,P|336:264|432:248,1,200
400,48,166613,5,0,0:0:0:0:
256,192,166844,1,0,0:0:0:0:
112,48,167075,1,0,0:0:0:0:
304,104,167306,1,0,0:0:0:0:
208,104,167537,1,0,0:0:0:0:
40,208,167767,5,0,0:0:0:0:
80,304,167883,1,0,0:0:0:0:
176,272,167998,1,0,0:0:0:0:
256,328,168113,1,0,0:0:0:0:
336,272,168229,1,0,0:0:0:0:
432,304,168344,1,0,0:0:0:0:
472,208,168460,1,0,0:0:0:0:
352,48,168690,5,0,0:0:0:0:
256,224,168921,1,0,0:0:0:0:
160,48,169152,1,0,0:0:0:0:
152,248,169383,2,0,P|216:112|360:240,1,400
304,320,169960,2,0,P|280:264|152:248,1,200
448,176,170537,5,0,0:0:0:0:
264,104,170767,5,0,0:0:0:0:
176,152,170883,1,0,0:0:0:0:
152,248,170998,1,0,0:0:0:0:
192,336,171113,2,0,P|256:352|328:256,1,200
376,344,171460,2,0,P|376:240|328:256,2,200
272,344,172037,5,0,0:0:0:0:
176,312,172152,1,0,0:0:0:0:
120,232,172267,1,0,0:0:0:0:
104,136,172383,1,0,0:0:0:0:
144,48,172498,2,0,P|152:232|120:232,1,300
104,136,172960,2,0,P|144:128|176:312,1,300
120,232,173421,2,0,P|208:192|272:344,1,300
432,224,173998,5,0,0:0:0:0:
256,136,174229,1,0,0:0:0:0:
80,224,174460,1,0,0:0:0:0:
256,312,174690,1,0,0:0:0:0:
400,176,174921,1,0,0:0:0:0:
256,40,175152,1,0,0:0:0:0:
112,176,175383,1,0,0:0:0:0:
152,368,175613,5,0,0:0:0:0:
168,272,175729,1,0,0:0:0:0:
256,312,175844,1,0,0:0:0:0:
344,272,175960,1,0,0:3:0:0:
360,368,176076,1,0,0:3:0:0:
400,176,176306,5,0,0:0:0:0:
256,40,176537,1,0,0:0:0:0:
112,176,176767,1,0,0:0:0:0:
256,312,176998,1,0,0:0:0:0:
320,120,177229,6,0,P|248:224|200:112,2,300
256,40,178037,1,0,0:0:0:0:
160,16,178152,1,0,0:0:0:0:
72,72,178267,1,0,0:0:0:0:
32,168,178383,1,0,0:0:0:0:
72,264,178498,2,0,P|160:336|224:296,1,200
280,216,178844,2,0,P|232:152|256:40,1,200
312,120,179190,2,0,P|152:160|72:72,1,300
160,248,179767,5,0,0:0:0:0:
312,120,179998,1,0,0:0:0:0:
160,248,180229,1,0,0:0:0:0:
312,120,180460,1,0,0:0:0:0:
216,152,180575,2,0,P|304:208|400:72,2,300
160,72,181383,5,0,0:0:0:0:
120,160,181498,1,0,0:0:0:0:
80,248,181613,2,0,P|96:272|216:152,2,300
120,160,182421,1,0,0:0:0:0:
216,152,182537,1,0,0:0:0:0:
312,144,182652,1,0,0:0:0:0:
408,136,182767,6,0,P|336:208|464:304,2,300
336,64,183575,2,0,P|256:184|408:136,1,400
312,144,184152,1,0,0:0:0:0:
216,112,184267,1,0,0:0:0:0:
120,152,184383,1,0,0:0:0:0:
24,120,184498,1,0,0:0:0:0:
40,216,184613,6,0,P|32:296|192:256,2,300
120,152,185421,1,0,0:0:0:0:
216,112,185537,1,0,0:0:0:0:
312,144,185652,1,0,0:0:0:0:
352,56,185767,6,0,P|408:152|368:224,1,200
312,144,186113,2,0,P|256:240|296:312,1,200
224,240,186460,2,0,P|112:216|48:264,1,200
144,304,186806,2,0,P|144:184|312:224,1,300
432,328,187383,5,0,0:0:0:0:
256,32,187612,1,0,0:0:0:0:
80,328,187843,1,0,0:0:0:0:
432,128,188074,1,0,0:0:0:0:
80,128,188305,1,0,0:0:0:0:
256,232,188536,1,0,0:0:0:0:
256,232,188767,6,0,P|288:40|256:32,1,300
256,136,189229,2,0,P|368:208|424:184,1,200
256,304,189690,5,0,0:0:0:0:
144,136,189921,1,0,0:0:0:0:
368,136,190152,1,0,0:0:0:0:
192,40,190383,1,0,0:0:0:0:
320,40,190613,1,0,0:0:0:0:
400,224,190844,5,0,0:0:0:0:
352,312,190960,1,0,0:0:0:0:
256,296,191075,1,0,0:0:0:0:
160,312,191190,1,0,0:0:0:0:
112,224,191306,1,0,0:0:0:0:
192,40,191537,6,0,P|176:104|80:40,1,200
320,40,191998,2,0,P|336:104|432:40,1,200
352,312,192460,2,0,P|288:176|160:312,1,400
256,136,193152,5,0,0:0:0:0:
456,112,193383,1,0,0:0:0:0:
320,256,193613,1,0,0:0:0:0:
192,256,193844,1,0,0:0:0:0:
56,112,194075,1,0,0:0:0:0:
256,136,194306,1,0,0:0:0:0:
352,312,194537,1,0,0:0:0:0:
160,312,194767,1,0,0:0:0:0:
312,184,194998,2,0,P|240:64|200:184,1,300
216,248,195460,2,0,P|280:336|352:312,1,200
472,152,195921,5,0,0:0:0:0:
320,24,196152,1,0,0:0:0:0:
256,216,196383,1,0,0:0:0:0:
192,24,196613,1,0,0:0:0:0:
40,152,196844,1,0,0:0:0:0:
152,320,197075,1,0,0:0:0:0:
360,320,197306,5,0,0:0:0:0:
328,224,197421,1,0,0:0:0:0:
256,288,197537,1,0,0:0:0:0:
184,224,197652,1,0,0:0:0:0:
152,320,197767,1,0,0:0:0:0:
256,152,197998,5,0,0:0:0:0:
432,48,198229,1,0,0:0:0:0:
256,152,198460,1,0,0:0:0:0:
80,48,198690,1,0,0:0:0:0:
256,152,198921,5,0,0:0:0:0:
256,152,199037,1,0,0:0:0:0:
256,248,199152,1,0,0:0:0:0:
256,248,199267,1,0,0:0:0:0:
256,344,199382,1,4,0:0:0:0:
80,104,228921,5,0,0:0:0:0:
152,168,229037,1,0,0:0:0:0:
224,232,229152,2,0,P|312:304|344:112,1,400,0|0,0:0|0:0,0:0:0:0:
320,208,229729,5,0,0:0:0:0:
352,114,229844,1,0,0:0:0:0:
256,136,229960,1,0,0:0:0:0:
224,232,230075,6,0,P|152:296|80:104,1,400
128,192,230652,1,0,0:0:0:0:
80,104,230767,1,0,0:0:0:0:
176,120,230883,1,0,0:0:0:0:
256,64,230998,1,0,0:0:0:0:
336,120,231113,1,0,0:0:0:0:
432,104,231229,1,0,0:0:0:0:
384,192,231344,1,0,0:0:0:0:
288,232,231460,2,0,P|360:296|432:104,1,400
336,120,232037,5,0,0:0:0:0:
312,24,232152,1,0,0:0:0:0:
200,24,232267,1,0,0:0:0:0:
176,120,232383,1,0,0:0:0:0:
80,104,232498,6,0,P|32:192|88:264,1,200
144,344,232844,2,0,P|192:256|136:184,1,200
200,264,233190,1,0,0:0:0:0:
256,176,233306,1,0,0:0:0:0:
312,264,233421,1,0,0:0:0:0:
370,342,233537,2,0,P|322:254|376:184,1,200
432,104,233883,2,0,P|480:192|426:262,2,200
336,144,234460,5,0,0:0:0:0:
256,80,234575,1,0,0:0:0:0:
176,144,234690,1,0,0:0:0:0:
80,104,234806,6,0,P|32:192|85:262,1,200
168,320,235152,2,0,P|256:360|344:320,1,200
256,272,235497,1,0,0:0:0:0:
168,224,235612,2,0,P|256:184|344:224,1,200
426,262,235960,2,0,P|480:192|432:104,1,200
376,184,236306,2,0,P|336:112|256:176,1,200
136,184,236652,2,0,P|176:112|256:176,1,200
256,264,236998,1,0,0:0:0:0:
256,64,237229,5,0,0:0:0:0:
200,152,237344,1,0,0:0:0:0:
312,152,237460,1,0,0:0:0:0:
408,128,237575,2,0,P|472:200|408:256,1,200
408,360,237921,5,0,0:0:0:0:
328,296,238037,1,0,0:0:0:0:
256,360,238152,1,0,0:0:0:0:
184,296,238267,1,0,0:0:0:0:
104,360,238383,1,0,0:0:0:0:
102,255,238498,6,0,P|40:200|104:128,1,200
184,192,238844,1,0,0:0:0:0:
280,160,238960,1,0,0:0:0:0:
376,128,239075,1,0,0:0:0:0:
472,96,239190,1,0,0:0:0:0:
456,192,239306,6,0,P|424:272|328:208,1,200
280,160,239652,2,0,P|208:104|104:184,1,200
200,224,239998,2,0,P|296:232|280:160,1,200
184,120,240344,2,0,P|280:56|352:88,1,200
400,168,240690,5,0,0:0:0:0:
400,272,240806,1,0,0:0:0:0:
312,320,240921,1,0,0:0:0:0:
256,232,241037,1,0,0:0:0:0:
200,320,241152,1,0,0:0:0:0:
112,272,241267,1,0,0:0:0:0:
112,168,241383,1,0,0:0:0:0:
162,85,241498,6,0,P|232:56|328:120,1,200
424,104,241844,2,0,P|320:128|272:208,1,200
176,184,242190,2,0,P|280:208|328:288,1,200
424,264,242537,2,0,P|320:288|272:368,1,200
128,224,242998,5,0,0:0:0:0:
128,128,243113,1,0,0:0:0:0:
200,56,243229,1,0,0:0:0:0:
256,144,243344,1,0,0:0:0:0:
312,56,243460,1,0,0:0:0:0:
384,128,243576,1,0,0:0:0:0:
384,224,243690,6,0,P|320:232|312:352,1,200
304,248,244037,2,0,P|216:280|176:192,1,200
88,144,244383,2,0,P|176:112|264:160,2,200
32,224,244960,5,0,0:0:0:0:
112,280,245075,1,0,0:0:0:0:
160,192,245190,1,0,0:0:0:0:
208,280,245306,1,0,0:0:0:0:
304,280,245421,1,0,0:0:0:0:
352,192,245537,1,0,0:0:0:0:
400,280,245652,1,0,0:0:0:0:
480,224,245767,1,0,0:0:0:0:
448,128,245883,6,0,P|448:72|328:72,1,200
256,136,246229,2,0,P|272:248|208:280,3,200
152,192,247037,2,0,P|240:208|336:304,1,200
360,184,247383,2,0,P|272:168|176:72,1,200
288,88,247729,2,0,P|216:192|152:192,1,200
152,192,248075,1,0,0:0:0:0:
320,304,248306,1,0,0:0:0:0:
120,320,248537,5,0,0:0:0:0:
96,224,248652,1,0,0:0:0:0:
72,128,248767,1,0,0:0:0:0:
160,80,248883,1,0,0:0:0:0:
256,112,248998,1,0,0:0:0:0:
352,80,249113,1,0,0:0:0:0:
440,128,249229,1,0,0:0:0:0:
416,224,249344,1,0,0:0:0:0:
392,320,249459,1,0,0:0:0:0:
296,304,249575,6,0,P|392:208|416:224,1,200
440,128,249921,2,0,P|328:152|256:112,1,200
184,184,250267,5,0,0:0:0:0:
200,280,250383,1,0,0:0:0:0:
296,304,250498,1,0,0:0:0:0:
392,280,250613,1,0,0:0:0:0:
408,184,250729,1,0,0:0:0:0:
384,88,250844,6,0,P|304:136|224:72,1,200
152,144,251190,2,0,P|96:184|176:296,1,200
232,304,251536,2,0,P|309:247|389:295,2,200
64,192,252229,5,0,0:0:0:0:
152,144,252344,1,0,0:0:0:0:
208,232,252460,1,0,0:0:0:0:
304,232,252575,1,0,0:0:0:0:
360,144,252691,1,0,0:0:0:0:
448,192,252806,1,0,0:0:0:0:
400,280,252921,6,0,P|328:320|304:232,1,200
208,232,253267,2,0,P|184:320|112:280,1,200
32,344,253613,5,0,0:0:0:0:
56,144,253844,1,0,0:0:0:0:
256,112,254075,5,0,0:0:0:0:
352,144,254190,1,0,0:0:0:0:
456,144,254306,1,0,0:0:0:0:
456,240,254421,1,0,0:0:0:0:
480,344,254537,1,0,0:0:0:0:
384,328,254652,1,0,0:0:0:0:
288,296,254767,6,0,P|344:280|280:200,1,200
288,296,255113,2,0,P|288:200|192:144,1,200
208,144,255460,1,0,0:0:0:0:
96,304,255690,1,0,0:0:0:0:
64,104,255921,1,0,0:0:0:0:
120,184,256037,6,0,P|192:256|272:224,1,200
312,128,256383,1,0,0:0:0:0:
256,48,256498,1,0,0:0:0:0:
200,128,256613,1,0,0:0:0:0:
256,216,256729,1,0,0:0:0:0:
312,304,256844,1,0,0:0:0:0:
200,304,256960,2,0,P|144:320|120:184,1,200
90,213,257306,5,0,0:0:0:0:
288,248,257537,5,0,0:0:0:0:
440,120,257767,5,0,0:0:0:0:
376,192,257883,1,0,0:0:0:0:
304,128,257998,1,0,0:0:0:0:
208,128,258113,1,0,0:0:0:0:
136,192,258228,1,0,0:0:0:0:
72,120,258344,1,0,0:0:0:0:
56,216,258460,6,0,P|128:336|344:248,1,400
240,264,259037,2,0,P|184:272|240:144,1,300
328,192,259498,1,0,0:0:0:0:
416,144,259613,1,0,0:0:0:0:
344,72,259729,1,0,0:0:0:0:
248,88,259844,6,0,P|144:200|328:192,1,400
224,184,260421,1,0,0:0:0:0:
248,88,260537,2,0,P|152:64|120:296,1,400
256,152,261229,5,0,0:0:0:0:
402,290,261460,6,0,P|360:64|264:88,1,400
256,192,262037,5,0,0:0:0:0:
256,288,262152,2,0,P|168:296|96:192,1,200
200,208,262498,2,0,P|169:125|251:28,1,200
264,128,262844,2,0,P|336:77|450:131,1,200
376,192,263190,5,0,0:0:0:0:
328,280,263306,1,0,0:0:0:0:
256,216,263421,1,0,0:0:0:0:
184,280,263537,1,0,0:0:0:0:
136,192,263653,1,0,0:0:0:0:
184,104,263767,1,0,0:0:0:0:
256,168,263883,1,0,0:0:0:0:
328,104,263998,1,0,0:0:0:0:
136,32,264229,1,0,0:0:0:0:
376,32,264460,1,0,0:0:0:0:
424,120,264575,6,0,P|400:336|184:280,1,500
280,256,265267,2,0,P|304:112|184:104,1,300
136,192,265729,1,0,0:0:0:0:
88,280,265844,2,0,P|192:288|280:256,1,200
184,280,266190,2,0,P|400:336|424:120,1,500
344,184,266883,5,0,0:0:0:0:
304,96,266998,1,0,0:0:0:0:
256,184,267113,1,0,0:0:0:0:
208,96,267229,1,0,0:0:0:0:
168,184,267344,1,0,0:0:0:0:
88,120,267460,6,0,P|72:344|256:184,1,600
256,184,268267,1,0,0:0:0:0:
256,184,268383,2,0,P|392:216|256:88,1,500
257,86,269075,1,0,0:0:0:0:
257,86,269190,1,0,0:0:0:0:
256,184,269306,1,0,0:0:0:0:
168,224,269421,1,0,0:0:0:0:
144,320,269537,6,0,P|80:176|264:88,1,400
256,184,270113,1,0,0:0:0:0:
168,224,270229,2,0,P|344:208|256:88,1,400
256,184,270806,5,0,0:0:0:0:
328,248,270921,2,0,P|232:360|64:224,1,400
152,48,271613,1,0,0:0:0:0:
184,248,271844,2,0,P|280:360|448:224,1,400
392,152,272421,5,0,0:0:0:0:
304,104,272537,1,0,0:0:0:0:
256,192,272652,1,0,0:0:0:0:
208,104,272767,1,0,0:0:0:0:
120,152,272883,1,0,0:0:0:0:
63,233,272998,6,0,P|232:360|328:248,1,400
224,240,273575,2,0,P|304:360|416:288,1,300
368,104,274152,1,0,0:0:0:0:
224,240,274383,2,0,P|120:208|256:64,1,400
192,144,274960,1,0,0:0:0:0:
288,160,275075,2,0,P|352:248|224:240,1,300
288,160,275537,1,0,0:0:0:0:
376,208,275652,1,0,0:0:0:0:
464,160,275767,1,0,0:0:0:0:
376,344,275998,5,0,0:0:0:0:
288,160,276229,1,0,0:0:0:0:
88,184,276460,5,0,0:0:0:0:
168,248,276575,1,0,0:0:0:0:
256,208,276690,1,0,0:0:0:0:
344,248,276806,1,0,0:0:0:0:
424,184,276921,1,0,0:0:0:0:
256,80,277152,5,0,0:0:0:0:
160,104,277267,2,0,P|240:176|320:152,1,200
344,248,277613,1,0,0:0:0:0:
160,320,277844,6,0,P|160:128|256:184,1,400
256,280,278421,1,0,0:0:0:0:
352,320,278537,2,0,P|352:128|256:184,1,400
152,8,279229,1,0,0:0:0:0:
352,8,279460,1,0,0:0:0:0:
264,184,279690,6,0,P|216:136|272:272,1,600
176,240,280498,1,0,0:0:0:0:
264,184,280613,2,0,P|320:112|392:296,1,400
368,200,281190,2,0,P|208:264|168:144,1,300
104,96,281652,5,0,0:0:0:0:
88,192,281767,1,0,0:0:0:0:
184,232,281883,1,0,0:0:0:0:
256,304,281998,1,0,0:0:0:0:
328,232,282113,1,0,0:0:0:0:
424,192,282229,1,0,0:0:0:0:
408,96,282344,1,0,0:0:0:0:
312,56,282460,6,0,P|200:32|136:112,1,200
240,112,282806,2,0,P|184:164|72:140,1,200
160,192,283152,5,0,0:0:0:0:
416,288,283383,1,0,0:0:0:0:
96,288,283613,1,0,0:0:0:0:
352,192,283844,1,0,0:0:0:0:
320,96,283960,1,0,0:0:0:0:
256,168,284075,1,0,0:0:0:0:
160,192,284190,1,0,0:0:0:0:
192,96,284306,2,0,P|112:96|64:200,1,200
160,192,284652,2,0,P|192:256|96:288,1,200
176,352,284998,1,0,0:0:0:0:
168,352,292844,6,0,P|88:144|344:320,1,800
264,264,293883,2,0,P|232:184|488:192,1,500
344,320,294690,5,0,0:0:0:0:
264,264,294806,1,0,0:0:0:0:
184,208,294921,1,0,0:0:0:0:
384,192,295152,5,0,0:0:0:0:
128,192,295383,1,0,0:0:0:0:
312,112,295613,1,0,0:0:0:0:
200,112,295844,1,0,0:0:0:0:
256,304,296075,1,0,0:0:0:0:
368,144,296306,5,0,0:0:0:0:
320,232,296421,1,0,0:0:0:0:
256,160,296537,1,0,0:0:0:0:
192,232,296652,1,0,0:0:0:0:
144,144,296767,1,0,0:0:0:0:
256,304,296998,6,0,P|432:296|368:144,1,400
192,56,297690,1,0,0:0:0:0:
320,56,297921,1,0,0:0:0:0:
144,144,298152,1,0,0:0:0:0:
368,144,298383,1,0,0:0:0:0:
96,232,298613,1,0,0:0:0:0:
416,232,298844,1,0,0:0:0:0:
144,320,299075,5,0,0:0:0:0:
216,248,299190,1,0,0:0:0:0:
256,344,299306,1,0,0:0:0:0:
296,248,299421,1,0,0:0:0:0:
368,320,299536,1,0,0:0:0:0:
328,120,299767,5,0,0:0:0:0:
256,48,299883,1,0,0:0:0:0:
184,120,299998,1,0,0:0:0:0:
48,272,300229,5,0,0:0:0:0:
464,272,300460,1,0,0:0:0:0:
160,208,300690,1,0,0:0:0:0:
352,208,300921,1,0,0:0:0:0:
160,208,301152,6,0,P|240:56|464:272,1,600
360,272,301960,1,0,0:0:0:0:
264,280,302075,1,0,0:0:0:0:
168,288,302190,1,0,0:0:0:0:
64,296,302306,2,0,P|40:176|184:136,1,300
120,216,302767,2,0,P|56:136|104:64,1,200
256,200,303229,5,0,0:0:0:0:
410,65,303460,1,0,0:0:0:0:
360,256,303690,1,0,0:0:0:0:
152,256,303921,1,0,0:0:0:0:
101,65,304152,5,0,0:0:0:0:
200,40,304267,1,0,0:0:0:0:
256,128,304383,1,0,0:0:0:0:
312,40,304498,1,0,0:0:0:0:
410,65,304613,1,0,0:0:0:0:
456,264,304844,5,0,0:0:0:0:
256,304,305075,5,0,0:0:0:0:
56,264,305306,5,0,0:0:0:0:
128,192,305421,1,0,0:0:0:0:
112,96,305537,1,0,0:0:0:0:
256,232,305767,5,0,0:0:0:0:
400,96,305998,5,0,0:0:0:0:
384,192,306114,1,0,0:0:0:0:
456,264,306229,1,0,0:0:0:0:
256,232,306460,1,0,0:0:0:0:
72,152,306690,1,0,0:0:0:0:
440,152,306921,1,0,0:0:0:0:
336,320,307152,6,0,P|256:176|176:320,1,400
256,256,307729,1,0,0:0:0:0:
312,176,307844,1,0,0:0:0:0:
200,176,307960,1,0,0:0:0:0:
256,88,308075,2,0,P|152:64|192:264,1,400
256,192,308652,1,0,0:0:0:0:
329,264,308767,2,0,P|360:64|256:88,1,400
144,256,309460,5,0,0:0:0:0:
368,256,309690,1,0,0:0:0:0:
256,88,309921,1,0,0:0:0:0:
56,128,310152,5,0,0:0:0:0:
152,168,310267,1,0,0:0:0:0:
256,160,310383,1,0,0:0:0:0:
360,168,310498,1,0,0:0:0:0:
456,128,310613,1,0,0:0:0:0:
440,328,310844,5,0,0:0:0:0:
72,328,311075,1,0,0:0:0:0:
80,128,311306,6,0,P|192:32|360:168,1,400
320,264,311883,1,0,0:0:0:0:
256,344,311998,1,0,0:0:0:0:
200,264,312113,1,0,0:0:0:0:
152,168,312229,2,0,P|320:32|432:128,1,400
336,160,312806,2,0,P|392:264|200:264,1,400
296,248,313383,5,0,0:0:0:0:
120,152,313613,1,0,0:0:0:0:
392,152,313844,1,0,0:0:0:0:
216,248,314075,1,0,0:0:0:0:
176,160,314190,6,0,P|120:264|264:160,1,500
216,128,314883,1,0,0:0:0:0:
136,64,314998,2,0,P|40:176|216:248,1,400
176,160,315575,2,0,P|112:288|272:176,1,500
400,184,316267,5,0,0:0:0:0:
344,96,316383,1,0,0:0:0:0:
256,136,316498,1,0,0:0:0:0:
168,96,316613,1,0,0:0:0:0:
112,184,316729,1,0,0:0:0:0:
56,104,316844,6,0,P|312:264|344:96,1,600
256,280,317767,1,0,0:0:0:0:
168,96,317998,2,0,P|200:264|456:104,1,600
392,296,318921,5,0,0:0:0:0:
120,296,319152,1,0,0:0:0:0:
448,192,319383,1,0,0:0:0:0:
64,192,319613,1,0,0:0:0:0:
392,88,319844,1,0,0:0:0:0:
120,88,320075,1,0,0:0:0:0:
320,112,320306,5,0,0:0:0:0:
320,112,320421,1,0,0:0:0:0:
256,192,320537,1,0,0:0:0:0:
192,272,320652,1,0,0:0:0:0:
192,272,320767,1,0,0:0:0:0:
376,192,320998,1,0,0:0:0:0:
136,192,321229,1,0,0:0:0:0:
256,32,321460,1,0,0:0:0:0:
376,192,321690,6,0,P|264:96|192:272,1,400
80,104,322383,2,0,P|240:96|192:272,1,400
160,368,322960,5,0,0:0:0:0:
256,336,323075,1,0,0:0:0:0:
352,368,323190,1,0,0:0:0:0:
320,272,323306,6,0,P|272:96|432:104,2,400
328,176,324344,1,0,0:0:0:0:
256,104,324460,1,0,0:0:0:0:
184,176,324575,1,0,0:0:0:0:
192,272,324690,2,0,P|240:96|80:104,2,400
80,104,325844,5,0,0:0:0:0:
208,256,326075,1,0,0:0:0:0:
432,104,326306,1,0,0:0:0:0:
304,256,326537,1,0,0:0:0:0:
120,192,326767,6,0,P|368:136|384:192,1,400
296,240,327344,2,0,P|272:160|208:240,1,200
232,304,327690,5,0,0:0:0:0:
328,328,327806,1,0,0:0:0:0:
400,256,327921,1,0,0:0:0:0:
376,160,328037,1,0,0:0:0:0:
280,136,328152,1,0,0:0:0:0:
208,200,328267,1,0,0:0:0:0:
304,232,328383,1,0,0:0:0:0:
112,280,328613,5,0,0:0:0:0:
168,88,328844,1,0,0:0:0:0:
304,232,329075,1,0,0:0:0:0:
112,280,329306,5,0,0:0:0:0:
184,208,329421,1,0,0:0:0:0:
256,136,329537,1,0,0:0:0:0:
416,248,329767,6,0,P|256:184|352:32,1,400
224,184,330460,1,0,0:0:0:0:
80,328,330690,2,0,P|232:88|416:248,1,600
336,304,331498,5,0,0:0:0:0:
296,216,331613,1,0,0:0:0:0:
216,280,331729,1,0,0:0:0:0:
168,192,331844,1,0,0:0:0:0:
336,80,332075,1,0,0:0:0:0:
176,80,332306,1,0,0:0:0:0:
440,128,332537,1,0,0:0:0:0:
72,128,332767,5,0,0:0:0:0:
88,224,332883,2,0,P|144:200|336:304,2,300
112,320,333690,2,0,P|192:280|264:352,1,200
272,248,334037,1,0,0:0:0:0:
232,160,334152,1,0,0:0:0:0:
272,64,334267,1,0,0:0:0:0:
176,88,334383,6,0,P|144:224|272:248,1,300
232,160,334844,2,0,P|344:176|376:256,1,200
272,248,335190,2,0,P|408:328|464:232,1,300
320,96,335767,5,0,0:0:0:0:
256,288,335998,1,0,0:0:0:0:
200,96,336229,1,0,0:0:0:0:
360,216,336460,1,0,0:0:0:0:
152,216,336690,1,0,0:0:0:0:
320,96,336921,6,0,P|344:240|152:216,1,400
320,96,337613,2,0,P|160:40|152:216,2,400
328,296,338767,1,0,0:0:0:0:
160,192,338998,1,0,0:0:0:0:
352,192,339229,1,0,0:0:0:0:
184,296,339460,1,0,0:0:0:0:
80,128,339690,5,0,0:0:0:0:
80,128,339806,1,0,0:0:0:0:
80,128,339921,1,0,0:0:0:0:
432,128,340152,1,0,0:0:0:0:
432,128,340268,1,0,0:0:0:0:
432,128,340383,1,0,0:0:0:0:
256,40,340613,5,0,0:0:0:0:
256,40,340729,1,0,0:0:0:0:
256,136,340844,1,0,0:0:0:0:
400,272,341075,5,0,0:0:0:0:
336,80,341306,1,0,0:0:0:0:
176,80,341537,1,0,0:0:0:0:
112,272,341767,2,0,P|64:136|256:136,1,400
400,272,342460,2,0,P|448:136|256:136,1,400
320,320,343152,1,0,0:0:0:0:
256,248,343267,1,0,0:0:0:0:
192,320,343383,1,0,0:0:0:0:
144,128,343613,5,0,0:0:0:0:
368,128,343844,1,0,0:0:0:0:
488,288,344075,1,0,0:0:0:0:
392,248,344190,1,0,0:0:0:0:
296,264,344306,1,0,0:0:0:0:
256,176,344421,1,0,0:0:0:0:
216,264,344537,1,0,0:0:0:0:
120,248,344653,1,0,0:0:0:0:
24,288,344768,1,0,0:0:0:0:
80,96,344998,6,0,P|256:0|368:128,1,400
144,126,345690,2,0,P|256:0|432:96,1,400
400,192,346267,5,0,0:0:0:0:
304,216,346383,1,0,0:0:0:0:
256,128,346498,1,0,0:0:0:0:
208,216,346613,1,0,0:0:0:0:
112,192,346728,1,0,0:0:0:0:
16,224,346844,6,0,P|176:336|304:216,1,400
400,192,347421,2,0,P|216:56|208:216,1,500
368,328,348229,5,0,0:0:0:0:
336,128,348460,1,0,0:0:0:0:
256,312,348690,1,0,0:0:0:0:
176,128,348921,1,0,0:0:0:0:
144,328,349152,1,0,0:0:0:0:
48,152,349383,5,0,0:0:0:0:
112,224,349498,1,0,0:0:0:0:
208,200,349613,1,0,0:0:0:0:
256,288,349729,1,0,0:0:0:0:
304,200,349844,1,0,0:0:0:0:
400,224,349959,1,0,0:0:0:0:
464,152,350074,1,0,0:0:0:0:
352,320,350306,5,0,0:0:0:0:
208,128,350537,1,0,0:0:0:0:
160,320,350767,1,0,0:0:0:0:
304,128,350998,1,0,0:0:0:0:
256,192,351229,12,0,352729,0:0:0:0:
256,192,352844,5,0,0:0:0:0:
