osu file format v7

[General]
AudioFilename: Renaissance ~ Ningyou Saiban.mp3
AudioLeadIn: 0
PreviewTime: -1
Countdown: 1
SampleSet: Soft
StackLeniency: 0.7
Mode: 0
LetterboxInBreaks: 1

[Editor]
Bookmarks: 32465
DistanceSpacing: 0.800000011920929
BeatDivisor: 8
GridSize: 8

[Metadata]
Title:Ningyou Saiban
Artist:Renaissance
Creator:mappo123
Version:Insane
Source:
Tags:touhou

[Difficulty]
HPDrainRate:7
CircleSize:5
OverallDifficulty:7
SliderMultiplier:1.9
SliderTickRate:2

[Events]
//Background and Video events
0,0,"alice-bg.jpg"
//Break Periods
//Storyboard Layer 0 (Background)
//Storyboard Layer 1 (Fail)
//Storyboard Layer 2 (Pass)
//Storyboard Layer 3 (Foreground)
//Storyboard Sound Samples
//Background Colour Transformations
3,100,163,162,255

[TimingPoints]
29614,329.706561160567,4,2,0,100,1,0

[HitObjects]
400,104,29613,6,0,B|424:56|480:64,1,95
400,104,29943,2,0,B|440:136|456:192,1,95
400,104,30273,2,0,B|352:144|288:136,1,95
400,104,30603,2,0,B|376:56|408:8,1,95
400,272,30932,6,0,B|400:224|440:184,1,95
400,272,31262,2,0,B|472:272|496:328,1,95
400,272,31592,2,0,B|400:320|352:368,1,95
400,272,31921,2,0,B|352:248|336:200,1,95
120,96,32251,6,0,B|120:48|168:16,1,95
120,96,32581,2,0,B|168:96|192:160,1,95
120,96,32911,2,0,B|120:144|48:168,1,95
120,96,33240,2,0,B|72:96|40:40,1,95
112,304,33570,6,0,B|112:256|160:224,1,95
112,304,33900,2,0,B|160:304|192:352,1,95
112,304,34229,2,0,B|112:352|48:368,1,95
112,304,34559,2,0,B|64:304|32:256,1,95
456,32,34889,5,0
416,128,35054,1,0
352,32,35219,1,0
304,128,35383,1,0
256,32,35548,1,0
208,128,35713,1,0
160,32,35878,1,0
112,128,36043,1,0
64,224,36208,5,0
104,320,36372,1,0
168,224,36537,1,0
224,320,36702,1,0
264,224,36867,1,0
320,320,37032,1,0
376,224,37197,1,0
432,320,37362,1,0
480,224,37526,5,0
432,128,37691,1,0
376,224,37856,1,0
312,128,38021,1,0
264,224,38186,1,0
192,128,38351,1,0
136,224,38516,1,0
72,128,38680,1,0
32,216,38845,1,0
96,312,39010,1,0
208,312,39175,1,0
312,312,39340,1,0
408,320,39505,1,0
472,216,39670,1,0
472,128,39834,1,0
472,40,39999,1,0
376,40,40164,6,0,B|280:8|184:48,1,190
190,45,40824,2,0,B|96:80|96:200,1,190
96,195,41483,2,0,B|120:296|232:320,1,190
226,318,42142,2,0,B|320:352|416:272,1,190
404,281,42802,2,0,B|480:200|432:72,1,190
442,104,43461,2,0,B|376:32|256:40,1,190
270,39,44121,2,0,B|176:16|56:104,1,190
90,80,44780,2,0,B|24:160|104:296,1,190
120,320,45439,5,0
160,320,45604,1,0
208,320,45769,1,0
248,320,45934,1,0
288,320,46099,1,0
336,320,46264,1,0
376,320,46429,1,0
416,320,46593,1,0
456,320,46758,1,0
456,280,46923,1,0
456,232,47088,1,0
456,184,47253,1,0
456,136,47418,1,0
456,96,47583,1,0
456,48,47747,1,0
456,16,47912,1,0
400,16,48077,5,0
384,64,48242,1,0
360,104,48407,1,0
320,136,48572,1,0
272,144,48736,1,0
232,144,48901,1,0
184,120,49066,1,0
144,96,49231,1,0
112,136,49396,5,0
144,168,49561,1,0
184,184,49726,1,0
232,200,49890,1,0
280,200,50055,1,0
328,192,50220,1,0
376,168,50385,1,0
408,136,50550,1,0
432,176,50715,6,0,B|360:248|256:272,1,190
184,256,51374,1,0
96,192,51704,1,0
64,48,52034,6,0,B|272:48,1,190
254,48,52693,2,0,B|456:144,1,190
425,129,53352,1,0
344,296,54012,1,0
184,288,54671,1,0
108,67,55331,1,0
256,40,55990,6,0,B|448:112|448:360,1,380
447,339,56979,1,0
336,336,57309,2,0,B|144:336,1,190
146,336,57968,2,0,B|80:264|112:144,1,190
108,157,58628,6,0,B|224:-24|304:-48|520:272,1,570
512,265,59947,1,0
432,312,60276,1,0
328,320,60606,1,0
224,320,60936,1,0
144,320,61265,6,0,B|24:152|256:0,1,380
247,5,62254,1,0
360,64,62584,1,0
448,128,63244,2,0,B|360:344|160:352,1,380
168,351,64562,1,0
192,160,65222,1,0
296,40,65881,1,0
296,40,66541,6,0,B|472:192|320:384,1,380
327,374,67530,1,0
216,368,67859,1,0
96,368,68519,2,0,B|48:168|232:32|208:40,1,332.5
190,63,69178,2,0,B|384:0|520:216|472:344|288:368,1,570
298,366,70497,1,0
208,368,70827,1,0
128,368,71157,1,0
48,368,71486,1,0
256,208,71816,12,0,73052
256,192,73135,5,0
256,192,73217,1,0
256,192,73300,1,0
256,192,73382,1,0
256,192,73464,1,0
256,192,73547,1,0
256,192,73629,1,0
344,128,73794,5,0
344,128,73959,1,0
344,192,74124,1,0
336,224,74206,1,0
312,256,74289,1,0
288,280,74371,1,0
264,296,74454,1,0
232,304,74536,1,0
200,296,74618,1,0
176,280,74701,1,0
152,256,74783,1,0
128,88,75113,5,0
128,88,75278,1,0
168,40,75443,1,0
208,32,75525,1,0
248,32,75608,1,0
288,40,75690,1,0
320,56,75772,1,0
352,80,75855,1,0
384,104,75937,1,0
392,136,76020,1,0
392,176,76102,1,0
392,208,76185,1,0
392,240,76267,1,0
384,280,76349,1,0
376,344,76432,5,0
256,320,76679,1,0
112,256,76926,1,0
112,192,77091,1,0
120,160,77174,1,0
136,136,77256,1,0
152,112,77339,1,0
176,88,77421,1,0
200,72,77503,1,0
232,64,77586,1,0
272,56,77668,1,0
304,64,77751,5,0
336,80,77833,1,0
376,112,77957,1,0
400,144,78039,1,0
408,192,78163,1,0
408,240,78286,1,0
392,288,78369,1,0
368,328,78492,1,0
320,344,78616,1,0
280,352,78740,1,0
232,352,78822,1,0
200,344,78905,1,0
184,312,78987,1,0
176,280,79069,5,0
152,248,79152,1,0
136,216,79234,1,0
120,184,79317,1,0
128,144,79399,1,0
152,120,79482,1,0
176,96,79564,1,0
208,80,79646,1,0
232,64,79729,2,0,B|256:48,8,23.75
232,64,80141,1,0
208,80,80223,1,0
176,96,80306,1,0
152,120,80388,5,0
128,144,80471,1,0
120,184,80553,1,0
136,216,80636,1,0
152,248,80718,1,0
168,280,80800,1,0
184,304,80883,1,0
216,312,80965,1,0
248,320,81048,2,0,B|272:320,8,23.75
216,312,81460,1,0
184,304,81542,1,0
168,280,81625,1,0
152,248,81707,1,0
136,216,81790,5,0
120,184,81872,1,0
128,144,81954,1,0
144,120,82037,1,0
168,104,82119,1,0
192,88,82202,1,0
216,72,82284,1,0
248,64,82367,1,0
280,80,82449,1,0
312,96,82531,1,0
336,112,82614,1,0
360,136,82696,1,0
384,160,82779,1,0
400,192,82861,1,0
392,224,82944,1,0
368,240,83026,1,0
344,256,83108,1,0
312,272,83191,1,0
280,288,83273,1,0
248,288,83356,1,0
224,272,83438,1,0
216,240,83521,1,0
232,208,83603,1,0
240,184,83685,1,0
248,168,83768,1,0
256,144,83850,1,0
264,120,83933,1,0
272,96,84015,1,0
288,72,84098,1,0
320,80,84180,1,0
352,96,84262,1,0
320,144,84345,5,0
320,144,84510,1,0
296,224,84674,1,0
272,240,84757,1,0
248,256,84839,1,0
224,272,84922,1,0
192,272,85004,1,0
160,264,85087,1,0
144,240,85169,1,0
136,208,85251,1,0
144,176,85334,1,0
152,144,85416,1,0
168,112,85499,1,0
184,88,85581,1,0
224,56,85664,5,0
224,56,85828,1,0
288,104,85993,1,0
288,136,86076,1,0
296,168,86158,1,0
312,192,86241,1,0
328,224,86323,1,0
352,248,86405,1,0
376,264,86488,1,0
408,256,86570,1,0
432,232,86653,1,0
440,200,86735,1,0
440,168,86818,1,0
440,136,86900,1,0
432,72,86982,5,0
264,48,87230,1,0
96,112,87477,1,0
32,192,87642,1,0
48,208,87724,1,0
64,224,87807,1,0
80,232,87889,1,0
96,240,87972,1,0
112,248,88054,1,0
128,256,88136,1,0
144,264,88219,1,0
160,272,88301,1,0
200,288,88384,1,0
240,296,88507,1,0
280,304,88631,1,0
320,288,88713,1,0
360,272,88796,1,0
384,248,88919,1,0
408,216,89043,1,0
432,200,89126,1,0
432,168,89208,1,0
448,136,89290,1,0
440,104,89373,1,0
416,72,89455,1,0
384,48,89538,1,0
352,48,89620,5,0
320,48,89703,1,0
288,56,89785,1,0
256,80,89867,1,0
232,112,89950,1,0
200,120,90032,1,0
168,112,90115,1,0
144,88,90197,1,0
120,64,90280,1,0
88,88,90362,1,0
72,120,90444,1,0
80,152,90527,1,0
104,184,90609,1,0
136,200,90692,1,0
176,208,90774,1,0
216,208,90856,1,0
256,200,90939,5,0
288,184,91021,1,0
312,160,91104,1,0
344,144,91186,1,0
376,152,91269,1,0
400,176,91351,1,0
416,216,91433,1,0
400,248,91516,1,0
376,264,91598,1,0
352,288,91681,1,0
320,304,91763,1,0
288,312,91846,1,0
256,320,91928,1,0
224,320,92010,1,0
192,312,92093,1,0
160,304,92175,1,0
136,288,92258,5,0
104,272,92340,1,0
88,248,92423,1,0
72,224,92505,1,0
64,192,92587,1,0
64,160,92670,1,0
80,136,92752,1,0
104,112,92835,1,0
136,96,92917,1,0
176,96,93000,1,0
208,96,93082,1,0
240,96,93164,1,0
272,96,93247,1,0
304,112,93329,1,0
328,136,93412,1,0
352,160,93494,1,0
368,184,93577,2,0,B|392:232|368:288|240:272,1,190
256,192,94071,5,0
256,192,94154,1,0
256,192,94236,1,0
256,192,94318,1,0
256,192,94401,1,0
256,192,94483,1,0
256,192,94566,1,0
256,192,94648,1,0
256,192,94731,1,0
256,192,94813,1,0
256,192,94895,1,0
256,208,94978,12,0,96874
256,192,97203,5,0
48,344,97533,1,0
48,48,97863,1,0
256,192,98192,5,0
464,344,98522,1,0
464,48,98852,1,0
256,192,99182,1,0
256,192,99511,5,0
56,48,99841,1,0
56,336,100171,1,0
256,192,100500,1,0
256,192,100830,5,0
472,344,101160,1,0
472,40,101490,1,0
256,192,101819,1,0
256,192,102149,5,0
184,288,102479,1,0
64,336,102808,1,0
64,192,103138,1,0
256,192,103468,5,0
320,288,103797,1,0
456,344,104127,1,0
456,192,104457,1,0
256,192,104787,5,0
320,104,105116,1,0
456,40,105446,1,0
456,192,105776,1,0
256,192,106105,5,0
184,104,106435,1,0
56,40,106765,1,0
56,192,107095,1,0
256,192,107424,5,0
352,192,107754,1,0
400,288,108084,1,0
304,352,108413,1,0
208,280,108743,5,0
152,192,109073,1,0
64,192,109402,1,0
24,280,109732,1,0
112,352,110062,5,0
192,272,110392,1,0
264,352,110721,1,0
328,272,111051,1,0
392,192,111381,5,0
464,104,111710,1,0
392,32,112040,1,0
312,104,112370,1,0
256,192,112700,1,0
192,112,113029,1,0
120,24,113359,1,0
40,112,113689,1,0
40,192,114018,1,0
80,280,114348,1,0
160,328,114678,1,0
256,336,115007,1,0
344,328,115337,5,0
416,280,115667,1,0
464,192,115997,1,0
456,112,116326,1,0
400,40,116656,1,0
312,72,116986,1,0
256,128,117315,1,0
256,192,117480,2,0,B|256:216,12,23.75
48,32,118634,5,0
48,112,118799,1,0
48,200,118964,1,0
48,280,119129,1,0
48,352,119294,5,0
128,352,119459,1,0
208,352,119623,1,0
304,352,119788,1,0
384,352,119953,5,0
464,352,120118,1,0
464,272,120283,1,0
464,192,120448,1,0
464,120,120613,5,0
464,48,120777,1,0
384,48,120942,1,0
304,48,121107,1,0
208,48,121272,5,0
120,48,121437,1,0
32,48,121602,1,0
32,128,121766,1,0
32,192,121931,5,0
32,272,122096,1,0
32,344,122261,1,0
104,344,122426,1,0
184,344,122591,5,0
256,344,122756,1,0
328,344,122920,1,0
408,344,123085,1,0
480,344,123250,6,0,B|480:144,1,190
408,344,123910,2,0,B|408:144,1,190
336,344,124569,2,0,B|336:144,1,190
336,154,125064,1,0
288,96,125228,1,0
264,80,125311,1,0
232,72,125393,1,0
192,80,125476,1,0
160,88,125558,1,0
128,104,125641,1,0
112,128,125723,1,0
112,192,125888,6,0,B|112:384,1,190
192,352,126382,1,0
256,320,126547,1,0
288,304,126630,1,0
320,288,126712,1,0
336,264,126794,1,0
352,240,126877,1,0
368,216,126959,1,0
384,184,127042,1,0
392,152,127124,1,0
400,80,127371,2,0,B|304:32|192:48,1,190
152,48,127866,5,8
152,152,128196,1,8
152,200,128361,1,8
152,320,128690,1,8
152,272,128855,1,8
256,320,129185,5,8
416,320,129515,1,8
416,144,130009,1,8
416,208,130174,1,8
416,48,130504,5,8
256,48,130833,1,8
88,48,131328,1,8
152,48,131493,1,8
80,192,131823,5,8
168,288,132152,1,8
384,264,132647,1,8
344,296,132812,1,8
440,192,133141,5,8
376,104,133471,1,8
200,40,133966,1,8
248,72,134130,1,8
120,80,134460,5,8
64,192,134790,1,8
192,328,135284,1,8
144,288,135449,1,8
256,336,135779,5,8
384,272,136109,1,8
480,144,136603,1,8
456,200,136768,1,8
416,48,137098,5,8
256,48,137428,1,8
88,136,137922,1,8
136,88,138087,1,8
48,200,138417,5,8
128,288,138746,1,8
296,320,139241,1,8
248,320,139406,1,8
256,208,139735,12,0,140065
256,192,140230,5,0
256,192,140312,1,0
256,192,140395,1,0
408,64,140560,1,0
392,144,140725,1,0
384,176,140807,1,0
368,208,140889,1,0
352,240,140972,1,0
336,272,141054,1,0
312,304,141137,1,0
280,320,141219,1,0
248,328,141302,1,0
216,336,141384,1,0
184,336,141466,1,0
152,320,141549,1,0
128,296,141631,1,0
96,232,141714,5,0
88,144,141879,1,0
136,72,142043,1,0
160,56,142126,1,0
192,48,142208,1,0
224,40,142291,1,0
256,32,142373,1,0
288,32,142456,1,0
320,40,142538,1,0
352,48,142620,1,0
384,56,142703,1,0
408,80,142785,1,0
432,104,142868,1,0
448,136,142950,1,0
448,208,143033,5,0
360,304,143280,1,0
224,328,143527,1,0
144,304,143692,1,0
120,280,143774,1,0
104,256,143857,1,0
88,232,143939,1,0
80,200,144022,1,0
80,168,144104,1,0
80,144,144187,1,0
88,112,144269,1,0
104,88,144351,5,0
136,64,144434,1,0
176,48,144557,1,0
216,40,144640,1,0
248,40,144764,1,0
288,48,144887,1,0
328,64,144970,1,0
360,80,145093,1,0
400,104,145176,1,0
424,128,145299,5,0
440,152,145423,1,0
448,184,145505,1,0
440,216,145588,1,0
424,248,145670,5,0
408,272,145753,1,0
384,296,145835,1,0
360,312,145917,1,0
328,328,146000,1,0
296,344,146082,1,0
264,344,146165,1,0
240,336,146247,1,0
216,320,146330,2,0,B|192:296,8,23.75
240,336,146742,1,0
264,344,146824,1,0
296,344,146907,1,0
328,328,146989,5,0
360,312,147071,1,0
384,296,147154,1,0
408,272,147236,1,0
424,240,147319,1,0
424,208,147401,1,0
416,176,147484,1,0
408,144,147566,1,0
392,120,147648,1,0
376,96,147731,1,0
344,80,147813,1,0
320,64,147896,1,0
288,64,147978,1,0
272,96,148061,1,0
256,120,148143,1,0
248,152,148225,1,0
240,184,148308,5,0
232,216,148390,1,0
208,248,148473,1,0
192,272,148555,1,0
176,296,148638,1,0
152,304,148720,1,0
128,320,148802,1,0
104,304,148885,1,0
96,280,148967,1,0
88,248,149050,1,0
80,216,149132,1,0
72,184,149215,1,0
88,152,149297,1,0
104,128,149379,1,0
128,112,149462,1,0
160,96,149544,1,0
192,96,149627,5,0
224,96,149709,1,0
256,104,149792,1,0
288,112,149874,1,0
320,120,149956,1,0
336,128,150039,1,0
352,144,150121,1,0
368,160,150204,1,0
392,176,150286,1,0
416,200,150369,1,0
440,224,150451,1,0
448,256,150533,1,0
432,288,150616,1,0
400,304,150698,1,0
368,320,150781,1,0
336,320,150863,1,0
296,320,150946,5,0
200,304,151110,1,0
144,240,151275,1,0
120,216,151358,1,0
104,192,151440,1,0
88,160,151523,1,0
80,128,151605,1,0
72,96,151687,1,0
88,64,151770,1,0
112,48,151852,1,0
144,40,151935,1,0
176,40,152017,1,0
208,40,152099,1,0
248,40,152182,1,0
280,40,152264,5,0
344,48,152429,1,0
400,72,152594,1,0
424,96,152676,1,0
448,120,152759,1,0
448,152,152841,1,0
432,184,152924,1,0
416,216,153006,1,0
400,248,153089,1,0
384,272,153171,1,0
360,296,153253,1,0
328,304,153336,1,0
288,304,153418,1,0
256,304,153501,1,0
224,304,153583,5,0
104,232,153830,1,0
72,136,154078,1,0
136,48,154243,1,0
168,48,154325,1,0
200,48,154407,1,0
232,48,154490,1,0
264,48,154572,1,0
288,48,154655,1,0
320,48,154737,1,0
352,48,154820,1,0
384,48,154902,5,0
400,88,154984,1,0
416,128,155108,1,0
424,176,155232,1,0
432,216,155314,1,0
440,264,155438,1,0
432,312,155561,1,0
408,328,155644,1,0
376,336,155767,1,0
344,336,155891,5,0
312,320,155974,1,0
288,304,156056,1,0
264,280,156138,1,0
240,256,156221,1,0
224,224,156303,1,0
208,192,156386,1,0
192,160,156468,1,0
176,136,156551,1,0
160,112,156633,1,0
136,136,156715,1,0
120,168,156798,1,0
112,200,156880,1,0
104,232,156963,1,0
88,264,157045,1,0
72,288,157128,1,0
56,320,157210,1,0
56,288,157292,1,0
56,264,157375,1,0
56,232,157457,1,0
56,200,157540,1,0
56,168,157622,1,0
56,136,157704,1,0
56,104,157787,1,0
72,80,157869,1,0
104,72,157952,1,0
136,72,158034,1,0
168,72,158117,1,0
200,72,158199,1,0
232,72,158281,1,0
264,72,158364,1,0
296,72,158446,1,0
328,72,158529,1,0
360,72,158611,1,0
392,72,158694,1,0
424,72,158776,1,0
448,88,158858,1,0
448,120,158941,1,0
448,152,159023,1,0
448,184,159106,1,0
448,216,159188,1,0
448,248,159271,1,0
448,280,159353,1,0
432,312,159435,1,0
416,336,159518,1,0
384,344,159600,1,0
352,352,159683,1,0
320,352,159765,1,0
288,352,159848,1,0
256,352,159930,1,0
224,352,160012,1,0
192,352,160095,1,0
160,352,160177,2,0,B|40:192|112:128,1,237.5
112,120,160672,1,0
136,120,160754,1,0
168,120,160837,1,0
192,120,160919,1,0
224,120,161002,1,0
256,120,161084,1,0
288,120,161166,1,0
320,120,161249,1,0
352,120,161331,1,0
384,120,161414,1,0
416,120,161496,5,0
464,192,161661,1,0
424,248,161826,1,0
392,248,161908,1,0
360,248,161991,1,0
328,248,162073,1,0
296,248,162156,1,0
264,248,162238,1,0
232,248,162320,1,0
200,248,162403,1,0
168,248,162485,1,0
136,248,162568,1,0
104,248,162650,1,0
64,248,162733,1,0
32,248,162815,5,0
32,128,162980,1,0
112,128,163145,1,0
144,128,163227,1,0
176,128,163310,1,0
208,128,163392,1,0
240,128,163474,1,0
272,128,163557,1,0
304,128,163639,1,0
336,128,163722,1,0
368,128,163804,1,0
400,128,163886,1,0
432,128,163969,1,0
464,128,164051,1,0
496,128,164134,5,0
472,240,164381,1,0
376,312,164628,1,0
296,320,164793,1,0
264,320,164876,1,0
232,320,164958,1,0
200,320,165040,1,0
168,312,165123,1,0
144,296,165205,1,0
120,280,165288,1,0
104,256,165370,1,0
88,232,165453,5,0
72,208,165535,1,0
72,168,165659,1,0
72,128,165782,1,0
72,96,165865,1,0
96,72,165988,1,0
136,56,166112,1,0
176,48,166194,1,0
208,48,166318,1,0
240,48,166442,1,0
272,48,166524,1,0
296,48,166607,1,0
320,48,166689,1,0
344,48,166771,5,0
376,56,166854,1,0
400,88,166936,1,0
424,112,167019,1,0
440,144,167101,1,0
448,176,167184,1,0
456,208,167266,1,0
456,240,167348,1,0
456,272,167431,2,0,B|456:296,8,23.75
456,240,167843,1,0
456,208,167925,1,0
448,176,168008,1,0
440,144,168090,5,0
424,112,168173,1,0
400,88,168255,1,0
376,56,168338,1,0
344,56,168420,1,0
312,56,168502,1,0
272,56,168585,1,0
240,56,168667,1,0
208,56,168750,1,0
176,56,168832,1,0
144,64,168915,1,0
120,80,168997,1,0
96,104,169079,1,0
80,136,169162,1,0
72,168,169244,1,0
72,200,169327,1,0
72,232,169409,5,0
72,272,169492,1,0
96,288,169574,1,0
128,296,169656,1,0
160,304,169739,1,0
192,304,169821,1,0
224,304,169904,1,0
256,304,169986,1,0
288,304,170068,1,0
320,304,170151,1,0
352,304,170233,1,0
392,296,170316,1,0
424,272,170398,1,0
432,240,170481,1,0
448,208,170563,1,0
448,176,170645,1,0
448,144,170728,5,0
448,112,170810,1,0
432,88,170893,1,0
400,80,170975,1,0
368,80,171058,1,0
336,80,171140,1,0
304,80,171222,1,0
272,80,171305,1,0
240,80,171387,1,0
208,80,171470,1,0
176,80,171552,1,0
144,80,171635,1,0
112,80,171717,1,0
88,96,171799,1,0
72,120,171882,1,0
64,152,171964,1,0
64,184,172047,5,0
56,264,172212,1,0
112,320,172376,1,0
144,320,172459,1,0
176,320,172541,1,0
208,320,172624,1,0
240,320,172706,1,0
272,320,172789,1,0
304,320,172871,1,0
336,320,172953,1,0
368,320,173036,1,0
400,320,173118,1,0
432,320,173201,1,0
464,320,173283,1,0
464,288,173366,5,0
464,192,173530,1,0
464,56,173695,1,0
432,56,173778,1,0
400,56,173860,1,0
368,56,173943,1,0
336,56,174025,1,0
304,56,174107,1,0
272,56,174190,1,0
240,56,174272,1,0
208,56,174355,1,0
176,56,174437,1,0
144,56,174520,1,0
112,56,174602,1,0
80,56,174684,5,0
48,192,174932,1,0
72,312,175179,1,0
176,312,175344,1,0
208,312,175426,1,0
240,312,175509,1,0
272,312,175591,1,0
304,312,175674,1,0
336,312,175756,1,0
368,312,175838,1,0
400,312,175921,1,0
432,312,176003,5,0
448,280,176086,1,0
464,240,176209,1,0
480,200,176333,1,0
480,160,176415,1,0
472,120,176539,1,0
456,80,176663,1,0
432,56,176745,1,0
400,64,176869,1,0
392,96,176992,1,0
384,128,177075,1,0
376,160,177157,1,0
368,192,177240,1,0
352,224,177322,5,0
336,256,177404,1,0
304,272,177487,1,0
280,248,177569,1,0
272,216,177652,1,0
272,184,177734,1,0
272,152,177817,1,0
264,120,177899,1,0
256,88,177981,1,0
240,56,178064,1,0
216,80,178146,1,0
208,112,178229,1,0
200,144,178311,1,0
192,176,178394,1,0
184,208,178476,1,0
176,240,178558,1,0
168,272,178641,5,0
152,304,178723,1,0
120,296,178806,1,0
112,264,178888,1,0
112,232,178971,1,0
112,200,179053,1,0
112,168,179135,1,0
112,136,179218,1,0
112,104,179300,1,0
112,72,179383,1,0
96,48,179465,1,0
72,72,179548,1,0
72,104,179630,1,0
72,136,179712,1,0
72,168,179795,1,0
72,200,179877,1,0
72,232,179960,5,0
112,232,180042,1,0
144,232,180125,1,0
176,232,180207,1,0
208,232,180289,1,0
240,232,180372,1,0
272,232,180454,1,0
304,232,180537,1,0
336,232,180619,1,0
368,232,180702,1,0
400,232,180784,1,0
432,232,180866,1,0
464,232,180949,1,0
464,200,181031,1,0
464,168,181114,1,0
464,136,181196,1,0
464,104,181279,2,0,B|352:16|240:16|184:32,1,285
176,48,181856,1,0
160,72,181938,1,0
144,104,182020,1,0
160,136,182103,1,0
184,160,182185,1,0
216,176,182268,1,0
256,176,182350,1,0
288,160,182432,1,0
312,136,182515,1,0
328,112,182597,6,0,B|472:264|408:328|328:336,1,285
320,344,183174,1,0
288,344,183257,1,0
256,344,183339,1,0
224,344,183422,1,0
192,344,183504,1,0
160,344,183586,1,0
128,344,183669,1,0
96,344,183751,1,0
64,344,183834,1,0
32,344,183916,6,0,B|32:192|128:64,1,285
144,56,184493,1,0
168,40,184576,1,0
192,32,184658,1,0
224,32,184740,1,0
248,40,184823,1,0
272,48,184905,1,0
296,64,184988,1,0
312,88,185070,1,0
336,112,185153,1,0
352,136,185235,1,0
256,208,185276,12,0,191829
