osu file format v14

[General]
AudioFilename: optc.mp3
AudioLeadIn: 0
PreviewTime: 67872
Countdown: 0
SampleSet: Soft
StackLeniency: 0.7
Mode: 0
LetterboxInBreaks: 0
WidescreenStoryboard: 0

[Editor]
Bookmarks: 428,7539,25316,39539,53761,67983,82205,99983,110650
DistanceSpacing: 1.2
BeatDivisor: 4
GridSize: 16
TimelineZoom: 2.1

[Metadata]
Title:Todokanai Koi
TitleUnicode:届かない恋
Artist:Rena Uehara
ArtistUnicode:上原れな
Creator:Shad0w1and
Version:Mou Hito o Aise Nai.
Source:WHITE ALBUM2
Tags:Leaf introductory closing chapter coda galgame Flask Pata-Mon
BeatmapID:1226653
BeatmapSetID:579307

[Difficulty]
HPDrainRate:6
CircleSize:4
OverallDifficulty:7.5
ApproachRate:8
SliderMultiplier:1.4
SliderTickRate:1

[Events]
//Background and Video events
0,0,"BG.jpg",0,0
Video,0,"optc.flv"
//Break Periods
//Storyboard Layer 0 (Background)
//Storyboard Layer 1 (Fail)
//Storyboard Layer 2 (Pass)
//Storyboard Layer 3 (Foreground)
//Storyboard Sound Samples

[TimingPoints]
428,444.444444444444,4,2,1,10,1,0
1316,-100,4,2,1,15,0,0
2205,-100,4,2,1,20,0,0
3094,-100,4,2,1,25,0,0
3983,-100,4,2,1,30,0,0
4872,-100,4,2,1,35,0,0
5761,-100,4,2,1,40,0,0
6650,-100,4,2,1,5,0,0
6872,-100,4,2,1,80,0,0
7539,-66.6666666666667,4,2,1,80,0,0
24872,-66.6666666666667,4,2,1,65,0,0
25316,-76.9230769230769,4,2,1,50,0,0
39539,-71.4285714285714,4,2,1,50,0,0
53761,-83.3333333333333,4,2,1,50,0,0
60872,-83.3333333333333,4,2,1,60,0,0
64427,-66.6666666666667,4,2,1,70,0,0
66205,-100,4,2,1,70,0,0
67983,-58.8235294117647,4,2,1,80,0,1
99983,-62.5,4,2,1,80,0,0
108872,-62.5,4,2,1,85,0,0
109761,-62.5,4,2,1,90,0,0
110650,-66.6666666666667,4,2,1,70,0,0
115872,-66.6666666666667,4,2,1,30,0,0
124872,-66.6666666666667,4,2,1,5,0,0

[Colours]
Combo1 : 95,128,241
Combo2 : 225,225,225
Combo3 : 116,217,250
Combo4 : 201,148,95

[HitObjects]
256,192,428,12,0,6650,0:0:0:0:
86,112,6872,5,4,0:1:0:0:
203,296,7094,1,8,0:1:0:0:
203,296,7539,6,0,P|256:289|316:288,1,105.000004005432,6|2,0:0|0:1,0:0:0:0:
402,204,7983,1,8,0:0:0:0:
230,86,8205,1,4,0:1:0:0:
230,86,8316,1,4,0:1:0:0:
230,86,8427,1,2,0:0:0:0:
299,191,8650,1,2,0:1:0:0:
173,199,8872,1,8,0:0:0:0:
358,78,9094,1,4,0:1:0:0:
358,78,9205,1,4,0:1:0:0:
358,78,9316,6,0,L|473:85,1,105.000004005432,10|2,0:3|0:1,0:0:0:0:
299,191,9761,1,8,0:0:0:0:
230,86,9983,1,4,0:1:0:0:
230,86,10094,1,4,0:1:0:0:
230,86,10205,2,0,L|236:15,2,52.5000020027161,2|0|2,0:0|0:0|0:1,0:0:0:0:
203,296,10650,1,8,0:0:0:0:
299,191,10872,1,4,0:1:0:0:
56,206,11094,6,0,P|44:266|40:312,1,105.000004005432,10|2,0:3|0:1,0:0:0:0:
173,199,11539,1,8,0:0:0:0:
106,92,11761,1,4,0:1:0:0:
106,92,11872,1,4,0:1:0:0:
106,92,11983,1,2,0:0:0:0:
56,206,12205,1,2,0:1:0:0:
230,86,12427,1,8,0:0:0:0:
299,191,12650,1,4,0:1:0:0:
299,191,12761,1,4,0:1:0:0:
299,191,12872,6,0,P|358:194|422:193,1,105.000004005432,10|2,0:3|0:1,0:0:0:0:
492,282,13316,1,8,0:0:0:0:
374,361,13539,1,4,0:1:0:0:
374,361,13650,1,4,0:1:0:0:
374,361,13761,2,0,L|381:292,2,52.5000020027161,2|0|2,0:0|0:0|0:1,0:0:0:0:
203,296,14205,2,0,P|145:274|114:234,1,105.000004005432,12|0,0:0|0:0,0:0:0:0:
118,242,14650,6,0,P|124:303|124:378,1,105.000004005432,6|2,0:0|0:1,0:0:0:0:
211,168,15094,1,8,0:0:0:0:
106,92,15316,1,4,0:1:0:0:
106,92,15427,1,4,0:1:0:0:
106,92,15539,1,2,0:0:0:0:
118,242,15761,1,2,0:1:0:0:
230,86,15983,1,8,0:0:0:0:
403,193,16205,1,4,0:1:0:0:
403,193,16316,1,4,0:1:0:0:
403,193,16427,6,0,P|386:250|371:316,1,105.000004005432,10|2,0:3|0:1,0:0:0:0:
257,340,16872,1,8,0:0:0:0:
170,246,17094,1,4,0:1:0:0:
170,246,17205,1,4,0:1:0:0:
170,246,17316,2,0,L|94:240,2,52.5000020027161,2|0|2,0:0|0:0|0:1,0:0:0:0:
230,86,17761,2,0,P|201:38|150:10,1,105.000004005432,8|0,0:0|0:0,0:0:0:0:
120,125,18205,5,6,0:0:0:0:
318,168,18427,1,2,0:1:0:0:
117,241,18650,1,8,0:0:0:0:
230,86,18872,1,4,0:1:0:0:
230,86,18983,1,4,0:1:0:0:
230,86,19094,5,2,0:1:0:0:
235,274,19316,1,2,0:1:0:0:
417,73,19539,1,8,0:0:0:0:
334,240,19761,1,2,0:1:0:0:
512,243,19983,5,10,0:3:0:0:
249,290,20205,1,2,0:1:0:0:
359,94,20427,1,8,0:0:0:0:
396,308,20650,1,4,0:1:0:0:
396,308,20761,1,4,0:1:0:0:
396,308,20872,5,2,0:0:0:0:
447,146,21094,1,2,0:1:0:0:
249,290,21316,1,8,0:0:0:0:
304,48,21539,1,4,0:1:0:0:
304,48,21650,1,4,0:1:0:0:
304,48,21761,5,6,0:0:0:0:
334,240,21983,1,2,0:1:0:0:
139,81,22205,1,8,0:0:0:0:
92,317,22427,1,4,0:1:0:0:
92,317,22539,1,4,0:1:0:0:
92,317,22650,5,2,0:0:0:0:
232,180,22872,1,2,0:1:0:0:
43,185,23094,1,8,0:0:0:0:
249,290,23316,1,2,0:1:0:0:
139,81,23539,5,6,0:0:0:0:
396,217,23761,1,2,0:1:0:0:
117,241,23983,1,8,0:0:0:0:
117,241,24094,1,4,0:1:0:0:
117,241,24205,1,4,0:1:0:0:
229,372,24427,6,0,P|245:318|246:249,1,105.000004005432,4|2,0:1|0:1,0:0:0:0:
222,144,24872,2,0,P|285:155|344:163,1,105.000004005432,12|0,0:0|0:0,0:0:0:0:
229,372,25316,6,0,P|173:346|147:252,1,136.499993751526,6|0,0:0|0:0,0:0:0:0:
173,196,25761,2,0,P|163:248|134:290,1,90.9999958343508,8|0,0:0|0:0,0:0:0:0:
65,203,26205,1,2,0:0:0:0:
247,269,26427,1,2,0:1:0:0:
194,107,26650,2,0,P|181:153|170:216,1,90.9999958343508,8|0,0:0|0:0,0:0:0:0:
325,160,27094,6,0,P|369:154|418:152,1,90.9999958343508,10|0,0:3|0:0,0:0:0:0:
368,250,27539,2,0,P|354:285|339:343,2,90.9999958343508,8|0|2,0:0|0:0|0:0,0:0:0:0:
456,314,28205,1,2,0:1:0:0:
247,269,28427,1,8,0:0:0:0:
325,160,28650,1,4,0:1:0:0:
325,160,28761,1,4,0:1:0:0:
325,160,28872,6,0,P|299:82|232:59,1,136.499993751526,10|0,0:3|0:0,0:0:0:0:
194,107,29316,1,8,0:0:0:0:
247,269,29539,2,0,P|295:257|348:249,1,90.9999958343508,4|2,0:1|0:0,0:0:0:0:
439,285,29983,1,2,0:1:0:0:
325,160,30205,1,8,0:0:0:0:
247,269,30427,1,4,0:1:0:0:
247,269,30539,1,4,0:1:0:0:
247,269,30650,6,0,P|186:274|127:272,1,90.9999958343508,10|0,0:3|0:0,0:0:0:0:
43,291,31094,2,0,P|55:251|66:196,1,90.9999958343508,8|0,0:0|0:0,0:0:0:0:
171,158,31539,1,2,0:0:0:0:
171,158,31650,1,4,0:1:0:0:
171,158,31761,1,2,0:1:0:0:
247,269,31983,2,0,P|291:269|350:225,1,90.9999958343508,8|0,0:0|0:0,0:0:0:0:
414,318,32427,6,0,P|417:241|422:181,1,136.499993751526,10|0,0:3|0:0,0:0:0:0:
511,165,32872,2,0,P|454:179|403:181,1,90.9999958343508,8|0,0:0|0:0,0:0:0:0:
325,133,33316,1,2,0:0:0:0:
331,247,33539,1,2,0:1:0:0:
171,158,33761,2,0,P|167:110|205:43,1,90.9999958343508,8|0,0:0|0:0,0:0:0:0:
181,70,34205,6,0,P|136:62|92:49,1,90.9999958343508,10|0,0:3|0:0,0:0:0:0:
0,190,34650,2,0,P|49:177|117:173,1,90.9999958343508,8|0,0:0|0:0,0:0:0:0:
247,269,35094,1,2,0:0:0:0:
247,269,35205,1,4,0:1:0:0:
247,269,35316,1,2,0:1:0:0:
181,70,35539,1,8,0:0:0:0:
116,275,35761,1,0,0:0:0:0:
325,133,35983,6,0,P|384:145|437:214,1,136.499993751526,10|0,0:3|0:0,0:0:0:0:
416,274,36427,1,8,0:0:0:0:
247,269,36650,2,0,L|230:203,2,45.4999979171754,4|0|2,0:1|0:0|0:0,0:0:0:0:
165,366,37094,6,0,L|120:375,1,45.4999979171754,2|0,0:1|0:0,0:0:0:0:
116,275,37316,2,0,L|71:284,1,45.4999979171754,8|0,0:0|0:0,0:0:0:0:
67,184,37539,2,0,L|22:193,1,45.4999979171754,4|0,0:1|0:0,0:0:0:0:
92,49,37761,6,0,P|125:60|204:71,1,90.9999958343508,10|0,0:3|0:0,0:0:0:0:
414,116,38205,2,0,P|359:123|316:136,1,90.9999958343508,8|0,0:0|0:0,0:0:0:0:
262,167,38539,1,4,0:1:0:0:
262,167,38650,5,2,0:0:0:0:
320,17,38872,1,2,0:1:0:0:
432,200,39094,2,0,P|422:265|418:310,1,90.9999958343508,8|0,0:0|0:0,0:0:0:0:
353,252,39427,1,4,0:1:0:0:
353,252,39539,6,0,P|283:215|196:222,1,146.999995513916,6|0,0:0|0:0,0:0:0:0:
152,259,39983,2,0,P|158:314|162:376,1,97.9999970092774,8|0,0:0|0:0,0:0:0:0:
51,222,40427,1,2,0:0:0:0:
257,333,40650,1,2,0:1:0:0:
167,162,40872,2,0,P|158:207|149:287,1,97.9999970092774,8|0,0:0|0:0,0:0:0:0:
397,191,41316,6,0,P|372:154|311:131,1,97.9999970092774,10|0,0:3|0:0,0:0:0:0:
153,64,41761,2,0,P|161:113|167:172,1,97.9999970092774,8|0,0:0|0:0,0:0:0:0:
51,222,42205,1,2,0:0:0:0:
51,222,42316,1,4,0:1:0:0:
51,222,42427,1,2,0:1:0:0:
58,104,42650,1,8,0:0:0:0:
151,258,42872,1,4,0:1:0:0:
151,258,42983,1,4,0:1:0:0:
151,258,43094,6,0,P|240:246|283:183,1,146.999995513916,10|0,0:3|0:0,0:0:0:0:
295,129,43539,1,8,0:0:0:0:
419,290,43761,2,0,P|365:282|319:277,1,97.9999970092774,4|2,0:1|0:0,0:0:0:0:
167,162,44205,1,2,0:1:0:0:
295,129,44427,1,8,0:0:0:0:
151,258,44650,1,4,0:1:0:0:
151,258,44761,1,4,0:1:0:0:
151,258,44872,6,0,P|95:242|22:231,1,97.9999970092774,10|0,0:3|0:0,0:0:0:0:
275,205,45316,2,0,P|326:201|404:185,1,97.9999970092774,8|0,0:0|0:0,0:0:0:0:
425,88,45761,1,2,0:0:0:0:
425,88,45872,1,4,0:1:0:0:
425,88,45983,1,2,0:1:0:0:
308,32,46205,2,0,P|297:83|294:129,1,97.9999970092774,8|0,0:0|0:0,0:0:0:0:
151,258,46650,6,0,P|91:226|74:134,1,146.999995513916,10|0,0:3|0:0,0:0:0:0:
85,75,47094,2,0,P|134:77|211:70,1,97.9999970092774,8|0,0:0|0:0,0:0:0:0:
308,32,47539,1,2,0:0:0:0:
167,162,47761,1,2,0:1:0:0:
330,214,47983,2,0,P|323:164|264:114,1,97.9999970092774,8|0,0:0|0:0,0:0:0:0:
271,289,48427,6,0,P|317:307|390:282,1,97.9999970092774,10|0,0:3|0:0,0:0:0:0:
235,203,48872,2,0,P|195:234|181:309,1,97.9999970092774,8|0,0:0|0:0,0:0:0:0:
363,300,49316,1,2,0:0:0:0:
363,300,49427,1,4,0:1:0:0:
363,300,49539,1,2,0:1:0:0:
293,128,49761,1,8,0:0:0:0:
425,225,49983,1,4,0:1:0:0:
271,289,50205,6,0,P|191:248|129:236,1,146.999995513916,10|0,0:3|0:0,0:0:0:0:
58,262,50650,1,8,0:0:0:0:
167,162,50872,2,0,L|163:88,2,48.9999985046387,4|0|2,0:1|0:0|0:0,0:0:0:0:
319,234,51316,6,0,L|323:286,1,48.9999985046387,2|0,0:1|0:0,0:0:0:0:
246,171,51539,2,0,L|242:223,1,48.9999985046387,8|0,0:0|0:0,0:0:0:0:
312,84,51761,2,0,L|316:136,1,48.9999985046387,4|0,0:1|0:0,0:0:0:0:
164,113,51983,6,0,P|109:109|51:83,1,97.9999970092774,10|0,0:3|0:0,0:0:0:0:
0,133,52316,1,4,0:1:0:0:
0,133,52427,2,0,P|11:186|19:261,1,97.9999970092774,8|0,0:0|0:0,0:0:0:0:
88,272,52761,1,4,0:1:0:0:
88,272,52872,5,2,0:0:0:0:
164,113,53094,1,2,0:1:0:0:
261,222,53316,2,0,P|204:218|133:208,1,97.9999970092774,8|0,0:0|0:0,0:0:0:0:
186,291,53650,1,4,0:1:0:0:
186,291,53761,6,0,P|204:333|289:358,1,125.999996154785,6|0,0:0|0:0,0:0:0:0:
352,352,54205,2,0,P|359:315|374:262,2,83.9999974365235,0|2|0,0:0|0:1|0:0,0:0:0:0:
463,312,54872,1,2,0:1:0:0:
272,273,55094,1,8,0:0:0:0:
458,206,55316,1,4,0:1:0:0:
458,206,55427,1,4,0:1:0:0:
458,206,55539,6,0,B|462:159|487:93|487:93|441:58,1,167.999994873047,10|0,0:3|0:0,0:0:0:0:
253,180,56205,2,0,L|264:244,1,41.9999987182618,2|0,0:1|0:0,0:0:0:0:
333,122,56427,1,0,0:0:0:0:
333,122,56539,1,0,0:0:0:0:
333,122,56650,2,0,L|339:62,1,41.9999987182618,2|0,0:1|0:0,0:0:0:0:
377,205,56872,2,0,P|421:215|460:204,1,83.9999974365235,8|0,0:1|0:0,0:0:0:0:
352,352,57316,6,0,P|301:311|230:302,1,125.999996154785,10|0,0:3|0:0,0:0:0:0:
181,254,57761,2,0,P|132:268|70:272,2,83.9999974365235,0|2|0,0:0|0:1|0:0,0:0:0:0:
253,180,58427,1,2,0:1:0:0:
164,113,58650,1,8,0:0:0:0:
78,190,58872,1,4,0:1:0:0:
78,190,58983,1,4,0:1:0:0:
78,190,59094,6,0,P|91:236|102:293,2,83.9999974365235,10|0|0,0:3|0:0|0:0,0:0:0:0:
242,300,59761,2,0,L|311:313,1,41.9999987182618,2|0,0:1|0:0,0:0:0:0:
342,247,59983,1,0,0:0:0:0:
342,247,60094,1,0,0:0:0:0:
342,247,60205,2,0,L|402:229,1,41.9999987182618,2|0,0:1|0:0,0:0:0:0:
447,289,60427,2,0,P|455:251|461:177,1,83.9999974365235,8|0,0:1|0:0,0:0:0:0:
381,74,60872,6,0,P|322:69|239:45,1,125.999996154785,10|0,0:3|0:0,0:0:0:0:
262,178,61316,2,0,L|313:147,1,41.9999987182618
195,116,61539,2,0,P|157:88|124:33,1,83.9999974365235,2|0,0:1|0:0,0:0:0:0:
257,52,61983,5,2,0:1:0:0:
61,108,62205,2,0,P|69:152|90:210,1,83.9999974365235,8|0,0:0|0:0,0:0:0:0:
98,271,62539,1,4,0:1:0:0:
98,271,62650,6,0,P|159:259|233:254,2,125.999996154785,10|4|4,0:3|0:1|0:1,0:0:0:0:
250,360,63539,5,8,0:1:0:0:
342,247,63761,1,2,0:1:0:0:
342,247,63872,1,4,0:1:0:0:
342,247,63983,2,0,P|338:193|330:135,1,83.9999974365235,2|4,0:0|0:1,0:0:0:0:
125,154,64427,6,0,P|151:227|244:249,1,157.500006008148,6|0,0:0|0:0,0:0:0:0:
342,247,64872,1,8,0:1:0:0:
118,293,65094,1,4,0:1:0:0:
221,157,65316,1,8,0:1:0:0:
316,352,65539,6,0,L|380:346,1,52.5000020027161,2|0,0:1|0:0,0:0:0:0:
118,293,65761,2,0,L|35:283,1,52.5000020027161,8|0,0:1|0:0,0:0:0:0:
342,247,65983,2,0,L|428:232,1,52.5000020027161,4|0,0:1|0:0,0:0:0:0:
211,365,66205,6,0,B|207:317|236:282|236:282|211:234|211:234|207:195|220:156|220:156|241:182|238:209,1,280,6|0,0:0|0:0,0:0:0:0:
118,293,67316,1,2,0:1:0:0:
316,352,67539,6,0,L|342:317,3,35,8|0|0|0,0:1|0:0|0:0|0:0,0:0:0:0:
389,290,67983,6,0,P|324:285|236:269,1,119.000002269745,6|0,0:0|0:0,0:0:0:0:
220,156,68427,1,8,0:0:0:0:
334,163,68650,1,4,0:1:0:0:
182,53,68872,1,2,0:0:0:0:
238,209,69094,1,2,0:1:0:0:
321,48,69316,2,0,P|374:56|435:117,1,119.000002269745,8|0,0:1|0:0,0:0:0:0:
238,209,69761,6,0,P|179:199|119:195,1,119.000002269745,10|0,0:3|0:0,0:0:0:0:
31,307,70205,1,8,0:0:0:0:
172,287,70427,1,4,0:1:0:0:
6,198,70650,1,2,0:0:0:0:
220,156,70872,1,2,0:1:0:0:
50,20,71094,2,0,P|56:98|65:176,1,119.000002269745,8|0,0:1|0:0,0:0:0:0:
238,209,71539,5,10,0:3:0:0:
182,53,71761,1,2,0:1:0:0:
119,195,71983,1,8,0:1:0:0:
280,122,72205,1,4,0:1:0:0:
60,138,72427,5,2,0:0:0:0:
172,287,72650,1,2,0:1:0:0:
280,122,72872,2,0,P|264:89|243:57,1,59.5000011348725,8|0,0:1|0:0,0:0:0:0:
373,158,73094,2,0,P|375:135|376:98,1,59.5000011348725,4|0,0:1|0:0,0:0:0:0:
312,248,73316,6,0,P|291:262|245:281,1,59.5000011348725,10|0,0:3|0:0,0:0:0:0:
362,340,73539,2,0,P|388:352|442:366,1,59.5000011348725,2|0,0:1|0:0,0:0:0:0:
471,229,73761,2,0,P|435:245|404:262,1,59.5000011348725,8|0,0:1|0:0,0:0:0:0:
315,141,73983,2,0,P|348:149|395:167,1,59.5000011348725,4|0,0:1|0:0,0:0:0:0:
443,76,74205,5,2,0:0:0:0:
417,254,74427,1,2,0:1:0:0:
252,69,74650,1,8,0:1:0:0:
252,69,74872,1,4,0:1:0:0:
119,195,75094,6,0,P|22:160|8:89,1,178.500003404617,6|0,0:0|0:0,0:0:0:0:
46,25,75539,1,8,0:0:0:0:
222,134,75761,2,0,P|247:131|283:120,2,59.5000011348725,4|0|2,0:1|0:0|0:0,0:0:0:0:
99,102,76205,1,2,0:1:0:0:
301,15,76427,2,0,P|357:50|382:105,1,119.000002269745,8|0,0:1|0:0,0:0:0:0:
228,290,76872,6,0,B|221:225|186:173|186:173|235:118,1,178.500003404617,10|0,0:3|0:0,0:0:0:0:
282,186,77316,1,8,0:0:0:0:
98,271,77539,1,4,0:1:0:0:
98,271,77650,1,4,0:1:0:0:
98,271,77761,2,0,L|6:265,1,59.5000011348725,2|0,0:0|0:0,0:0:0:0:
152,373,77983,2,0,L|211:368,1,59.5000011348725,2|0,0:1|0:0,0:0:0:0:
282,186,78205,2,0,P|227:211|201:292,1,119.000002269745,8|0,0:1|0:0,0:0:0:0:
417,254,78650,5,6,0:0:0:0:
252,69,78872,1,2,0:1:0:0:
443,76,79094,1,8,0:1:0:0:
200,261,79316,2,0,B|132:226|136:161|136:161|161:173|194:174,1,178.500003404617,6|0,0:0|0:0,0:0:0:0:
282,186,79761,6,0,P|318:167|367:132,1,59.5000011348725,2|0,0:1|0:0,0:0:0:0:
417,254,79983,2,0,P|370:265|327:265,1,59.5000011348725,8|0,0:1|0:0,0:0:0:0:
275,357,80205,2,0,P|312:358|357:368,1,59.5000011348725,4|0,0:1|0:0,0:0:0:0:
435,362,80427,5,6,0:0:0:0:
282,186,80650,1,2,0:1:0:0:
275,357,80872,1,8,0:1:0:0:
471,229,81094,2,0,B|467:168|481:96|481:96|433:125,1,178.500003404617,6|0,0:0|0:0,0:0:0:0:
377,198,81539,5,2,0:0:0:0:
329,193,81650,1,2,0:0:0:0:
282,186,81761,1,8,0:1:0:0:
376,312,81983,1,4,0:1:0:0:
442,119,82205,6,0,P|410:73|326:60,1,119.000002269745,6|0,0:0|0:0,0:0:0:0:
210,139,82650,1,8,0:0:0:0:
377,198,82872,1,4,0:1:0:0:
200,261,83094,1,2,0:0:0:0:
279,121,83316,1,2,0:1:0:0:
103,202,83539,2,0,P|112:268|118:343,1,119.000002269745,8|0,0:1|0:0,0:0:0:0:
274,356,83983,6,0,P|338:350|379:308,1,119.000002269745,10|0,0:3|0:0,0:0:0:0:
200,261,84427,1,8,0:0:0:0:
279,121,84650,1,4,0:1:0:0:
295,256,84872,1,2,0:0:0:0:
173,198,85094,1,2,0:1:0:0:
396,195,85316,2,0,L|372:338,1,119.000002269745,8|0,0:1|0:0,0:0:0:0:
308,133,85761,5,10,0:3:0:0:
480,272,85983,1,2,0:1:0:0:
295,256,86205,1,8,0:1:0:0:
473,158,86427,1,4,0:1:0:0:
398,346,86650,5,2,0:0:0:0:
308,133,86872,1,2,0:1:0:0:
200,261,87094,2,0,P|216:294|237:326,1,59.5000011348725,8|0,0:1|0:0,0:0:0:0:
107,225,87316,2,0,P|105:248|104:285,1,59.5000011348725,4|0,0:1|0:0,0:0:0:0:
168,135,87539,6,0,P|189:121|235:102,1,59.5000011348725,10|0,0:3|0:0,0:0:0:0:
118,43,87761,2,0,P|92:31|38:17,1,59.5000011348725,2|0,0:1|0:0,0:0:0:0:
9,154,87983,2,0,P|45:138|76:121,1,59.5000011348725,8|0,0:1|0:0,0:0:0:0:
165,242,88205,2,0,P|132:234|85:216,1,59.5000011348725,4|0,0:1|0:0,0:0:0:0:
0,278,88427,5,2,0:0:0:0:
228,313,88650,1,2,0:1:0:0:
62,128,88872,1,8,0:1:0:0:
62,128,89094,1,4,0:1:0:0:
220,106,89316,6,0,P|188:166|167:220,2,119.000002269745,6|0|8,0:0|0:0|0:0,0:0:0:0:
353,265,89983,2,0,P|318:260|267:248,2,59.5000011348725,4|0|2,0:1|0:0|0:0,0:0:0:0:
308,133,90427,1,2,0:1:0:0:
228,313,90650,1,8,0:0:0:0:
62,128,90872,1,0,0:0:0:0:
62,128,90983,1,0,0:0:0:0:
62,128,91094,6,0,B|55:58|36:9|36:9|95:28,1,178.500003404617,10|0,0:3|0:0,0:0:0:0:
162,60,91539,1,8,0:0:0:0:
169,213,91761,1,4,0:1:0:0:
169,213,91872,1,4,0:1:0:0:
169,213,91983,6,0,P|127:222|81:221,1,59.5000011348725,2|0,0:0|0:0,0:0:0:0:
0,243,92205,2,0,P|28:274|50:315,1,59.5000011348725,2|0,0:1|0:0,0:0:0:0:
109,374,92427,2,0,P|122:333|146:293,2,59.5000011348725,8|0|0,0:0|0:0|0:0,0:0:0:0:
62,128,92872,5,6,0:0:0:0:
294,255,93094,1,2,0:1:0:0:
55,297,93316,1,8,0:1:0:0:
220,106,93539,2,0,P|211:190|198:249,1,119.000002269745,6|0,0:0|0:0,0:0:0:0:
55,297,93983,1,2,0:1:0:0:
62,128,94205,2,0,P|89:148|114:163,2,59.5000011348725,8|0|4,0:1|0:0|0:1,0:0:0:0:
149,330,94650,5,6,0:0:0:0:
220,106,94872,1,2,0:1:0:0:
0,243,95094,1,8,0:1:0:0:
294,255,95316,2,0,P|312:184|339:53,1,178.500003404617,6|0,0:0|0:0,0:0:0:0:
408,149,95761,5,2,0:0:0:0:
408,149,95872,1,2,0:0:0:0:
408,149,95983,2,0,P|463:141|408:67,1,178.500003404617,14|0,0:0|0:0,0:0:0:0:
291,163,96427,5,6,0:0:0:0:
461,246,96650,1,2,0:1:0:0:
422,63,96872,1,8,0:1:0:0:
294,255,97094,2,0,L|297:327,2,59.5000011348725,4|0|2,0:1|0:0|0:0,0:0:0:0:
288,73,97539,1,2,0:1:0:0:
408,149,97761,1,8,0:1:0:0:
209,140,97983,2,0,P|175:128|136:107,1,59.5000011348725,4|0,0:1|0:0,0:0:0:0:
118,223,98205,6,0,P|139:283|147:349,2,119.000002269745,10|0|8,0:3|0:0|0:1,0:0:0:0:
3,136,98872,1,4,0:1:0:0:
3,136,98983,1,4,0:1:0:0:
3,136,99094,2,0,P|36:133|76:123,1,59.5000011348725,2|0,0:0|0:0,0:0:0:0:
178,227,99316,6,0,P|150:226|97:218,1,59.5000011348725,2|0,0:1|0:0,0:0:0:0:
236,319,99539,2,0,P|205:330|161:341,1,59.5000011348725,8|0,0:1|0:0,0:0:0:0:
302,224,99761,1,4,0:1:0:0:
302,224,99872,1,4,0:1:0:0:
302,224,99983,6,0,P|293:170|297:91,1,112,6|2,0:0|0:1,0:0:0:0:
410,47,100427,1,8,0:0:0:0:
422,220,100650,1,4,0:1:0:0:
422,220,100761,1,4,0:1:0:0:
422,220,100872,1,2,0:0:0:0:
326,134,101094,1,2,0:1:0:0:
497,120,101316,1,8,0:0:0:0:
340,23,101539,1,4,0:1:0:0:
340,23,101650,1,4,0:1:0:0:
340,23,101761,6,0,P|329:90|325:168,1,112,10|2,0:3|0:1,0:0:0:0:
178,227,102205,1,8,0:0:0:0:
169,82,102427,1,4,0:1:0:0:
169,82,102539,1,4,0:1:0:0:
169,82,102650,2,0,P|198:95|240:115,2,56,2|0|2,0:0|0:0|0:1,0:0:0:0:
0,199,103094,1,8,0:0:0:0:
28,67,103316,1,4,0:1:0:0:
178,227,103539,6,0,P|246:228|310:185,1,112,10|2,0:3|0:1,0:0:0:0:
340,23,103983,1,8,0:0:0:0:
219,105,104205,1,4,0:1:0:0:
219,105,104316,1,4,0:1:0:0:
219,105,104427,1,2,0:0:0:0:
422,220,104650,1,2,0:1:0:0:
178,227,104872,1,8,0:0:0:0:
294,320,105094,1,4,0:1:0:0:
294,320,105205,1,4,0:1:0:0:
294,320,105316,6,0,P|289:254|279:175,1,112,10|2,0:3|0:1,0:0:0:0:
219,105,105761,1,8,0:0:0:0:
122,231,105983,1,4,0:1:0:0:
122,231,106094,1,4,0:1:0:0:
122,231,106205,2,0,L|200:225,2,56,2|0|2,0:0|0:0|0:1,0:0:0:0:
122,62,106650,2,0,P|183:71|223:115,1,112,12|0,0:0|0:0,0:0:0:0:
283,208,107094,6,0,P|331:188|400:176,1,112,6|2,0:0|0:1,0:0:0:0:
507,242,107539,1,8,0:0:0:0:
343,313,107761,1,4,0:1:0:0:
343,313,107872,1,4,0:1:0:0:
343,313,107983,1,2,0:0:0:0:
467,363,108205,1,2,0:1:0:0:
389,176,108427,1,8,0:0:0:0:
311,335,108650,1,4,0:1:0:0:
311,335,108761,1,4,0:1:0:0:
311,335,108872,5,10,0:3:0:0:
218,104,109094,1,2,0:1:0:0:
179,337,109316,1,8,0:0:0:0:
389,176,109539,1,4,0:1:0:0:
51,156,109761,5,2,0:0:0:0:
311,335,109983,1,2,0:1:0:0:
340,23,110205,1,12,0:0:0:0:
178,227,110427,1,4,0:1:0:0:
178,227,110539,1,4,0:1:0:0:
178,227,110650,6,0,P|82:201|44:118,1,157.500006008148,6|0,0:0|0:0,0:0:0:0:
114,79,111094,1,8,0:0:0:0:
146,337,111316,2,0,P|208:322|338:301,1,157.500006008148,10|0,0:3|0:0,0:0:0:0:
326,200,111761,1,8,0:0:0:0:
51,156,111983,2,0,B|31:98|8:62|8:62|43:12,1,157.500006008148,6|0,0:0|0:0,0:0:0:0:
114,79,112427,1,8,0:0:0:0:
178,227,112650,6,0,P|228:242|280:249,2,105.000004005432,10|4|2,0:3|0:1|0:0,0:0:0:0:
106,349,113316,1,2,0:0:0:0:
126,343,113427,1,4,0:1:0:0:
146,337,113539,1,4,0:1:0:0:
0,249,113761,2,0,P|6:308|11:386,1,105.000004005432,12|0,0:0|0:0,0:0:0:0:
276,365,114205,6,0,P|325:356|391:245,1,157.500006008148,6|0,0:0|0:0,0:0:0:0:
360,178,114650,1,8,0:0:0:0:
178,227,114872,6,0,B|129:210|97:180|97:180|56:213,2,140.000005340576,10|4|2,0:3|0:1|0:0,0:0:0:0:
218,64,115761,1,6,0:0:0:0:
256,192,115872,12,0,124872,0:0:0:0:
