osu file format v14

[General]
AudioFilename: optc.mp3
AudioLeadIn: 0
PreviewTime: 67872
Countdown: 0
SampleSet: Soft
StackLeniency: 0.7
Mode: 0
LetterboxInBreaks: 0
WidescreenStoryboard: 1

[Editor]
Bookmarks: 428,7539,25316,39539,53761,67983,82205,99983,110650
DistanceSpacing: 1
BeatDivisor: 2
GridSize: 16
TimelineZoom: 2.1

[Metadata]
Title:Todokanai Koi
TitleUnicode:届かない恋
Artist:Rena Uehara
ArtistUnicode:上原れな
Creator:Shad0w1and
Version:Flask's Normal
Source:WHITE ALBUM2
Tags:Leaf introductory closing chapter coda galgame Flask Pata-Mon
BeatmapID:1255833
BeatmapSetID:579307

[Difficulty]
HPDrainRate:3
CircleSize:3
OverallDifficulty:3
ApproachRate:4
SliderMultiplier:1.2
SliderTickRate:1

[Events]
//Background and Video events
0,0,"BG.jpg",0,0
Video,0,"optc.flv"
//Break Periods
//Storyboard Layer 0 (Background)
//Storyboard Layer 1 (Fail)
//Storyboard Layer 2 (Pass)
//Storyboard Layer 3 (Foreground)
//Storyboard Sound Samples

[TimingPoints]
428,444.444444444444,4,2,1,10,1,0
1316,-100,4,2,1,15,0,0
2205,-100,4,2,1,20,0,0
3094,-100,4,2,1,25,0,0
3983,-100,4,2,1,30,0,0
4872,-100,4,2,1,35,0,0
5761,-100,4,2,1,40,0,0
6650,-100,4,2,1,5,0,0
6872,-100,4,2,1,80,0,0
7539,-100,4,2,1,80,0,0
24872,-100,4,2,1,65,0,0
25316,-100,4,2,1,50,0,0
39539,-100,4,2,1,50,0,0
53761,-100,4,2,1,50,0,0
60872,-100,4,2,1,60,0,0
64427,-100,4,2,1,70,0,0
66205,-100,4,2,1,70,0,0
67983,-100,4,2,1,80,0,1
99983,-100,4,2,1,80,0,0
108872,-100,4,2,1,85,0,0
109761,-100,4,2,1,90,0,0
110650,-100,4,2,1,70,0,0
115872,-100,4,2,1,30,0,0
124872,-100,4,2,1,5,0,0

[Colours]
Combo1 : 95,128,241
Combo2 : 225,225,225
Combo3 : 116,217,250
Combo4 : 201,148,95

[HitObjects]
256,192,428,12,0,5761,0:0:0:0:
32,240,6872,6,0,L|48:176,1,60,2|8,0:0|0:0,0:0:0:0:
4,70,7539,6,0,P|63:81|122:50,1,120,6|8,0:0|0:0,0:0:0:0:
230,91,8427,2,0,L|301:82,2,60,2|2|8,0:0|0:1|0:0,0:0:0:0:
201,144,9094,2,0,P|190:205|224:263,1,120,4|2,0:1|0:1,0:0:0:0:
248,305,9761,1,8,0:0:0:0:
306,290,9983,2,0,L|431:281,1,120,4|2,0:1|0:1,0:0:0:0:
485,274,10650,1,8,0:0:0:0:
494,154,11094,5,10,0:3:0:0:
381,111,11539,1,8,0:0:0:0:
317,212,11983,2,0,L|253:204,2,60,2|2|8,0:0|0:1|0:0,0:0:0:0:
349,267,12650,2,0,P|359:328|323:375,1,120,4|2,0:1|0:1,0:0:0:0:
267,365,13316,1,8,0:0:0:0:
207,372,13539,2,0,L|75:375,1,120,4|2,0:1|0:1,0:0:0:0:
27,368,14205,1,12,0:0:0:0:
44,249,14650,6,0,B|81:211|63:158|63:158|43:131,2,120,6|8|2,0:0|0:0|0:0,0:0:0:0:
102,262,15761,2,0,P|133:259|160:277,1,60,2|8,0:1|0:0,0:0:0:0:
204,235,16205,2,0,L|336:225,1,120,4|2,0:1|0:1,0:0:0:0:
375,261,16872,1,8,0:0:0:0:
419,221,17094,2,0,L|430:88,1,120,4|2,0:1|0:1,0:0:0:0:
436,41,17761,1,8,0:0:0:0:
336,107,18205,5,6,0:0:0:0:
244,28,18650,1,8,0:0:0:0:
180,129,19094,2,0,L|193:189,2,60,2|2|8,0:1|0:1|0:0,0:0:0:0:
74,72,19983,2,0,P|14:83|-13:147,1,120,10|8,0:3|0:0,0:0:0:0:
19,181,20650,2,0,B|45:237|45:237|16:297,1,120,4|2,0:1|0:1,0:0:0:0:
22,349,21316,1,8,0:0:0:0:
136,307,21761,6,0,P|193:287|254:309,1,120,6|8,0:0|0:0,0:0:0:0:
261,184,22650,2,0,L|245:122,2,60,2|2|8,0:0|0:1|0:0,0:0:0:0:
359,252,23539,2,0,P|390:240|431:244,1,60,6|2,0:0|0:1,0:0:0:0:
459,282,23983,1,8,0:0:0:0:
459,282,24205,2,0,B|452:230|452:230|464:201|464:201|459:145,1,120,4|2,0:1|0:1,0:0:0:0:
458,104,24872,1,12,0:0:0:0:
361,175,25316,6,0,L|232:164,1,120,6|8,0:0|0:0,0:0:0:0:
191,198,25983,2,0,P|163:256|174:313,1,120,0|2,0:0|0:1,0:0:0:0:
205,358,26650,1,8,0:0:0:0:
86,375,27094,2,0,L|63:246,1,120,10|8,0:3|0:0,0:0:0:0:
158,181,27983,1,2,0:0:0:0:
79,90,28427,2,0,L|72:27,1,60,8|4,0:0|0:1,0:0:0:0:
135,59,28872,6,0,P|195:76|255:47,1,120,10|8,0:3|0:0,0:0:0:0:
295,20,29539,2,0,L|312:157,1,120,4|2,0:1|0:1,0:0:0:0:
273,186,30205,2,0,L|282:252,1,60,8|4,0:0|0:1,0:0:0:0:
253,299,30650,1,10,0:3:0:0:
353,364,31094,1,8,0:0:0:0:
450,294,31539,2,0,P|461:239|433:177,1,120,2|8,0:0|0:0,0:0:0:0:
388,72,32427,6,0,L|259:65,1,120,10|8,0:3|0:0,0:0:0:0:
216,96,33094,2,0,P|165:127|96:108,1,120,0|2,0:0|0:1,0:0:0:0:
67,72,33761,1,8,0:0:0:0:
5,175,34205,2,0,L|26:297,1,120,10|8,0:3|0:0,0:0:0:0:
141,260,35094,1,2,0:0:0:0:
215,354,35539,2,0,P|250:346|306:320,1,60
326,365,35983,6,0,L|318:228,2,120,10|8|2,0:3|0:0|0:0,0:0:0:0:
383,348,37094,1,2,0:1:0:0:
383,348,37316,2,0,P|417:334|455:340,1,60,8|4,0:0|0:1,0:0:0:0:
498,346,37761,1,10,0:3:0:0:
501,226,38205,1,8,0:0:0:0:
383,202,38650,2,0,L|321:214,2,60,2|2|8,0:0|0:1|0:0,0:0:0:0:
443,98,39539,6,0,P|414:48|343:37,1,120,6|8,0:0|0:0,0:0:0:0:
305,64,40205,2,0,P|245:91|188:75,1,120,0|2,0:0|0:1,0:0:0:0:
140,52,40872,1,8,0:0:0:0:
112,168,41316,2,0,B|62:170|62:170|43:183|43:183|-14:184,2,120,10|8|2,0:3|0:0|0:0,0:0:0:0:
187,262,42650,2,0,L|250:258,1,60,8|4,0:0|0:1,0:0:0:0:
281,307,43094,6,0,P|282:251|332:192,1,120,10|8,0:3|0:0,0:0:0:0:
273,159,43761,2,0,L|281:28,1,120,4|2,0:1|0:1,0:0:0:0:
325,79,44427,2,0,P|360:81|386:73,1,60,8|4,0:0|0:1,0:0:0:0:
433,40,44872,1,10,0:3:0:0:
492,143,45316,1,8,0:0:0:0:
398,218,45761,1,2,0:0:0:0:
466,316,46205,1,8,0:0:0:0:
354,359,46650,6,0,B|309:365|275:339|275:339|249:377,1,120,10|8,0:3|0:0,0:0:0:0:
194,371,47316,2,0,P|147:332|87:347,1,120,0|2,0:0|0:1,0:0:0:0:
40,372,47983,1,8,0:0:0:0:
53,252,48427,2,0,L|36:122,1,120,10|8,0:3|0:0,0:0:0:0:
142,75,49316,1,2,0:0:0:0:
230,155,49761,2,0,L|238:217,1,60,8|4,0:0|0:1,0:0:0:0:
219,273,50205,6,0,B|276:268|276:268|302:277|302:277|358:275,2,120,10|8|2,0:3|0:0|0:0,0:0:0:0:
179,318,51316,2,0,L|120:324,1,60,2|8,0:1|0:0,0:0:0:0:
69,357,51761,1,4,0:1:0:0:
69,357,51983,2,0,P|82:311|46:247,1,120,10|8,0:3|0:0,0:0:0:0:
11,203,52650,2,0,L|18:75,1,120,2|2,0:3|0:1,0:0:0:0:
23,23,53316,1,8,0:0:0:0:
124,87,53761,6,0,B|158:115|158:115|232:127|270:40,1,180,6|2,0:0|0:1,0:0:0:0:
384,62,54872,2,0,L|449:54,1,60,2|8,0:1|0:0,0:0:0:0:
484,167,55539,2,0,B|402:177|402:177|376:232|401:280,1,180,10|2,0:3|0:1,0:0:0:0:
315,360,56650,2,0,L|245:353,1,60,2|8,0:1|0:1,0:0:0:0:
136,366,57316,6,0,P|65:324|92:235,1,180,10|2,0:3|0:1,0:0:0:0:
28,134,58427,2,0,L|34:66,1,60,2|8,0:1|0:0,0:0:0:0:
146,34,59094,6,0,B|198:38|213:93|213:93|253:62|307:68,1,180,10|2,0:3|0:1,0:0:0:0:
409,47,60205,2,0,P|411:83|404:109,1,60,2|8,0:1|0:1,0:0:0:0:
329,199,60872,6,0,B|342:296|342:296|423:330,1,180,10|2,0:3|0:1,0:0:0:0:
502,242,61983,1,2,0:1:0:0:
502,242,62205,1,8,0:0:0:0:
419,154,62650,2,0,P|347:93|264:112,1,180,10|4,0:3|0:1,0:0:0:0:
225,67,63539,2,0,L|242:194,1,120,8|2,0:1|0:0,0:0:0:0:
256,192,64427,12,6,66205,0:0:0:0:
41,312,67539,5,8,0:1:0:0:
58,193,67983,6,0,L|44:56,1,120,6|8,0:0|0:0,0:0:0:0:
97,104,68650,2,0,P|151:120|217:94,1,120,4|2,0:1|0:1,0:0:0:0:
259,67,69316,1,8,0:1:0:0:
353,141,69761,6,0,L|483:132,1,120,10|8,0:3|0:0,0:0:0:0:
512,180,70427,2,0,P|525:235|509:303,1,120,4|2,0:1|0:1,0:0:0:0:
475,343,71094,2,0,L|355:334,2,120,8|10|8,0:1|0:3|0:1,0:0:0:0:
413,239,72427,1,2,0:0:0:0:
504,161,72872,6,0,L|509:94,1,60,8|4,0:1|0:1,0:0:0:0:
465,59,73316,2,0,L|470:-8,2,60,10|2|8,0:3|0:1|0:1,0:0:0:0:
410,83,73983,2,0,P|356:104|293:89,1,120,4|2,0:1|0:1,0:0:0:0:
245,59,74650,2,0,L|176:69,1,60,8|4,0:1|0:1,0:0:0:0:
137,32,75094,6,0,L|161:171,1,120,6|8,0:0|0:0,0:0:0:0:
202,190,75761,2,0,P|139:185|92:223,1,120,4|2,0:1|0:1,0:0:0:0:
50,177,76427,2,0,L|73:296,1,120,8|10,0:1|0:3,0:0:0:0:
180,348,77316,1,8,0:0:0:0:
180,348,77539,2,0,B|210:306|259:328|259:328|304:369|368:342,1,180,4|8,0:1|0:1,0:0:0:0:
426,264,78650,5,6,0:0:0:0:
492,164,79094,1,8,0:1:0:0:
492,164,79316,1,6,0:0:0:0:
430,60,79761,1,2,0:1:0:0:
430,60,79983,1,8,0:1:0:0:
318,104,80427,5,6,0:0:0:0:
320,224,80872,1,8,0:1:0:0:
320,224,81094,1,6,0:0:0:0:
204,256,81539,1,2,0:0:0:0:
204,256,81761,2,0,L|132:249,1,60,8|4,0:1|0:1,0:0:0:0:
92,279,82205,6,0,P|75:215|41:171,1,120,6|8,0:0|0:0,0:0:0:0:
73,120,82872,2,0,P|121:134|190:124,1,120,4|2,0:1|0:1,0:0:0:0:
234,163,83539,1,8,0:1:0:0:
328,88,83983,1,10,0:3:0:0:
379,200,84427,1,8,0:0:0:0:
379,200,84650,2,0,L|363:327,1,120,4|2,0:1|0:1,0:0:0:0:
352,377,85316,1,8,0:1:0:0:
244,323,85761,6,0,P|185:312|132:348,2,120,10|8|2,0:3|0:1|0:0,0:0:0:0:
352,377,87094,2,0,L|419:371,1,60,8|4,0:1|0:1,0:0:0:0:
446,322,87539,2,0,L|513:316,2,60,10|2|8,0:3|0:1|0:1,0:0:0:0:
413,272,88205,2,0,P|389:211|415:154,1,120,4|2,0:1|0:1,0:0:0:0:
444,114,88872,1,8,0:1:0:0:
367,21,89316,5,6,0:0:0:0:
283,106,89761,1,8,0:0:0:0:
283,106,89983,2,0,P|231:129|165:110,1,120,4|2,0:1|0:1,0:0:0:0:
122,80,90650,2,0,L|55:84,1,60,8|0,0:0|0:0,0:0:0:0:
25,130,91094,6,0,B|9:193|9:193|34:245,1,120,10|8,0:3|0:0,0:0:0:0:
15,300,91761,2,0,P|70:273|130:286,1,120,4|2,0:1|0:1,0:0:0:0:
175,316,92427,1,8,0:0:0:0:
263,235,92872,5,6,0:0:0:0:
357,308,93316,2,0,L|372:373,1,60,8|6,0:1|0:0,0:0:0:0:
483,326,93983,2,0,L|469:267,1,60,2|8,0:1|0:1,0:0:0:0:
376,191,94650,5,6,0:0:0:0:
469,116,95094,2,0,L|483:58,1,60,8|6,0:1|0:0,0:0:0:0:
370,17,95761,2,0,L|357:76,1,60,2|14,0:0|0:0,0:0:0:0:
264,152,96427,6,0,P|202:166|149:140,1,120,6|8,0:0|0:1,0:0:0:0:
120,92,97094,2,0,L|135:219,1,120,4|2,0:1|0:1,0:0:0:0:
113,267,97761,2,0,P|113:302|126:331,1,60,8|4,0:1|0:1,0:0:0:0:
167,363,98205,2,0,L|294:353,2,120,10|8|2,0:3|0:1|0:0,0:0:0:0:
107,373,99316,2,0,L|34:378,2,60,2|8|4,0:1|0:1|0:1,0:0:0:0:
133,318,99983,6,0,P|140:256|112:198,1,120,6|8,0:0|0:0,0:0:0:0:
65,96,100872,2,0,L|5:90,2,60,2|2|8,0:0|0:1|0:0,0:0:0:0:
112,59,101539,2,0,P|170:52|216:94,1,120,4|2,0:1|0:1,0:0:0:0:
249,138,102205,1,8,0:0:0:0:
249,138,102427,2,0,L|369:128,1,120,4|2,0:1|0:1,0:0:0:0:
428,123,103094,1,8,0:0:0:0:
500,218,103539,5,10,0:3:0:0:
439,321,103983,1,8,0:0:0:0:
321,295,104427,2,0,L|245:298,1,60,2|2,0:0|0:1,0:0:0:0:
215,336,104872,1,8,0:0:0:0:
215,336,105094,2,0,P|224:273|187:219,1,120,4|2,0:1|0:1,0:0:0:0:
139,206,105761,1,8,0:0:0:0:
139,206,105983,2,0,P|79:229|51:288,1,120,4|2,0:1|0:1,0:0:0:0:
56,336,106650,1,12,0:0:0:0:
169,373,107094,6,0,L|289:361,1,120,6|8,0:0|0:0,0:0:0:0:
400,316,107983,2,0,P|411:347|409:379,2,60,2|2|8,0:0|0:1|0:0,0:0:0:0:
361,269,108650,2,0,L|373:142,1,120,4|2,0:1|0:1,0:0:0:0:
401,97,109316,2,0,P|412:65|412:32,2,60,8|4|2,0:0|0:1|0:0,0:0:0:0:
291,48,110205,1,12,0:0:0:0:
253,164,110650,6,0,B|194:178|194:178|131:150,1,120,6|8,0:0|0:0,0:0:0:0:
121,96,111316,2,0,B|116:156|116:156|69:207,1,120,10|8,0:3|0:0,0:0:0:0:
15,200,111983,2,0,B|70:222|70:222|105:283,1,120,6|8,0:0|0:0,0:0:0:0:
81,332,112650,2,0,B|120:285|120:285|187:271,1,120,10|2,0:3|0:0,0:0:0:0:
226,310,113316,2,0,B|194:258|194:258|201:189,1,120,2|12,0:0|0:0,0:0:0:0:
272,102,114205,6,0,P|323:71|386:79,1,120,6|8,0:0|0:0,0:0:0:0:
428,113,114872,6,0,L|426:202,2,80,10|4|2,0:3|0:1|0:0,0:0:0:0:
479,51,115761,1,6,0:0:0:0:
256,192,115983,12,0,124872,0:0:0:0:
