osu file format v14

[General]
AudioFilename: optc.mp3
AudioLeadIn: 0
PreviewTime: 67872
Countdown: 0
SampleSet: Soft
StackLeniency: 0.4
Mode: 0
LetterboxInBreaks: 0
WidescreenStoryboard: 0

[Editor]
Bookmarks: 428,7539,25316,39539,53761,67983,82205,99983,110650
DistanceSpacing: 1.3
BeatDivisor: 4
GridSize: 16
TimelineZoom: 1.1

[Metadata]
Title:Todokanai Koi
TitleUnicode:届かない恋
Artist:Rena Uehara
ArtistUnicode:上原れな
Creator:Shad0w1and
Version:Pata-Mon's Hard
Source:WHITE ALBUM2
Tags:Leaf introductory closing chapter coda galgame Flask Pata-Mon
BeatmapID:1236789
BeatmapSetID:579307

[Difficulty]
HPDrainRate:4.5
CircleSize:3.5
OverallDifficulty:5.5
ApproachRate:6.5
SliderMultiplier:1.5
SliderTickRate:1

[Events]
//Background and Video events
0,0,"BG.jpg",0,0
Video,0,"optc.flv"
//Break Periods
//Storyboard Layer 0 (Background)
//Storyboard Layer 1 (Fail)
//Storyboard Layer 2 (Pass)
//Storyboard Layer 3 (Foreground)
//Storyboard Sound Samples

[TimingPoints]
428,444.444444444444,4,2,0,10,1,0
1316,-100,4,2,0,15,0,0
2205,-100,4,2,0,20,0,0
3094,-100,4,2,0,25,0,0
3983,-100,4,2,0,30,0,0
4872,-100,4,2,0,35,0,0
5761,-100,4,2,0,40,0,0
6427,-100,4,2,0,5,0,0
6872,-100,4,2,0,80,0,0
7539,-83.3333333333333,4,2,0,80,0,0
25316,-100,4,2,0,60,0,0
39539,-100,4,2,0,60,0,0
52872,-100,4,2,0,40,0,0
53761,-125,4,2,0,60,0,0
54872,-125,4,2,0,40,0,0
55094,-125,4,2,0,60,0,0
56650,-125,4,2,0,40,0,0
56872,-125,4,2,0,60,0,0
58427,-125,4,2,0,40,0,0
58650,-125,4,2,0,60,0,0
60205,-125,4,2,0,40,0,0
60427,-125,4,2,0,60,0,0
61983,-125,4,2,0,40,0,0
62205,-125,4,2,0,60,0,0
63983,-125,4,2,0,40,0,0
64205,-125,4,2,0,60,0,0
64427,-125,4,2,0,70,0,0
64872,-125,4,2,0,50,0,0
65316,-125,4,2,0,70,0,0
66205,-125,4,2,0,80,0,0
67316,-125,4,2,0,60,0,0
67539,-125,4,2,0,80,0,0
67983,-83.3333333333333,4,2,0,80,0,1
94539,-83.3333333333333,4,2,0,5,0,0
94650,-83.3333333333333,4,2,0,80,0,1
99983,-83.3333333333333,4,2,0,80,0,0
108872,-83.3333333333333,4,2,0,50,0,0
109094,-83.3333333333333,4,2,0,55,0,0
109316,-83.3333333333333,4,2,0,60,0,0
109539,-83.3333333333333,4,2,0,65,0,0
109761,-83.3333333333333,4,2,0,70,0,0
109983,-83.3333333333333,4,2,0,75,0,0
110205,-83.3333333333333,4,2,0,80,0,0
110539,-83.3333333333333,4,2,0,5,0,0
110650,-83.3333333333333,4,2,0,80,0,0
114094,-83.3333333333333,4,2,0,5,0,0
114205,-83.3333333333333,4,2,0,80,0,0
124872,-83.3333333333333,4,2,0,5,0,0

[Colours]
Combo1 : 95,128,241
Combo2 : 225,225,225
Combo3 : 116,217,250
Combo4 : 201,148,95

[HitObjects]
256,192,428,12,0,6427,0:0:0:0:
255,202,6872,5,2,0:0:0:0:
123,144,7094,1,0,1:0:0:0:
123,144,7539,6,0,P|173:127|223:127,1,89.9999972534181,6|0,0:0|0:0,0:0:0:0:
255,202,7983,2,0,P|305:219|355:219,1,89.9999972534181,0|0,1:0|0:0,0:0:0:0:
415,169,8427,1,2,0:0:0:0:
487,222,8650,2,0,P|484:288|470:359,1,89.9999972534181,2|0,0:0|1:0,0:0:0:0:
424,381,9094,1,0,0:0:0:0:
358,319,9316,6,0,P|308:302|258:302,1,89.9999972534181,2|0,0:0|0:0,0:0:0:0:
185,329,9761,1,0,1:0:0:0:
104,288,9983,2,0,P|91:248|99:169,1,89.9999972534181,0|2,0:0|0:0,0:0:0:0:
144,128,10427,1,2,0:0:0:0:
221,223,10650,1,0,1:0:0:0:
221,223,11094,6,0,L|310:219,1,89.9999972534181,2|0,0:0|0:0,0:0:0:0:
331,131,11539,2,0,L|241:134,1,89.9999972534181,0|0,1:0|0:0,0:0:0:0:
155,107,11983,1,2,0:0:0:0:
222,47,12205,2,0,L|311:43,1,89.9999972534181,2|0,0:0|1:0,0:0:0:0:
398,71,12650,1,0,0:0:0:0:
331,131,12872,6,0,P|317:198|333:258,1,89.9999972534181,2|0,0:0|0:0,0:0:0:0:
359,299,13316,1,0,1:0:0:0:
284,349,13539,2,0,P|234:358|154:344,1,89.9999972534181,0|2,0:0|0:0,0:0:0:0:
120,305,13983,1,2,0:0:0:0:
227,216,14205,1,0,1:0:0:0:
227,216,14650,6,0,P|232:163|219:83,1,89.9999972534181,2|0,0:0|0:0,0:0:0:0:
140,112,15094,2,0,P|135:165|148:245,1,89.9999972534181,0|0,1:0|0:0,0:0:0:0:
171,286,15539,2,0,P|215:305|308:254,1,89.9999972534181,2|2,0:0|0:0,0:0:0:0:
336,260,15983,1,0,1:0:0:0:
417,300,16205,1,0,0:0:0:0:
498,260,16427,6,0,P|508:217|505:152,1,89.9999972534181,2|0,0:0|0:0,0:0:0:0:
470,89,16872,1,0,1:0:0:0:
384,117,17094,2,0,L|230:121,1,89.9999972534181,0|2,0:0|0:0,0:0:0:0:
203,124,17539,1,2,0:0:0:0:
73,202,17761,2,0,L|227:206,1,89.9999972534181,0|0,1:0|0:0,0:0:0:0:
294,119,18205,5,6,0:0:0:0:
203,124,18427,1,2,0:0:0:0:
231,262,18650,2,0,L|385:258,1,89.9999972534181,0|0,1:0|0:0,0:0:0:0:
163,204,19094,5,2,0:0:0:0:
123,284,19316,1,2,0:0:0:0:
245,351,19539,2,0,L|399:347,1,89.9999972534181,0|0,1:0|0:0,0:0:0:0:
391,203,19983,5,2,0:0:0:0:
321,260,20205,1,2,0:0:0:0:
475,235,20427,1,0,1:0:0:0:
461,146,20650,2,0,B|433:115|433:115|371:102|296:107,1,179.999994506836,2|2,0:0|0:0,0:0:0:0:
174,205,21316,2,0,L|121:204,2,44.999998626709,0|0|0,1:0|0:0|0:0,0:0:0:0:
320,261,21761,5,2,0:0:0:0:
263,191,21983,1,2,0:0:0:0:
384,93,22205,2,0,P|424:85|497:88,1,89.9999972534181,0|0,1:0|0:0,0:0:0:0:
352,177,22650,5,2,0:0:0:0:
295,107,22872,1,2,0:0:0:0:
416,9,23094,2,0,P|456:1|529:4,1,89.9999972534181,0|0,1:0|0:0,0:0:0:0:
384,93,23539,5,2,0:0:0:0:
327,23,23761,1,0,0:0:0:0:
473,79,23983,1,2,0:0:0:0:
352,177,24205,1,0,1:0:0:0:
295,107,24427,6,0,P|255:99|182:102,1,89.9999972534181,2|0,0:0|0:0,0:0:0:0:
60,177,24872,2,0,P|105:177|150:169,1,89.9999972534181,4|0,0:0|0:0,0:0:0:0:
295,107,25316,6,0,P|288:246|237:302,1,150,6|0,0:0|1:0,0:0:0:0:
353,297,25983,2,0,P|394:304|466:291,1,75,2|0,0:0|0:0,0:0:0:0:
499,263,26427,1,2,0:0:0:0:
484,117,26650,2,0,P|434:133|430:221,1,150,0|2,1:0|0:0,0:0:0:0:
262,333,27539,6,0,P|219:331|145:306,1,75,0|0,1:0|0:0,0:0:0:0:
114,287,27983,2,0,P|121:250|122:212,1,75,2|0,0:0|0:0,0:0:0:0:
97,134,28427,1,0,1:0:0:0:
157,77,28650,1,0,0:0:0:0:
206,189,28872,6,0,P|205:263|189:337,1,150,2|0,0:0|1:0,0:0:0:0:
114,287,29539,2,0,P|121:250|122:212,1,75,2|0,0:0|0:0,0:0:0:0:
97,134,29983,1,2,0:0:0:0:
157,77,30205,2,0,P|189:68|257:75,1,75,0|0,1:0|0:0,0:0:0:0:
322,132,30650,6,0,P|312:69|364:3,1,150,2|0,0:0|1:0,0:0:0:0:
341,210,31539,2,0,L|337:275,2,37.5,2|0|0,0:0|0:0|0:0,0:0:0:0:
262,184,31983,2,0,L|254:314,1,75,0|0,1:0|0:0,0:0:0:0:
407,311,32427,6,0,P|418:248|416:161,1,150,2|0,0:0|1:0,0:0:0:0:
361,99,33094,2,0,P|321:97|264:118,1,75,2|0,0:0|0:0,0:0:0:0:
215,147,33539,1,2,0:0:0:0:
129,237,33761,2,0,P|131:162|119:88,1,150,0|2,1:0|0:0,0:0:0:0:
4,293,34650,5,0,1:0:0:0:
4,293,34872,2,0,P|46:302|83:301,1,75,2|0,0:0|0:0,0:0:0:0:
129,237,35316,1,2,0:0:0:0:
210,222,35539,2,0,P|247:222|283:230,1,75,0|0,1:0|0:0,0:0:0:0:
364,322,35983,6,0,L|372:161,1,150,2|0,0:0|1:0,0:0:0:0:
333,99,36650,2,0,P|343:54|371:28,1,75,2|0,0:0|0:0,0:0:0:0:
443,18,37094,1,2,0:0:0:0:
482,91,37316,2,0,P|472:136|444:162,1,75,0|0,1:0|0:0,0:0:0:0:
333,99,37761,6,0,P|264:98|134:132,1,150,2|0,0:0|1:0,0:0:0:0:
141,331,38650,1,2,0:0:0:0:
279,331,38872,1,0,1:0:0:0:
210,211,39094,2,0,L|210:286,1,75,0|0,1:0|0:0,0:0:0:0:
348,286,39539,6,0,B|348:188|348:188|317:116,1,150,6|0,0:0|1:0,0:0:0:0:
266,85,40205,2,0,P|227:86|173:120,1,75,2|0,0:0|0:0,0:0:0:0:
169,179,40650,1,2,0:0:0:0:
327,140,40872,2,0,P|330:33|237:8,1,150,0|2,1:0|0:0,0:0:0:0:
90,108,41761,5,0,1:0:0:0:
90,108,41983,2,0,P|97:156|93:203,1,75,2|0,0:0|0:0,0:0:0:0:
62,257,42427,1,2,0:0:0:0:
126,308,42650,2,0,P|171:307|228:289,1,75,0|0,1:0|0:0,0:0:0:0:
254,194,43094,6,0,P|285:274|391:286,1,150,2|0,0:0|1:0,0:0:0:0:
418,269,43761,2,0,P|425:232|425:194,1,75,2|0,0:0|0:0,0:0:0:0:
399,116,44205,1,2,0:0:0:0:
438,43,44427,2,0,P|475:23|553:10,1,75,0|0,1:0|0:0,0:0:0:0:
399,116,44872,6,0,P|346:127|237:98,1,150,2|0,0:0|1:0,0:0:0:0:
56,24,45761,2,0,L|67:113,1,75,2|0,0:0|0:0,0:0:0:0:
139,134,46205,2,0,L|128:223,1,75,0|0,1:0|0:0,0:0:0:0:
51,324,46650,6,0,P|118:293|203:313,1,150,2|0,0:0|1:0,0:0:0:0:
244,368,47316,2,0,P|280:367|352:335,1,75,2|0,0:0|0:0,0:0:0:0:
381,303,47761,1,2,0:0:0:0:
504,368,47983,2,0,P|416:347|377:294,1,150,0|2,1:0|0:0,0:0:0:0:
448,121,48872,5,0,1:0:0:0:
448,121,49094,2,0,P|407:112|326:119,1,75,2|0,0:0|0:0,0:0:0:0:
295,135,49539,1,2,0:0:0:0:
247,68,49761,1,0,1:0:0:0:
297,3,49983,1,0,0:0:0:0:
295,135,50205,6,0,P|172:102|174:30,1,150,2|0,0:0|1:0,0:0:0:0:
95,63,50872,2,0,P|47:78|14:117,1,75,2|0,0:0|0:0,0:0:0:0:
0,171,51316,1,2,0:0:0:0:
31,247,51539,2,0,P|34:293|3:358,1,75,0|0,1:0|0:0,0:0:0:0:
0,171,51983,6,0,L|75:160,1,75,2|0,0:0|0:0,0:0:0:0:
211,226,52427,2,0,L|136:215,1,75,0|0,1:0|0:0,0:0:0:0:
265,164,52872,1,8,3:0:0:0:
265,164,53094,1,8,3:0:0:0:
246,301,53316,1,4,3:0:0:0:
246,301,53539,1,4,3:0:0:0:
375,249,53761,6,0,P|397:202|389:102,1,120,6|0,0:0|0:0,0:0:0:0:
359,67,54427,2,0,P|290:81|226:84,1,120,2|4,0:0|0:3,0:0:0:0:
162,77,55094,1,0,1:0:0:0:
162,77,55539,6,0,P|140:124|148:224,1,120,2|0,0:0|0:0,0:0:0:0:
192,247,56205,2,0,P|141:232|74:239,1,120,2|4,0:0|0:3,0:0:0:0:
3,269,56872,1,0,1:0:0:0:
3,269,57316,6,0,P|0:208|19:122,1,120,2|0,0:0|0:0,0:0:0:0:
42,79,57983,2,0,L|204:89,1,120,2|4,0:0|0:3,0:0:0:0:
212,145,58650,2,0,L|293:140,1,60,0|0,1:0|0:0,0:0:0:0:
338,101,59094,6,0,L|419:106,2,60,2|0|0,0:0|0:0|0:0,0:0:0:0:
271,141,59761,2,0,P|252:204|270:297,1,120,2|4,0:0|0:3,0:0:0:0:
281,330,60427,1,0,1:0:0:0:
281,330,60872,6,0,P|348:325|441:329,1,120,2|0,0:0|0:0,0:0:0:0:
477,338,61539,2,0,P|480:293|475:234,1,60,2|0,0:0|0:0,0:0:0:0:
440,210,61983,1,4,0:3:0:0:
457,134,62205,1,0,1:0:0:0:
457,134,62650,6,0,P|411:84|304:157,1,120,2|0,0:0|0:0,0:0:0:0:
307,136,63316,1,2,0:0:0:0:
384,265,63539,2,0,P|405:205|382:157,1,120,0|4,1:0|0:3,0:0:0:0:
307,136,64205,1,2,0:0:0:0:
208,219,64427,6,0,P|287:219|363:201,1,120,2|2,0:0|0:0,0:0:0:0:
382,157,65094,1,2,0:0:0:0:
341,58,65316,2,0,P|299:60|263:70,1,60,0|0,1:0|0:0,0:0:0:0:
213,103,65761,1,0,1:0:0:0:
138,81,65983,1,2,0:0:0:0:
213,211,66205,6,0,P|128:315|68:199,1,300,6|4,0:0|0:3,0:0:0:0:
138,236,67539,1,0,1:0:0:0:
138,236,67983,6,0,P|208:263|320:260,1,179.999994506836,6|0,0:0|1:0,0:0:0:0:
359,185,68650,2,0,P|400:170|459:178,1,89.9999972534181,2|0,0:0|0:0,0:0:0:0:
512,234,69094,1,2,0:0:0:0:
465,311,69316,2,0,P|424:326|365:318,1,89.9999972534181,0|0,1:0|0:0,0:0:0:0:
359,185,69761,6,0,P|292:155|148:150,1,179.999994506836,2|0,0:0|1:0,0:0:0:0:
127,211,70427,2,0,P|176:169|157:45,1,179.999994506836,2|2,0:0|0:0,0:0:0:0:
92,16,71094,2,0,P|27:36|0:65,1,89.9999972534181,0|0,1:0|0:0,0:0:0:0:
171,61,71539,6,0,P|236:41|263:12,1,89.9999972534181,2|0,0:0|0:0,0:0:0:0:
338,4,71983,2,0,P|405:46|390:167,1,179.999994506836,0|2,1:0|0:0,0:0:0:0:
347,204,72650,1,0,0:0:0:0:
371,291,72872,2,0,P|447:316|510:275,1,89.9999972534181,0|0,1:0|0:0,0:0:0:0:
347,204,73316,5,0,0:0:0:0:
284,268,73539,1,2,0:0:0:0:
434,227,73761,1,0,1:0:0:0:
323,117,73983,2,0,P|258:89|130:91,1,179.999994506836,2|2,0:0|0:0,0:0:0:0:
80,226,74650,1,0,1:0:0:0:
155,176,74872,1,0,0:0:0:0:
85,316,75094,6,0,P|150:344|278:342,1,179.999994506836,2|0,0:0|1:0,0:0:0:0:
317,279,75761,2,0,L|311:176,1,89.9999972534181,2|0,0:0|0:0,0:0:0:0:
282,104,76205,1,2,0:0:0:0:
223,172,76427,2,0,L|229:275,1,89.9999972534181,0|0,1:0|0:0,0:0:0:0:
406,296,76872,6,0,L|394:90,1,179.999994506836,2|0,0:0|1:0,0:0:0:0:
313,80,77539,2,0,P|398:26|455:48,1,89.9999972534181,2|0,0:0|0:0,0:0:0:0:
465,59,77983,1,2,0:0:0:0:
480,148,78205,2,0,P|450:188|333:182,1,89.9999972534181,0|0,1:0|0:0,0:0:0:0:
263,234,78650,6,0,P|293:194|410:200,1,89.9999972534181,6|0,0:0|0:0,0:0:0:0:
279,323,79094,1,0,1:0:0:0:
178,202,79316,2,0,P|253:111|367:85,1,179.999994506836,6|0,0:0|0:0,0:0:0:0:
414,204,79983,1,0,1:0:0:0:
328,177,80205,1,0,0:0:0:0:
480,142,80427,6,0,P|505:199|480:266,1,89.9999972534181,6|0,0:0|0:0,0:0:0:0:
348,266,80872,1,0,1:0:0:0:
308,88,81094,2,0,P|224:54|135:47,1,179.999994506836,6|2,0:0|0:0,0:0:0:0:
146,191,81761,2,0,L|233:211,1,89.9999972534181,6|0,0:0|0:0,0:0:0:0:
87,123,82205,6,0,P|62:222|90:261,1,89.9999972534181,6|0,0:0|0:0,0:0:0:0:
80,291,82650,1,0,1:0:0:0:
169,286,82872,2,0,L|256:306,1,89.9999972534181,2|0,0:0|0:0,0:0:0:0:
344,326,83316,1,2,0:0:0:0:
405,260,83539,2,0,P|394:193|317:150,1,89.9999972534181,0|0,1:0|0:0,0:0:0:0:
228,228,83983,6,0,P|257:307|344:326,1,179.999994506836,2|0,0:0|1:0,0:0:0:0:
317,240,84650,2,0,L|98:211,1,179.999994506836,2|2,0:0|0:0,0:0:0:0:
78,149,85316,2,0,P|77:102|111:53,1,89.9999972534181,0|0,1:0|0:0,0:0:0:0:
138,216,85761,6,0,P|133:286|33:342,2,179.999994506836,2|0|2,0:0|1:0|0:0,0:0:0:0:
78,149,86872,1,2,0:0:0:0:
108,64,87094,2,0,P|150:49|240:52,1,89.9999972534181,0|0,1:0|0:0,0:0:0:0:
301,160,87539,5,2,0:0:0:0:
281,72,87761,1,2,0:0:0:0:
347,11,87983,1,0,1:0:0:0:
433,38,88205,2,0,P|478:132|460:244,1,179.999994506836,2|2,0:0|0:0,0:0:0:0:
431,285,88872,2,0,P|357:332|298:341,1,89.9999972534181,0|0,1:0|0:0,0:0:0:0:
225,207,89316,6,0,P|299:160|358:151,1,89.9999972534181,2|0,0:0|0:0,0:0:0:0:
391,155,89761,1,0,1:0:0:0:
415,68,89983,2,0,P|341:21|282:12,1,89.9999972534181,2|0,0:0|0:0,0:0:0:0:
249,16,90428,1,2,0:0:0:0:
159,20,90650,2,0,P|118:38|83:67,1,89.9999972534181,0|0,1:0|0:0,0:0:0:0:
124,189,91094,6,0,P|191:104|304:189,1,179.999994506836,2|0,0:0|1:0,0:0:0:0:
304,185,91761,2,0,P|270:261|188:277,1,89.9999972534181,2|0,0:0|0:0,0:0:0:0:
214,191,92205,1,2,0:0:0:0:
178,273,92427,2,0,L|172:319,2,44.999998626709,0|0|0,1:0|0:0|0:0,0:0:0:0:
167,114,92872,6,0,P|228:102|283:133,1,89.9999972534181,6|0,0:0|0:0,0:0:0:0:
409,137,93316,1,0,1:0:0:0:
292,29,93539,2,0,P|168:17|54:109,1,179.999994506836,6|2,0:0|0:0,0:0:0:0:
61,106,94205,2,0,P|77:195|72:275,1,134.999995880127,0|0,1:0|0:0,0:0:0:0:
59,281,94650,6,0,P|136:263|260:284,1,179.999994506836,6|0,0:0|1:0,0:0:0:0:
329,373,95316,2,0,P|365:245|469:261,1,179.999994506836,6|2,0:0|0:0,0:0:0:0:
494,339,95983,2,0,P|449:335|406:325,1,89.9999972534181,6|0,0:0|0:0,0:0:0:0:
408,147,96427,6,0,P|404:192|394:235,1,89.9999972534181,6|0,0:0|0:0,0:0:0:0:
322,291,96872,1,0,1:0:0:0:
238,258,97094,2,0,P|193:259|118:285,1,89.9999972534181,2|0,0:0|0:0,0:0:0:0:
80,328,97539,1,2,0:0:0:0:
33,251,97761,2,0,P|22:207|18:162,1,89.9999972534181,0|0,1:0|0:0,0:0:0:0:
57,81,98205,6,0,L|181:88,1,89.9999972534181,2|0,0:0|0:0,0:0:0:0:
215,144,98650,2,0,P|304:150|394:48,1,179.999994506836,0|2,1:0|0:0,0:0:0:0:
407,15,99316,1,2,0:0:0:0:
318,28,99539,1,0,1:0:0:0:
463,86,99761,1,0,1:0:0:0:
318,28,99983,6,0,P|275:29|175:81,1,89.9999972534181,6|0,0:0|0:0,0:0:0:0:
192,123,100427,2,0,P|149:122|49:70,1,89.9999972534181,0|0,1:0|0:0,0:0:0:0:
45,41,100872,1,2,0:0:0:0:
20,127,101094,2,0,P|19:184|35:248,1,89.9999972534181,2|0,0:0|1:0,0:0:0:0:
53,301,101538,1,0,0:0:0:0:
113,233,101761,6,0,P|156:222|201:220,1,89.9999972534181,2|0,0:0|0:0,0:0:0:0:
279,264,102205,1,0,1:0:0:0:
357,220,102427,2,0,P|401:221|445:232,1,89.9999972534181,0|2,0:0|0:0,0:0:0:0:
504,301,102872,1,2,0:0:0:0:
512,172,103094,1,0,1:0:0:0:
512,172,103539,6,0,P|510:122|494:68,1,89.9999972534181,2|0,0:0|0:0,0:0:0:0:
411,66,103983,2,0,P|409:116|393:170,1,89.9999972534181,0|0,1:0|0:0,0:0:0:0:
348,229,104427,1,2,0:0:0:0:
265,193,104650,2,0,P|214:188|123:213,1,89.9999972534181,2|0,0:0|1:0,0:0:0:0:
93,229,105094,1,0,0:0:0:0:
42,155,105316,6,0,P|31:111|30:66,1,89.9999972534181,2|0,0:0|0:0,0:0:0:0:
96,5,105761,1,0,1:0:0:0:
179,41,105983,2,0,P|230:46|321:21,1,89.9999972534181,2|0,0:0|0:0,0:0:0:0:
351,5,106427,1,2,0:0:0:0:
294,127,106650,1,0,1:0:0:0:
294,127,107094,6,0,P|296:184|313:243,1,89.9999972534181,6|0,0:0|0:0,0:0:0:0:
393,206,107539,2,0,P|391:149|374:90,1,89.9999972534181,0|0,1:0|0:0,0:0:0:0:
330,45,107983,2,0,P|241:53|212:90,1,89.9999972534181,2|2,0:0|0:0,0:0:0:0:
204,132,108427,1,0,1:0:0:0:
114,138,108650,1,0,0:0:0:0:
74,219,108872,6,0,P|69:266|79:320,2,89.9999972534181,4|4|4,0:3|0:3|0:3,0:0:0:0:
204,132,109539,1,0,1:0:0:0:
64,63,109761,1,0,1:0:0:0:
114,138,109983,1,4,0:3:0:0:
244,51,110205,2,0,P|294:140|268:195,1,134.999995880127,0|0,1:0|0:0,0:0:0:0:
261,202,110650,6,0,P|374:157|293:28,1,179.999994506836,6|0,0:0|1:0,0:0:0:0:
204,132,111316,2,0,P|210:276|296:285,1,179.999994506836,6|2,0:0|0:0,0:0:0:0:
293,118,111983,2,2,P|211:42|114:132,1,179.999994506836,6|0,1:2|0:0,0:0:0:0:
114,137,112650,5,2,0:0:0:0:
225,218,112872,2,0,P|219:167|177:97,1,89.9999972534181,0|0,1:0|0:0,0:0:0:0:
154,57,113316,2,0,P|128:33|56:2,1,89.9999972534181,2|0,0:0|0:0,0:0:0:0:
204,132,113761,2,0,P|277:127|359:97,1,134.999995880127,4|0,0:0|0:0,0:0:0:0:
372,82,114205,6,0,P|372:149|465:94,1,179.999994506836,6|0,0:0|1:0,0:0:0:0:
295,35,114872,6,0,P|272:111|284:175,2,119.999996337891,2|0|0,0:0|0:0|0:0,0:0:0:0:
415,115,115761,5,6,0:0:0:0:
256,192,115983,12,0,124872,0:0:0:0:
