osu file format v14

[General]
AudioFilename: Ten Sho Sho Ten Sho - Rena.mp3
AudioLeadIn: 0
PreviewTime: -1
Countdown: 0
SampleSet: Normal
StackLeniency: 0.6
Mode: 1
LetterboxInBreaks: 0
WidescreenStoryboard: 1

[Editor]
Bookmarks: 28350,62232,93044,127953,154502,188384,218182
DistanceSpacing: 0.5
BeatDivisor: 4
GridSize: 32
TimelineZoom: 2.2

[Metadata]
Title:Tenshou Shoutenshou
TitleUnicode:てんしょう しょうてんしょう
Artist:Rena
ArtistUnicode:Rena
Creator:Fraolinch
Version:Collab/Minus
Source:
Tags:vocaloid miku hatsune kikuo backfire
BeatmapID:683873
BeatmapSetID:305339

[Difficulty]
HPDrainRate:7
CircleSize:5
OverallDifficulty:5
ApproachRate:5
SliderMultiplier:1.4
SliderTickRate:1

[Events]
//Background and Video events
0,0,"spoopyku.jpg",0,0
//Break Periods
//Storyboard Layer 0 (Background)
//Storyboard Layer 1 (Fail)
//Storyboard Layer 2 (Pass)
//Storyboard Layer 3 (Foreground)
//Storyboard Sound Samples

[TimingPoints]
5762,352.941176470588,4,1,0,75,1,0
17056,-100,4,1,0,100,0,0
17232,-100,4,1,0,85,0,0
39644,-90.9090909090909,4,1,0,100,0,0
62232,-83.3333333333333,4,1,0,100,0,1
73526,348.837209302326,4,1,0,100,1,0
79107,324.324324324324,4,1,0,100,1,0
81701,307.692307692308,4,1,0,100,1,0
84162,292.682926829268,4,1,0,100,1,0
85332,285.714285714286,4,1,0,100,1,0
86474,279.06976744186,4,1,0,100,1,0
87590,272.727272727273,4,1,0,100,1,0
127953,266.666666666667,4,1,0,100,1,0
130086,260.869565217391,4,1,0,100,1,0
131129,250,4,1,0,100,1,0
132129,247.422680412371,4,1,0,100,1,0
133118,244.897959183673,4,1,0,100,1,0
134097,240,4,1,0,100,1,0
134577,235.294117647059,4,1,0,100,1,0
135518,230.769230769231,4,1,0,100,1,0
135979,226.415094339623,4,1,0,100,1,0
137790,222.222222222222,4,1,0,100,1,0
138234,218.181818181818,4,1,0,100,1,0
138670,214.285714285714,4,1,0,100,1,0
141241,206.896551724138,4,1,0,100,1,0
141654,203.389830508475,4,1,0,100,1,0
142060,200,4,1,0,100,1,0
142860,400,4,1,0,100,1,0
143660,387.096774193548,4,1,0,100,1,0
144434,380.952380952381,4,1,0,100,1,0
145957,375,4,1,0,100,1,0
146707,369.230769230769,4,1,0,100,1,0
147076,363.636363636364,4,1,0,100,1,0
147439,358.208955223881,4,1,0,100,1,0
147797,352.941176470588,4,1,0,100,1,0
148855,352.941176470588,4,1,0,100,1,0
154502,-83.3333333333333,4,1,0,100,0,1
179913,-83.3333333333333,4,1,0,100,0,0
188384,342.857142857143,4,1,0,100,1,0
188726,333.333333333333,4,1,0,100,1,0
189059,324.324324324324,4,1,0,100,1,0
189383,315.789473684211,4,1,0,100,1,0
189698,307.692307692308,4,1,0,100,1,0
190005,300,4,1,0,100,1,0
190305,292.682926829268,4,1,0,100,1,0
190597,285.714285714286,4,1,0,100,1,0
190882,279.06976744186,4,1,0,100,1,0
191161,272.727272727273,4,1,0,100,1,0
191433,266.666666666667,4,1,0,100,1,0
191699,260.869565217391,4,1,0,100,1,0
191959,255.31914893617,4,1,0,100,1,0
192214,250,4,1,0,100,1,0
192464,240,4,1,0,100,1,0
192704,230.769230769231,4,1,0,100,1,0
192934,222.222222222222,4,1,0,100,1,0
193378,218.181818181818,4,1,0,100,1,0
193814,214.285714285714,4,1,0,100,1,0
194028,210.526315789474,4,1,0,100,1,0
194238,206.896551724138,4,1,0,100,1,0
194444,200,4,1,0,100,1,0
194644,193.548387096774,4,1,0,100,1,0
194837,187.5,4,1,0,100,1,0
195024,184.615384615385,4,1,0,100,1,0
195393,181.818181818182,4,1,0,100,1,0
195756,176.470588235294,4,1,0,100,1,0
196108,171.428571428571,4,1,0,100,1,0
196450,162.162162162162,4,1,0,100,1,0
196774,153.846153846154,4,1,0,100,1,0
197389,150,4,1,0,100,1,0
197989,142.857142857143,4,1,0,100,1,0
198274,136.363636363636,4,1,0,100,1,0
200728,272.727272727273,4,1,0,100,1,0
218182,263.736263736264,4,1,0,100,1,0
220291,265.486725663717,4,1,0,100,1,0
222414,265.486725663717,4,1,0,100,1,0
235157,266.666666666667,4,1,0,100,1,0
235690,279.06976744186,4,1,0,100,1,0
236248,285.714285714286,4,1,0,100,1,0
236819,292.682926829268,4,1,0,100,1,0
237404,300,4,1,0,100,1,0
238004,307.692307692308,4,1,0,100,1,0
238619,315.789473684211,4,1,0,95,1,0
239250,322.58064516129,4,1,0,90,1,0
239895,-100,4,1,0,70,0,0
241185,352.941176470588,4,1,0,50,1,0
241537,363.636363636364,4,1,0,50,1,0
241900,375,4,1,0,50,1,0
242650,377.358490566038,4,1,0,50,1,0
243404,-100,4,1,0,30,0,0
244159,413.793103448276,4,1,0,30,1,0
244986,421.052631578947,4,1,0,30,1,0
245828,428.571428571429,4,1,0,5,1,0

[HitObjects]
256,192,5762,5,0,1:0:0:0:
192,192,8585,1,0,1:0:0:0:
320,192,8761,1,8,1:0:0:0:
320,192,8938,1,8,1:0:0:0:
192,192,9114,1,0,1:0:0:0:
192,192,9291,1,0,1:0:0:0:
320,192,9467,1,8,1:0:0:0:
192,192,9644,1,0,1:0:0:0:
320,192,9820,1,8,1:0:0:0:
320,192,9997,1,8,1:0:0:0:
192,192,10173,1,0,1:0:0:0:
320,192,10349,1,8,1:0:0:0:
192,192,10526,1,0,1:0:0:0:
320,192,10703,1,8,1:0:0:0:
192,192,10879,1,0,1:0:0:0:
320,192,11056,1,8,1:0:0:0:
192,192,11232,1,0,1:0:0:0:
192,192,11409,1,0,1:0:0:0:
192,192,11585,1,0,1:0:0:0:
320,192,11761,1,8,1:0:0:0:
192,192,11938,1,0,1:0:0:0:
320,192,12114,1,8,1:0:0:0:
192,192,12291,1,0,1:0:0:0:
320,192,12467,1,8,1:0:0:0:
192,192,12644,1,0,1:0:0:0:
320,192,12820,1,8,1:0:0:0:
320,192,12997,1,8,1:0:0:0:
192,192,13173,1,0,1:0:0:0:
192,192,13350,1,0,1:0:0:0:
320,192,13526,1,8,1:0:0:0:
192,192,13703,1,0,1:0:0:0:
320,192,13879,1,8,1:0:0:0:
320,192,13967,1,8,1:0:0:0:
320,192,14056,1,8,1:0:0:0:
320,192,14114,1,8,1:0:0:0:
320,192,14173,1,8,1:0:0:0:
192,192,14232,1,0,1:0:0:0:
320,192,14409,1,8,1:0:0:0:
192,192,14585,1,0,1:0:0:0:
320,192,14761,1,8,1:0:0:0:
192,192,14938,1,0,1:0:0:0:
192,192,15114,1,0,1:0:0:0:
320,192,15291,1,8,1:0:0:0:
320,192,15467,1,8,1:0:0:0:
192,192,15644,1,0,1:0:0:0:
192,192,15820,1,0,1:0:0:0:
320,192,15997,1,8,1:0:0:0:
320,192,16173,1,8,1:0:0:0:
192,192,16350,1,0,1:0:0:0:
320,192,16526,1,8,1:0:0:0:
192,192,16703,1,0,1:0:0:0:
320,192,16791,1,8,1:0:0:0:
320,192,16879,1,8,1:0:0:0:
320,192,16938,1,8,1:0:0:0:
320,192,16997,1,8,1:0:0:0:
192,192,17056,1,0,1:0:0:0:
320,192,17232,1,8,1:0:0:0:
320,192,17409,1,8,1:0:0:0:
320,192,17585,1,8,1:0:0:0:
192,192,17761,1,0,1:0:0:0:
320,192,17938,1,8,1:0:0:0:
320,192,18114,1,8,1:0:0:0:
320,192,18203,1,8,1:0:0:0:
320,192,18291,1,8,1:0:0:0:
192,192,18467,1,0,1:0:0:0:
192,192,18644,1,0,1:0:0:0:
320,192,18820,1,8,1:0:0:0:
320,192,18997,1,8,1:0:0:0:
192,192,19173,1,0,1:0:0:0:
320,192,19350,1,8,1:0:0:0:
320,192,19526,1,8,1:0:0:0:
320,192,19614,1,8,1:0:0:0:
320,192,19703,1,8,1:0:0:0:
320,192,19761,1,8,1:0:0:0:
320,192,19820,1,8,1:0:0:0:
192,192,19879,1,0,1:0:0:0:
320,192,20056,1,8,1:0:0:0:
320,192,20232,1,8,1:0:0:0:
320,192,20409,1,8,1:0:0:0:
192,192,20585,1,0,1:0:0:0:
320,192,20761,1,8,1:0:0:0:
192,192,20938,1,0,1:0:0:0:
320,192,21026,1,8,1:0:0:0:
320,192,21114,1,8,1:0:0:0:
192,192,21291,1,0,1:0:0:0:
192,192,21467,1,0,1:0:0:0:
320,192,21644,1,8,1:0:0:0:
192,192,21820,1,0,1:0:0:0:
320,192,21909,1,8,1:0:0:0:
320,192,21997,1,8,1:0:0:0:
320,192,22173,1,8,1:0:0:0:
320,192,22261,1,8,1:0:0:0:
192,192,22350,1,0,1:0:0:0:
320,192,22409,1,8,1:0:0:0:
320,192,22467,1,8,1:0:0:0:
320,192,22526,1,8,1:0:0:0:
192,192,22703,1,0,1:0:0:0:
320,192,22791,1,8,1:0:0:0:
320,192,22879,1,8,1:0:0:0:
320,192,23056,1,8,1:0:0:0:
320,192,23232,1,8,1:0:0:0:
192,192,23409,1,0,1:0:0:0:
320,192,23585,1,8,1:0:0:0:
320,192,23761,1,8,1:0:0:0:
320,192,23938,1,8,1:0:0:0:
320,192,24026,1,8,1:0:0:0:
192,192,24114,1,0,1:0:0:0:
192,192,24291,1,0,1:0:0:0:
320,192,24467,1,8,1:0:0:0:
192,192,24644,1,0,1:0:0:0:
192,192,24732,1,0,1:0:0:0:
192,192,24820,1,0,1:0:0:0:
320,192,24997,1,8,1:0:0:0:
192,192,25173,1,0,1:0:0:0:
320,192,25232,1,8,1:0:0:0:
320,192,25291,1,8,1:0:0:0:
192,192,25350,1,0,1:0:0:0:
320,192,25409,1,8,1:0:0:0:
320,192,25467,1,8,1:0:0:0:
192,192,25526,1,0,1:0:0:0:
192,192,25703,1,0,1:0:0:0:
320,192,25879,1,8,1:0:0:0:
320,192,26056,1,8,1:0:0:0:
192,192,26144,1,0,1:0:0:0:
192,192,26232,1,0,1:0:0:0:
192,192,26409,1,0,1:0:0:0:
320,192,26585,1,8,1:0:0:0:
320,192,26761,1,8,1:0:0:0:
192,192,26820,1,0,1:0:0:0:
192,192,26879,1,0,1:0:0:0:
320,192,26938,1,8,1:0:0:0:
192,192,27114,1,0,1:0:0:0:
192,192,27291,1,0,1:0:0:0:
320,192,27467,1,8,1:0:0:0:
320,192,27644,1,8,1:0:0:0:
192,192,27820,1,0,1:0:0:0:
320,192,27997,1,8,1:0:0:0:
192,192,28173,1,0,1:0:0:0:
320,192,28350,1,12,1:0:0:0:
288,192,29056,1,8,0:0:0:0:
288,192,29761,1,4,0:0:0:0:
256,192,30467,1,8,0:0:0:0:
288,192,31173,1,4,0:0:0:0:
288,192,31879,1,8,0:0:0:0:
288,192,32585,1,4,0:0:0:0:
288,192,33291,1,8,0:0:0:0:
256,192,33644,1,0,0:0:0:0:
288,192,33997,1,4,0:0:0:0:
256,192,34173,1,8,0:0:0:0:
288,192,34350,1,8,0:0:0:0:
256,192,34526,1,8,0:0:0:0:
288,192,34703,1,4,0:0:0:0:
256,192,34879,1,8,0:0:0:0:
288,160,35056,1,8,0:0:0:0:
288,192,35232,1,8,0:0:0:0:
288,160,35409,1,4,0:0:0:0:
256,192,35585,1,8,0:0:0:0:
288,160,35761,1,8,0:0:0:0:
288,192,35938,1,8,0:0:0:0:
288,160,36114,1,4,0:0:0:0:
256,192,36291,1,8,0:0:0:0:
288,160,36467,1,4,0:0:0:0:
352,160,36644,1,8,0:0:0:0:
256,192,36820,12,0,38056,0:0:0:0:
288,128,38232,5,0,0:0:0:0:
288,160,38320,5,8,0:0:0:0:
288,160,38409,1,8,0:0:0:0:
288,160,38497,1,0,0:0:0:0:
288,160,38585,1,8,0:0:0:0:
352,96,38703,1,0,0:0:0:0:
352,128,38820,1,0,0:0:0:0:
256,160,38938,1,8,0:0:0:0:
320,160,39056,1,0,0:0:0:0:
320,192,39173,1,0,0:0:0:0:
320,160,39291,1,8,0:0:0:0:
320,160,39409,1,0,0:0:0:0:
288,128,39526,1,0,0:0:0:0:
320,160,39644,1,12,0:0:0:0:
320,192,39820,1,0,0:0:0:0:
320,160,39909,1,0,0:0:0:0:
320,160,39997,1,8,0:0:0:0:
320,160,40173,1,0,0:0:0:0:
320,160,40350,1,8,0:0:0:0:
320,160,40526,1,8,0:0:0:0:
320,160,40614,1,8,0:0:0:0:
320,160,40703,1,0,0:0:0:0:
320,160,40879,1,0,0:0:0:0:
320,160,40967,1,0,0:0:0:0:
320,192,41056,1,8,0:0:0:0:
320,192,41232,1,0,0:0:0:0:
320,192,41409,1,8,0:0:0:0:
320,192,41585,1,0,0:0:0:0:
320,192,41673,1,0,0:0:0:0:
320,192,41761,1,8,0:0:0:0:
320,192,41850,1,8,0:0:0:0:
320,192,41938,1,0,0:0:0:0:
320,192,42026,1,8,0:0:0:0:
320,192,42114,1,0,0:0:0:0:
320,192,42291,1,8,0:0:0:0:
320,192,42467,1,0,0:0:0:0:
320,192,42644,1,0,0:0:0:0:
320,192,42732,1,0,0:0:0:0:
320,192,42820,1,8,0:0:0:0:
320,160,42879,1,0,0:0:0:0:
288,160,42938,1,0,0:0:0:0:
320,160,42997,1,8,0:0:0:0:
352,128,43056,1,0,0:0:0:0:
352,128,43114,1,0,0:0:0:0:
352,128,43173,1,8,0:0:0:0:
320,192,43350,1,0,0:0:0:0:
320,192,43526,1,8,0:0:0:0:
320,192,43703,1,0,0:0:0:0:
320,192,43791,1,0,0:0:0:0:
320,192,43879,1,8,0:0:0:0:
320,192,44056,1,8,0:0:0:0:
320,192,44144,1,8,0:0:0:0:
320,192,44232,1,0,0:0:0:0:
320,192,44320,1,0,0:0:0:0:
320,192,44409,1,8,0:0:0:0:
320,192,44585,1,8,0:0:0:0:
320,192,44761,1,0,0:0:0:0:
320,192,44850,1,0,0:0:0:0:
320,192,44938,1,8,0:0:0:0:
320,192,45114,1,0,0:0:0:0:
320,192,45291,1,8,0:0:0:0:
320,192,45379,1,0,0:0:0:0:
320,192,45467,1,8,0:0:0:0:
320,192,45556,1,0,0:0:0:0:
320,192,45644,1,8,0:0:0:0:
320,192,45732,1,0,0:0:0:0:
320,192,45820,1,8,0:0:0:0:
320,192,45909,1,8,0:0:0:0:
320,192,45997,1,8,0:0:0:0:
320,192,46085,1,0,0:0:0:0:
320,192,46173,1,8,0:0:0:0:
320,192,46261,1,0,0:0:0:0:
320,192,46350,1,8,0:0:0:0:
320,192,46438,1,0,0:0:0:0:
320,192,46526,1,8,0:0:0:0:
320,192,46614,1,8,0:0:0:0:
320,192,46703,1,0,0:0:0:0:
288,224,46791,1,8,0:0:0:0:
320,192,46879,1,0,0:0:0:0:
320,192,47056,1,8,0:0:0:0:
320,192,47232,1,0,0:0:0:0:
320,192,47320,1,0,0:0:0:0:
320,192,47409,1,8,0:0:0:0:
320,192,47585,1,8,0:0:0:0:
320,192,47673,1,8,0:0:0:0:
320,192,47761,1,0,0:0:0:0:
320,192,47938,1,8,0:0:0:0:
320,192,48114,1,0,0:0:0:0:
288,192,48203,1,0,0:0:0:0:
288,192,48291,1,8,0:0:0:0:
288,192,48379,1,8,0:0:0:0:
288,224,48467,1,0,0:0:0:0:
288,192,48644,1,8,0:0:0:0:
288,192,48820,1,0,0:0:0:0:
288,192,48997,1,0,0:0:0:0:
288,192,49173,1,8,0:0:0:0:
288,192,49261,1,0,0:0:0:0:
288,192,49350,1,8,0:0:0:0:
288,192,49438,1,0,0:0:0:0:
288,192,49526,1,0,0:0:0:0:
288,192,49703,1,8,0:0:0:0:
288,192,49791,1,8,0:0:0:0:
288,192,49879,1,0,0:0:0:0:
288,192,50056,1,8,0:0:0:0:
288,192,50232,1,8,0:0:0:0:
320,128,50291,1,0,0:0:0:0:
288,128,50350,1,0,0:0:0:0:
320,128,50409,1,8,0:0:0:0:
320,128,50467,1,0,0:0:0:0:
320,128,50526,1,0,0:0:0:0:
320,128,50585,1,8,0:0:0:0:
288,160,50761,1,0,0:0:0:0:
288,160,50938,1,4,0:0:0:0:
288,160,51114,1,0,0:0:0:0:
288,160,51203,1,0,0:0:0:0:
256,160,51291,1,8,0:0:0:0:
256,160,51379,1,0,0:0:0:0:
256,160,51467,1,0,0:0:0:0:
256,160,51644,1,8,0:0:0:0:
288,160,51820,1,0,0:0:0:0:
288,160,51909,1,8,0:0:0:0:
256,160,51997,1,0,0:0:0:0:
256,160,52173,1,8,0:0:0:0:
256,160,52261,1,8,0:0:0:0:
256,160,52350,1,0,0:0:0:0:
256,192,52526,1,8,0:0:0:0:
256,160,52703,1,0,0:0:0:0:
256,160,52879,1,8,0:0:0:0:
256,160,52967,1,0,0:0:0:0:
256,160,53056,1,8,0:0:0:0:
288,160,53173,1,0,0:0:0:0:
256,160,53291,1,0,0:0:0:0:
256,160,53409,1,8,0:0:0:0:
224,160,53526,1,0,0:0:0:0:
288,160,53644,1,0,0:0:0:0:
256,160,53761,1,12,0:0:0:0:
256,160,54114,1,0,0:0:0:0:
288,192,54291,1,0,0:0:0:0:
288,192,54467,1,8,0:0:0:0:
288,192,54644,1,0,0:0:0:0:
288,192,54732,1,8,0:0:0:0:
288,192,54820,1,0,0:0:0:0:
288,192,54997,1,8,0:0:0:0:
288,192,55173,1,0,0:0:0:0:
288,192,55350,1,8,0:0:0:0:
288,192,55438,1,8,0:0:0:0:
288,192,55526,1,0,0:0:0:0:
288,192,55703,1,0,0:0:0:0:
288,192,55879,1,8,0:0:0:0:
288,192,55967,1,8,0:0:0:0:
288,192,56056,1,0,0:0:0:0:
288,192,56144,1,0,0:0:0:0:
288,192,56232,1,8,0:0:0:0:
288,128,56291,1,0,0:0:0:0:
288,128,56350,1,0,0:0:0:0:
288,192,56409,1,0,0:0:0:0:
288,192,56585,1,8,0:0:0:0:
352,96,56673,1,0,0:0:0:0:
352,160,56761,1,8,0:0:0:0:
352,160,56850,1,8,0:0:0:0:
352,160,56938,1,0,0:0:0:0:
352,160,57026,1,8,0:0:0:0:
352,160,57114,1,0,0:0:0:0:
352,160,57203,1,8,0:0:0:0:
352,160,57291,1,8,0:0:0:0:
352,160,57379,1,0,0:0:0:0:
352,160,57467,1,0,0:0:0:0:
352,160,57556,1,8,0:0:0:0:
352,160,57644,1,0,0:0:0:0:
352,160,57732,1,8,0:0:0:0:
352,160,57820,1,8,0:0:0:0:
352,160,57909,1,8,0:0:0:0:
352,160,57997,1,0,0:0:0:0:
384,160,58056,1,0,0:0:0:0:
384,160,58114,1,0,0:0:0:0:
384,160,58173,1,0,0:0:0:0:
352,128,58232,1,0,0:0:0:0:
352,128,58291,1,0,0:0:0:0:
384,160,58350,1,8,0:0:0:0:
384,160,58526,1,0,0:0:0:0:
352,160,58703,1,8,0:0:0:0:
384,160,58879,1,8,0:0:0:0:
384,160,58967,1,8,0:0:0:0:
384,160,59056,1,0,0:0:0:0:
320,160,59232,1,8,0:0:0:0:
320,160,59409,1,0,0:0:0:0:
352,192,59467,1,0,0:0:0:0:
352,192,59526,1,0,0:0:0:0:
352,192,59585,1,8,0:0:0:0:
352,160,59644,1,8,0:0:0:0:
352,160,59703,1,8,0:0:0:0:
352,160,59761,1,0,0:0:0:0:
352,160,59820,1,0,0:0:0:0:
352,160,59879,1,0,0:0:0:0:
352,160,59938,1,8,0:0:0:0:
352,160,60114,1,0,0:0:0:0:
352,160,60291,1,8,0:0:0:0:
352,192,60467,1,0,0:0:0:0:
352,192,60644,1,8,0:0:0:0:
352,224,60703,1,8,0:0:0:0:
352,224,60761,1,8,0:0:0:0:
352,224,60820,1,0,0:0:0:0:
352,192,60909,1,0,0:0:0:0:
352,192,60997,1,8,0:0:0:0:
352,192,61085,1,0,0:0:0:0:
352,192,61173,1,8,0:0:0:0:
352,192,61350,1,8,0:0:0:0:
384,192,61526,1,8,0:0:0:0:
384,160,61585,1,0,0:0:0:0:
384,160,61644,1,0,0:0:0:0:
352,192,61703,1,8,0:0:0:0:
384,160,61761,1,0,0:0:0:0:
384,160,61820,1,0,0:0:0:0:
384,160,61879,1,8,0:0:0:0:
384,160,61967,1,0,0:0:0:0:
352,128,62056,1,0,0:0:0:0:
192,192,62232,5,0,1:0:0:0:
192,192,62320,1,0,1:0:0:0:
192,192,62409,1,0,1:0:0:0:
192,192,62497,1,0,1:0:0:0:
320,192,62585,1,8,1:0:0:0:
320,192,62673,1,8,1:0:0:0:
192,192,62761,1,0,1:0:0:0:
192,192,62850,1,0,1:0:0:0:
320,192,62938,1,8,1:0:0:0:
320,192,63026,1,8,1:0:0:0:
320,192,63114,1,8,1:0:0:0:
320,192,63203,1,8,1:0:0:0:
192,192,63291,1,0,1:0:0:0:
192,192,63379,1,0,1:0:0:0:
192,192,63467,1,0,1:0:0:0:
320,192,63556,1,8,1:0:0:0:
192,192,63644,1,0,1:0:0:0:
320,192,63732,1,8,1:0:0:0:
320,192,63820,1,8,1:0:0:0:
320,192,63909,1,8,1:0:0:0:
192,192,63997,1,0,1:0:0:0:
192,192,64085,1,0,1:0:0:0:
320,192,64173,1,8,1:0:0:0:
320,192,64261,1,8,1:0:0:0:
192,192,64350,1,0,1:0:0:0:
320,192,64409,1,8,1:0:0:0:
320,192,64467,1,8,1:0:0:0:
192,192,64526,1,0,1:0:0:0:
320,192,64585,1,8,1:0:0:0:
320,192,64644,1,8,1:0:0:0:
192,192,64703,1,0,1:0:0:0:
192,192,64791,1,0,1:0:0:0:
192,192,64879,1,0,1:0:0:0:
192,192,64967,1,0,1:0:0:0:
320,192,65056,1,8,1:0:0:0:
320,192,65144,1,8,1:0:0:0:
320,192,65232,1,8,1:0:0:0:
192,192,65320,1,0,1:0:0:0:
320,192,65409,1,8,1:0:0:0:
192,192,65497,1,0,1:0:0:0:
320,192,65585,1,8,1:0:0:0:
192,192,65644,1,0,1:0:0:0:
192,192,65703,1,0,1:0:0:0:
320,192,65761,1,8,1:0:0:0:
192,192,65850,1,0,1:0:0:0:
320,192,65938,1,8,1:0:0:0:
192,192,66026,1,0,1:0:0:0:
320,192,66114,1,8,1:0:0:0:
192,192,66203,1,0,1:0:0:0:
192,192,66291,1,0,1:0:0:0:
320,192,66379,1,8,1:0:0:0:
320,192,66467,1,8,1:0:0:0:
192,192,66556,1,0,1:0:0:0:
320,192,66644,1,8,1:0:0:0:
320,192,66732,1,8,1:0:0:0:
320,192,66820,1,8,1:0:0:0:
192,192,66909,1,0,1:0:0:0:
192,192,66997,1,0,1:0:0:0:
192,192,67085,1,0,1:0:0:0:
320,192,67173,1,8,1:0:0:0:
192,192,67261,1,0,1:0:0:0:
320,192,67350,1,8,1:0:0:0:
320,192,67438,1,8,1:0:0:0:
192,192,67526,1,0,1:0:0:0:
192,192,67614,1,0,1:0:0:0:
320,192,67703,1,8,1:0:0:0:
192,192,67879,1,0,1:0:0:0:
320,192,67967,1,8,1:0:0:0:
320,192,68056,1,8,1:0:0:0:
320,192,68144,1,8,1:0:0:0:
192,192,68232,1,0,1:0:0:0:
192,192,68320,1,0,1:0:0:0:
192,192,68409,1,0,1:0:0:0:
192,192,68497,1,0,1:0:0:0:
320,192,68585,1,8,1:0:0:0:
320,192,68673,1,8,1:0:0:0:
320,192,68761,1,8,1:0:0:0:
320,192,68850,1,8,1:0:0:0:
192,192,68938,1,0,1:0:0:0:
320,192,69026,1,8,1:0:0:0:
192,192,69114,1,0,1:0:0:0:
320,192,69203,1,8,1:0:0:0:
192,192,69291,1,0,1:0:0:0:
192,192,69379,1,0,1:0:0:0:
192,192,69467,1,0,1:0:0:0:
192,192,69556,1,0,1:0:0:0:
320,192,69644,1,8,1:0:0:0:
320,192,69732,1,8,1:0:0:0:
192,192,69820,1,0,1:0:0:0:
192,192,69909,1,0,1:0:0:0:
320,192,69997,1,8,1:0:0:0:
192,192,70056,1,0,1:0:0:0:
192,192,70114,1,0,1:0:0:0:
320,192,70173,1,8,1:0:0:0:
192,192,70261,1,0,1:0:0:0:
320,192,70350,1,8,1:0:0:0:
192,192,70438,1,0,1:0:0:0:
192,192,70526,1,0,1:0:0:0:
192,192,70614,1,0,1:0:0:0:
320,192,70703,1,8,1:0:0:0:
320,192,70761,1,8,1:0:0:0:
320,192,70820,1,8,1:0:0:0:
320,192,70879,1,8,1:0:0:0:
320,192,70938,1,8,1:0:0:0:
320,192,70997,1,8,1:0:0:0:
192,192,71056,1,0,1:0:0:0:
192,192,71409,1,0,1:0:0:0:
192,192,71467,1,0,1:0:0:0:
192,192,71526,1,0,1:0:0:0:
192,192,71585,1,0,1:0:0:0:
320,192,71644,1,8,1:0:0:0:
320,192,71761,1,8,1:0:0:0:
320,192,71879,1,8,1:0:0:0:
320,192,71997,1,8,1:0:0:0:
320,192,72114,1,8,1:0:0:0:
192,192,72203,1,0,1:0:0:0:
320,192,72291,1,8,1:0:0:0:
192,192,72379,1,0,1:0:0:0:
192,192,72467,1,0,1:0:0:0:
192,192,72644,1,0,1:0:0:0:
256,192,72820,12,0,73438,1:0:0:0:
192,192,73526,5,0,1:0:0:0:
320,192,73874,1,8,1:0:0:0:
192,192,74049,1,0,1:0:0:0:
192,192,74223,1,0,1:0:0:0:
192,192,74398,1,0,1:0:0:0:
320,192,74572,1,8,1:0:0:0:
320,192,74921,1,8,1:0:0:0:
320,192,75095,1,8,1:0:0:0:
192,192,75270,1,0,1:0:0:0:
192,192,75444,1,0,1:0:0:0:
320,192,75619,1,8,1:0:0:0:
192,192,75967,1,0,1:0:0:0:
320,192,76142,1,8,1:0:0:0:
320,192,76200,1,8,1:0:0:0:
320,192,76258,1,8,1:0:0:0:
192,192,76316,1,0,1:0:0:0:
320,192,76665,1,8,1:0:0:0:
192,192,76839,1,0,1:0:0:0:
192,192,77188,1,0,1:0:0:0:
320,192,77363,1,8,1:0:0:0:
192,192,77712,1,0,1:0:0:0:
320,192,78060,1,8,1:0:0:0:
192,192,78322,1,0,1:0:0:0:
192,192,78409,1,0,1:0:0:0:
192,192,78584,1,0,1:0:0:0:
320,192,78758,1,8,1:0:0:0:
192,192,79107,1,0,1:0:0:0:
320,192,79431,1,8,1:0:0:0:
192,192,79593,1,0,1:0:0:0:
192,192,79755,1,0,1:0:0:0:
320,192,80079,1,8,1:0:0:0:
192,192,80404,1,0,1:0:0:0:
192,192,80566,1,0,1:0:0:0:
320,192,80728,1,8,1:0:0:0:
192,192,80890,1,0,1:0:0:0:
192,192,80971,1,0,1:0:0:0:
192,192,81052,1,0,1:0:0:0:
192,192,81215,1,0,1:0:0:0:
320,192,81377,1,8,1:0:0:0:
320,192,81458,1,8,1:0:0:0:
320,192,81539,1,8,1:0:0:0:
320,192,81620,1,8,1:0:0:0:
192,192,81701,1,0,1:0:0:0:
192,192,81854,1,0,1:0:0:0:
320,192,82008,1,8,1:0:0:0:
192,192,82162,1,0,1:0:0:0:
320,192,82316,1,8,1:0:0:0:
192,192,82470,1,0,1:0:0:0:
192,192,82624,1,0,1:0:0:0:
320,192,82777,1,8,1:0:0:0:
320,192,82931,1,8,1:0:0:0:
192,192,83085,1,0,1:0:0:0:
320,192,83239,1,8,1:0:0:0:
192,192,83393,1,0,1:0:0:0:
192,192,83547,1,0,1:0:0:0:
192,192,83701,1,0,1:0:0:0:
320,192,83854,1,8,1:0:0:0:
320,192,83931,1,8,1:0:0:0:
320,192,84008,1,8,1:0:0:0:
192,192,84162,1,0,1:0:0:0:
320,192,84308,1,8,1:0:0:0:
320,192,84454,1,8,1:0:0:0:
320,192,84601,1,8,1:0:0:0:
320,192,84747,1,8,1:0:0:0:
320,192,84893,1,8,1:0:0:0:
320,192,85040,1,8,1:0:0:0:
320,192,85186,1,8,1:0:0:0:
192,192,85332,1,0,1:0:0:0:
320,192,85474,1,8,1:0:0:0:
192,192,85617,1,0,1:0:0:0:
320,192,85760,1,8,1:0:0:0:
320,192,85906,1,8,1:0:0:0:
320,192,86053,1,8,1:0:0:0:
320,192,86189,1,8,1:0:0:0:
320,192,86236,1,8,1:0:0:0:
320,192,86284,1,8,1:0:0:0:
320,192,86332,1,8,1:0:0:0:
320,192,86379,1,8,1:0:0:0:
320,192,86427,1,8,1:0:0:0:
192,192,86474,1,0,1:0:0:0:
320,192,86613,1,8,1:0:0:0:
192,192,86753,1,0,1:0:0:0:
320,192,86892,1,8,1:0:0:0:
192,192,87032,1,0,1:0:0:0:
320,192,87171,1,8,1:0:0:0:
320,192,87311,1,8,1:0:0:0:
320,192,87450,1,8,1:0:0:0:
192,192,87590,1,0,1:0:0:0:
320,192,87729,1,8,1:0:0:0:
192,192,87869,1,0,1:0:0:0:
320,192,88008,1,8,1:0:0:0:
192,192,88148,1,0,1:0:0:0:
320,192,88271,1,8,1:0:0:0:
320,192,88340,1,8,1:0:0:0:
320,192,88408,1,8,1:0:0:0:
320,192,88453,1,8,1:0:0:0:
320,192,88499,1,8,1:0:0:0:
320,192,88544,1,8,1:0:0:0:
320,192,88590,1,8,1:0:0:0:
320,192,88635,1,8,1:0:0:0:
192,192,88680,1,0,1:0:0:0:
192,192,88817,1,0,1:0:0:0:
192,192,88953,1,0,1:0:0:0:
192,192,89090,1,0,1:0:0:0:
320,192,89226,1,8,1:0:0:0:
320,192,89362,1,8,1:0:0:0:
320,192,89499,1,8,1:0:0:0:
320,192,89635,1,8,1:0:0:0:
192,192,89771,1,0,1:0:0:0:
320,192,89908,1,8,1:0:0:0:
320,192,90044,1,8,1:0:0:0:
320,192,90180,1,8,1:0:0:0:
192,192,90317,1,0,1:0:0:0:
192,192,90453,1,0,1:0:0:0:
192,192,90590,1,0,1:0:0:0:
192,192,90726,1,0,1:0:0:0:
320,192,90862,1,8,1:0:0:0:
192,192,90999,1,0,1:0:0:0:
320,192,91135,1,8,1:0:0:0:
192,192,91271,1,0,1:0:0:0:
320,192,91408,1,8,1:0:0:0:
192,192,91544,1,0,1:0:0:0:
320,192,91680,1,8,1:0:0:0:
192,192,91816,1,0,1:0:0:0:
192,192,91952,1,0,1:0:0:0:
320,192,92090,1,8,1:0:0:0:
192,192,92226,1,0,1:0:0:0:
320,192,92362,1,8,1:0:0:0:
192,192,92499,1,0,1:0:0:0:
320,192,92908,1,0,1:0:0:0:
256,128,93044,5,4,0:0:0:0:
320,160,93317,1,0,0:0:0:0:
320,160,93499,1,0,0:0:0:0:
320,160,93590,1,8,0:0:0:0:
320,160,93771,1,0,0:0:0:0:
320,160,93862,1,0,0:0:0:0:
320,160,94044,1,0,0:0:0:0:
320,160,94135,1,8,0:0:0:0:
320,160,94226,1,0,0:0:0:0:
320,192,94317,1,0,0:0:0:0:
320,192,94408,1,8,0:0:0:0:
352,192,94590,1,0,0:0:0:0:
320,192,94680,1,8,0:0:0:0:
352,192,94953,1,0,0:0:0:0:
352,192,95226,1,8,0:0:0:0:
352,192,95408,1,0,0:0:0:0:
352,192,95499,1,8,0:0:0:0:
352,192,95680,1,8,0:0:0:0:
288,160,95771,1,0,0:0:0:0:
320,192,95953,1,0,0:0:0:0:
320,192,96044,1,8,0:0:0:0:
320,160,96226,1,0,0:0:0:0:
320,160,96317,1,8,0:0:0:0:
320,160,96408,1,0,0:0:0:0:
320,160,96499,1,0,0:0:0:0:
320,160,96590,1,8,0:0:0:0:
320,192,96680,1,8,0:0:0:0:
352,160,96771,1,0,0:0:0:0:
384,160,96862,1,8,0:0:0:0:
384,192,96953,1,0,0:0:0:0:
384,192,97044,1,0,0:0:0:0:
384,192,97135,1,8,0:0:0:0:
320,224,97408,1,4,0:0:0:0:
352,256,97590,1,0,0:0:0:0:
320,224,97680,1,0,0:0:0:0:
352,256,97862,1,8,0:0:0:0:
320,192,97953,1,0,0:0:0:0:
320,160,98135,1,0,0:0:0:0:
320,160,98226,1,8,0:0:0:0:
256,160,98408,1,0,0:0:0:0:
288,160,98499,1,8,0:0:0:0:
288,160,98590,1,0,0:0:0:0:
320,160,98680,1,0,0:0:0:0:
320,160,98771,1,8,0:0:0:0:
320,160,98862,1,0,0:0:0:0:
320,160,98953,1,0,0:0:0:0:
288,160,99044,1,8,0:0:0:0:
320,192,99225,1,8,0:0:0:0:
288,160,99316,1,0,0:0:0:0:
320,128,99408,1,0,0:0:0:0:
320,192,99499,1,8,0:0:0:0:
320,192,99590,1,0,0:0:0:0:
352,160,99680,1,8,0:0:0:0:
320,192,99771,1,0,0:0:0:0:
320,192,99862,1,8,0:0:0:0:
320,192,99953,1,0,0:0:0:0:
320,192,100044,1,0,0:0:0:0:
320,192,100135,1,8,0:0:0:0:
320,192,100317,1,0,0:0:0:0:
320,192,100408,1,0,0:0:0:0:
320,192,100590,1,8,0:0:0:0:
352,192,100862,1,12,0:0:0:0:
352,160,101135,1,0,0:0:0:0:
320,160,101226,1,8,0:0:0:0:
384,192,101499,1,0,0:0:0:0:
320,160,101771,1,4,0:0:0:0:
320,192,102044,1,0,0:0:0:0:
320,192,102226,1,0,0:0:0:0:
320,192,102317,1,8,0:0:0:0:
320,192,102499,1,0,0:0:0:0:
320,192,102590,1,0,0:0:0:0:
320,192,102680,1,8,0:0:0:0:
320,192,102771,1,8,0:0:0:0:
320,192,102862,1,0,0:0:0:0:
320,192,103044,1,0,0:0:0:0:
288,160,103135,1,0,0:0:0:0:
288,160,103317,1,0,0:0:0:0:
288,160,103408,1,8,0:0:0:0:
288,160,103590,1,0,0:0:0:0:
288,160,103862,1,8,0:0:0:0:
288,160,103953,1,0,0:0:0:0:
288,160,104135,1,0,0:0:0:0:
288,160,104226,1,8,0:0:0:0:
288,160,104317,1,0,0:0:0:0:
288,160,104408,1,8,0:0:0:0:
288,160,104499,1,0,0:0:0:0:
288,160,104590,1,8,0:0:0:0:
288,160,104680,1,0,0:0:0:0:
288,160,104771,1,8,0:0:0:0:
320,160,104862,1,0,0:0:0:0:
320,160,104953,1,8,0:0:0:0:
320,160,105044,1,0,0:0:0:0:
320,160,105226,1,8,0:0:0:0:
320,192,105590,1,8,0:0:0:0:
288,192,105862,1,0,0:0:0:0:
288,192,106044,1,8,0:0:0:0:
288,192,106135,1,4,0:0:0:0:
288,192,106408,1,0,0:0:0:0:
288,192,106590,1,0,0:0:0:0:
288,192,106680,1,8,0:0:0:0:
288,192,106862,1,8,0:0:0:0:
288,192,106953,1,0,0:0:0:0:
288,192,107135,1,0,0:0:0:0:
288,192,107226,1,8,0:0:0:0:
288,192,107317,1,0,0:0:0:0:
288,192,107408,1,8,0:0:0:0:
288,192,107590,1,0,0:0:0:0:
288,192,107771,1,8,0:0:0:0:
288,192,107862,1,0,0:0:0:0:
288,192,107953,1,0,0:0:0:0:
288,192,108044,1,8,0:0:0:0:
288,192,108226,1,8,0:0:0:0:
288,192,108317,1,0,0:0:0:0:
288,192,108408,1,8,0:0:0:0:
288,192,108499,1,0,0:0:0:0:
288,192,108590,1,8,0:0:0:0:
288,192,108680,1,8,0:0:0:0:
288,192,108771,1,8,0:0:0:0:
288,192,108862,1,0,0:0:0:0:
288,192,108953,1,8,0:0:0:0:
288,192,109044,1,8,0:0:0:0:
288,192,109135,1,8,0:0:0:0:
288,192,109226,1,0,0:0:0:0:
288,192,109317,1,8,0:0:0:0:
288,192,109408,1,8,0:0:0:0:
288,192,109499,1,0,0:0:0:0:
288,192,109590,1,8,0:0:0:0:
288,192,109680,1,0,0:0:0:0:
288,192,109862,1,0,0:0:0:0:
288,192,109953,1,0,0:0:0:0:
288,192,110135,1,8,0:0:0:0:
288,192,110226,1,0,0:0:0:0:
288,192,110499,1,4,0:0:0:0:
288,192,110680,1,0,0:0:0:0:
288,192,110771,1,0,0:0:0:0:
288,192,110953,1,0,0:0:0:0:
288,192,111044,1,8,0:0:0:0:
288,192,111135,1,0,0:0:0:0:
288,192,111226,1,0,0:0:0:0:
288,192,111317,1,8,0:0:0:0:
288,192,111499,1,0,0:0:0:0:
288,192,111590,1,8,0:0:0:0:
288,192,111771,1,8,0:0:0:0:
288,192,111862,1,0,0:0:0:0:
288,160,112044,1,0,0:0:0:0:
288,160,112135,1,8,0:0:0:0:
288,160,112226,1,0,0:0:0:0:
288,160,112317,1,8,0:0:0:0:
288,160,112408,1,8,0:0:0:0:
288,160,112499,1,8,0:0:0:0:
288,160,112590,1,0,0:0:0:0:
288,160,112680,1,8,0:0:0:0:
288,160,112862,1,0,0:0:0:0:
288,160,112953,1,0,0:0:0:0:
288,160,113135,1,8,0:0:0:0:
320,160,113408,1,0,0:0:0:0:
288,128,113499,1,8,0:0:0:0:
288,128,113680,1,0,0:0:0:0:
320,160,113771,1,8,0:0:0:0:
320,160,113862,1,0,0:0:0:0:
320,160,113953,1,8,0:0:0:0:
320,160,114044,1,0,0:0:0:0:
288,128,114226,1,0,0:0:0:0:
288,128,114317,1,8,0:0:0:0:
288,128,114408,1,0,0:0:0:0:
288,128,114499,1,0,0:0:0:0:
288,128,114590,1,8,0:0:0:0:
288,128,114771,1,0,0:0:0:0:
288,160,114862,1,8,0:0:0:0:
288,160,115044,1,0,0:0:0:0:
288,160,115135,1,0,0:0:0:0:
288,160,115317,1,0,0:0:0:0:
288,160,115408,1,8,0:0:0:0:
288,160,115499,1,0,0:0:0:0:
288,160,115590,1,0,0:0:0:0:
288,160,115680,1,8,0:0:0:0:
288,160,115862,1,0,0:0:0:0:
288,160,115953,1,8,0:0:0:0:
288,160,116044,1,0,0:0:0:0:
288,160,116135,1,8,0:0:0:0:
288,160,116226,1,8,0:0:0:0:
288,160,116317,1,0,0:0:0:0:
288,160,116408,1,0,0:0:0:0:
288,160,116499,1,8,0:0:0:0:
288,160,116771,1,8,0:0:0:0:
288,160,117044,1,0,0:0:0:0:
288,160,117135,1,8,0:0:0:0:
288,160,117317,1,0,0:0:0:0:
288,160,117408,1,0,0:0:0:0:
288,160,117590,1,8,0:0:0:0:
288,160,117771,1,0,0:0:0:0:
288,160,117862,1,8,0:0:0:0:
288,160,118044,1,0,0:0:0:0:
320,192,118135,1,0,0:0:0:0:
288,160,118317,1,4,0:0:0:0:
288,160,118590,1,0,0:0:0:0:
288,192,118680,1,8,0:0:0:0:
288,192,118862,1,8,0:0:0:0:
288,192,118953,1,0,0:0:0:0:
288,192,119226,1,4,0:0:0:0:
288,192,119408,1,0,0:0:0:0:
288,192,119499,1,0,0:0:0:0:
288,192,119680,1,0,0:0:0:0:
288,192,119771,1,8,0:0:0:0:
288,192,119862,1,0,0:0:0:0:
288,192,119953,1,8,0:0:0:0:
288,192,120044,1,8,0:0:0:0:
288,192,120226,1,0,0:0:0:0:
288,192,120317,1,8,0:0:0:0:
288,192,120408,1,0,0:0:0:0:
288,192,120499,1,8,0:0:0:0:
288,192,120590,1,8,0:0:0:0:
288,192,120680,1,0,0:0:0:0:
288,192,120771,1,8,0:0:0:0:
288,192,120862,1,8,0:0:0:0:
288,192,121044,1,0,0:0:0:0:
288,192,121135,1,8,0:0:0:0:
288,192,121317,1,0,0:0:0:0:
288,192,121408,1,8,0:0:0:0:
288,192,121499,1,0,0:0:0:0:
288,192,121590,1,8,0:0:0:0:
288,192,121680,1,0,0:0:0:0:
288,192,121771,1,8,0:0:0:0:
288,192,121862,1,0,0:0:0:0:
288,192,121953,1,8,0:0:0:0:
288,224,122044,1,8,0:0:0:0:
288,224,122135,1,8,0:0:0:0:
288,224,122226,1,0,0:0:0:0:
288,224,122317,1,8,0:0:0:0:
288,192,122408,1,8,0:0:0:0:
288,192,122499,1,0,0:0:0:0:
288,224,122590,1,8,0:0:0:0:
288,224,122680,1,8,0:0:0:0:
288,192,122771,1,0,0:0:0:0:
288,224,123044,1,8,0:0:0:0:
288,224,123317,1,0,0:0:0:0:
288,224,123499,1,8,0:0:0:0:
288,224,123590,1,4,0:0:0:0:
288,224,123771,1,0,0:0:0:0:
288,224,123862,1,0,0:0:0:0:
288,224,124044,1,8,0:0:0:0:
288,224,124135,1,8,0:0:0:0:
288,224,124226,1,0,0:0:0:0:
288,224,124317,1,0,0:0:0:0:
320,224,124408,1,8,0:0:0:0:
320,224,124590,1,8,0:0:0:0:
320,224,124680,1,0,0:0:0:0:
320,224,124771,1,0,0:0:0:0:
320,224,124862,1,8,0:0:0:0:
320,224,124953,1,0,0:0:0:0:
320,224,125226,1,8,0:0:0:0:
320,224,125499,1,0,0:0:0:0:
320,224,125680,1,0,0:0:0:0:
320,224,125771,1,8,0:0:0:0:
320,256,125862,1,0,0:0:0:0:
320,256,125953,1,0,0:0:0:0:
320,256,126044,1,8,0:0:0:0:
320,256,126135,1,0,0:0:0:0:
320,256,126226,1,0,0:0:0:0:
320,256,126317,1,8,0:0:0:0:
320,256,126590,1,0,0:0:0:0:
320,256,126862,1,8,0:0:0:0:
320,256,127044,1,0,0:0:0:0:
320,256,127317,1,0,0:0:0:0:
320,256,127408,1,8,0:0:0:0:
320,256,127590,1,8,0:0:0:0:
320,256,127680,1,0,0:0:0:0:
192,192,127953,5,0,1:0:0:0:
320,192,128353,1,8,1:0:0:0:
192,192,128486,1,0,1:0:0:0:
192,192,129019,1,0,1:0:0:0:
320,192,129553,1,8,1:0:0:0:
192,192,130086,1,0,1:0:0:0:
192,192,130477,1,0,1:0:0:0:
320,192,130607,1,8,1:0:0:0:
192,192,131129,1,0,1:0:0:0:
320,192,131629,1,8,1:0:0:0:
192,192,131754,1,0,1:0:0:0:
192,192,131879,1,0,1:0:0:0:
192,192,132129,1,0,1:0:0:0:
192,192,132314,1,0,1:0:0:0:
320,192,132500,1,8,1:0:0:0:
192,192,132623,1,0,1:0:0:0:
192,192,133118,1,0,1:0:0:0:
320,192,133607,1,8,1:0:0:0:
320,192,134097,1,8,1:0:0:0:
192,192,134457,1,0,1:0:0:0:
320,192,134577,1,8,1:0:0:0:
320,192,134694,1,8,1:0:0:0:
192,192,135047,1,0,1:0:0:0:
320,192,135518,1,8,1:0:0:0:
192,192,135633,1,0,1:0:0:0:
192,192,135748,1,0,1:0:0:0:
320,192,135864,1,8,1:0:0:0:
192,192,135979,1,4,1:0:0:0:
192,192,136318,1,0,1:0:0:0:
320,192,136431,1,8,1:0:0:0:
192,192,136884,1,0,1:0:0:0:
320,192,137337,1,8,1:0:0:0:
192,192,137790,1,0,1:0:0:0:
192,192,138012,1,0,1:0:0:0:
320,192,138234,1,8,1:0:0:0:
192,192,138670,1,0,1:0:0:0:
320,192,139098,1,8,1:0:0:0:
320,192,139205,1,8,1:0:0:0:
192,192,139312,1,0,1:0:0:0:
192,192,139527,1,0,1:0:0:0:
192,192,139848,1,0,1:0:0:0:
320,192,139955,1,8,1:0:0:0:
192,192,140062,1,0,1:0:0:0:
192,192,140384,1,0,1:0:0:0:
320,192,140812,1,8,1:0:0:0:
192,192,141241,1,0,1:0:0:0:
192,192,141447,1,0,1:0:0:0:
320,192,141654,1,8,1:0:0:0:
192,192,141857,1,0,1:0:0:0:
320,192,142060,1,8,1:0:0:0:
320,192,142460,1,8,1:0:0:0:
192,192,142860,1,4,1:0:0:0:
192,192,143660,1,0,1:0:0:0:
192,192,144434,1,0,1:0:0:0:
192,192,145195,1,0,1:0:0:0:
192,192,145957,1,0,1:0:0:0:
320,192,146332,1,8,1:0:0:0:
192,192,146707,1,0,1:0:0:0:
192,192,147076,1,0,1:0:0:0:
320,192,147439,1,8,1:0:0:0:
320,192,147797,1,8,1:0:0:0:
192,192,148149,1,0,1:0:0:0:
320,192,148855,1,12,1:0:0:0:
192,192,149560,1,0,1:0:0:0:
192,192,150266,1,0,1:0:0:0:
192,192,150972,1,0,1:0:0:0:
192,192,151678,1,0,1:0:0:0:
192,192,152031,1,0,1:0:0:0:
320,192,152207,1,8,1:0:0:0:
192,192,152384,1,0,1:0:0:0:
192,192,152737,1,0,1:0:0:0:
320,192,153002,1,8,1:0:0:0:
192,192,153090,1,0,1:0:0:0:
192,192,153266,1,0,1:0:0:0:
192,192,153443,1,0,1:0:0:0:
192,192,153619,1,0,1:0:0:0:
192,192,153796,1,0,1:0:0:0:
320,192,153884,1,8,1:0:0:0:
192,192,153972,1,0,1:0:0:0:
320,192,154060,1,8,1:0:0:0:
192,192,154149,1,0,1:0:0:0:
320,192,154237,1,8,1:0:0:0:
192,192,154325,1,0,1:0:0:0:
320,192,154413,1,8,1:0:0:0:
288,192,154502,5,0,0:0:0:0:
352,160,154590,1,0,0:0:0:0:
352,160,154678,1,0,0:0:0:0:
352,192,154766,1,0,0:0:0:0:
352,192,154855,1,8,0:0:0:0:
352,160,155031,1,0,0:0:0:0:
320,160,155207,1,8,0:0:0:0:
352,192,155296,1,8,0:0:0:0:
352,192,155384,1,0,0:0:0:0:
352,192,155472,1,0,0:0:0:0:
352,192,155560,1,8,0:0:0:0:
352,160,155737,1,8,0:0:0:0:
288,160,155913,1,0,0:0:0:0:
288,160,156002,1,0,0:0:0:0:
288,192,156090,1,8,0:0:0:0:
288,160,156178,1,8,0:0:0:0:
288,192,156266,1,0,0:0:0:0:
288,192,156355,1,8,0:0:0:0:
288,192,156443,1,0,0:0:0:0:
288,192,156531,1,8,0:0:0:0:
288,192,156619,1,8,0:0:0:0:
288,192,156796,1,8,0:0:0:0:
288,192,156884,1,8,0:0:0:0:
288,192,156972,1,0,0:0:0:0:
288,192,157149,1,8,0:0:0:0:
288,192,157325,1,0,0:0:0:0:
288,192,157413,1,8,0:0:0:0:
288,192,157502,1,0,0:0:0:0:
288,192,157590,1,8,0:0:0:0:
288,192,157678,1,8,0:0:0:0:
288,192,157766,1,0,0:0:0:0:
288,192,157855,1,8,0:0:0:0:
288,192,157943,1,0,0:0:0:0:
288,192,158031,1,8,0:0:0:0:
320,192,158207,1,8,0:0:0:0:
320,192,158384,1,0,0:0:0:0:
320,192,158560,1,8,0:0:0:0:
320,192,158649,1,0,0:0:0:0:
320,160,158737,1,8,0:0:0:0:
320,192,158825,1,8,0:0:0:0:
320,192,158913,1,8,0:0:0:0:
320,192,159002,1,0,0:0:0:0:
320,192,159090,1,8,0:0:0:0:
320,192,159178,1,8,0:0:0:0:
320,192,159266,1,0,0:0:0:0:
320,160,159355,1,8,0:0:0:0:
320,160,159443,1,8,0:0:0:0:
320,192,159531,1,0,0:0:0:0:
320,192,159619,1,0,0:0:0:0:
320,192,159707,1,8,0:0:0:0:
320,192,159796,1,8,0:0:0:0:
320,192,159884,1,0,0:0:0:0:
320,192,159972,1,0,0:0:0:0:
320,192,160060,1,8,0:0:0:0:
320,192,160149,1,8,0:0:0:0:
320,192,160325,1,0,0:0:0:0:
320,192,160413,1,8,0:0:0:0:
320,192,160502,1,0,0:0:0:0:
320,192,160678,1,8,0:0:0:0:
320,192,160855,1,0,0:0:0:0:
320,192,160943,1,8,0:0:0:0:
320,192,161031,1,8,0:0:0:0:
320,192,161119,1,8,0:0:0:0:
320,192,161207,1,0,0:0:0:0:
320,192,161384,1,8,0:0:0:0:
320,160,161560,1,0,0:0:0:0:
320,160,161737,1,8,0:0:0:0:
320,160,161825,1,8,0:0:0:0:
320,160,161913,1,0,0:0:0:0:
320,160,162002,1,0,0:0:0:0:
320,160,162090,1,8,0:0:0:0:
320,160,162266,1,8,0:0:0:0:
320,160,162443,1,0,0:0:0:0:
352,160,162531,1,8,0:0:0:0:
352,192,162619,1,0,0:0:0:0:
352,192,162796,1,8,0:0:0:0:
288,192,162972,1,0,0:0:0:0:
224,128,163060,1,8,0:0:0:0:
288,160,163149,1,8,0:0:0:0:
288,160,163237,1,8,0:0:0:0:
288,160,163325,1,0,0:0:0:0:
288,192,163502,1,8,0:0:0:0:
320,160,163678,1,0,0:0:0:0:
320,160,163766,1,8,0:0:0:0:
320,160,163855,1,0,0:0:0:0:
320,160,163943,1,8,0:0:0:0:
320,160,164031,1,8,0:0:0:0:
320,192,164207,1,8,0:0:0:0:
320,192,164384,1,0,0:0:0:0:
352,192,164472,1,0,0:0:0:0:
352,192,164560,1,8,0:0:0:0:
352,192,164649,1,8,0:0:0:0:
352,192,164737,1,0,0:0:0:0:
352,192,164825,1,8,0:0:0:0:
352,192,164913,1,0,0:0:0:0:
352,192,165002,1,8,0:0:0:0:
352,192,165090,1,0,0:0:0:0:
384,160,165149,1,0,0:0:0:0:
384,160,165207,1,0,0:0:0:0:
352,192,165266,1,0,0:0:0:0:
416,192,165325,1,0,0:0:0:0:
416,192,165384,1,0,0:0:0:0:
352,192,165443,1,8,0:0:0:0:
352,192,165531,1,0,0:0:0:0:
352,224,165619,1,0,0:0:0:0:
416,192,165796,1,0,0:0:0:0:
352,160,165884,1,0,0:0:0:0:
416,192,165972,1,0,0:0:0:0:
352,160,166060,1,8,0:0:0:0:
352,192,166149,1,8,0:0:0:0:
352,192,166237,1,8,0:0:0:0:
352,192,166325,1,0,0:0:0:0:
352,192,166502,1,8,0:0:0:0:
352,192,166590,1,0,0:0:0:0:
352,192,166678,1,0,0:0:0:0:
384,192,166766,1,0,0:0:0:0:
384,192,166855,1,8,0:0:0:0:
384,192,166943,1,8,0:0:0:0:
384,192,167031,1,0,0:0:0:0:
384,192,167207,1,0,0:0:0:0:
384,192,167296,1,8,0:0:0:0:
384,192,167384,1,0,0:0:0:0:
384,192,167472,1,8,0:0:0:0:
384,192,167560,1,8,0:0:0:0:
384,192,167649,1,0,0:0:0:0:
384,192,167737,1,0,0:0:0:0:
384,192,167825,1,0,0:0:0:0:
384,192,167913,1,8,0:0:0:0:
384,192,168090,1,0,0:0:0:0:
384,192,168178,1,8,0:0:0:0:
352,160,168355,1,0,0:0:0:0:
320,160,168443,1,8,0:0:0:0:
352,160,168619,1,0,0:0:0:0:
320,160,168796,1,0,0:0:0:0:
320,160,168884,1,0,0:0:0:0:
352,192,168972,1,8,0:0:0:0:
320,160,169060,1,0,0:0:0:0:
320,160,169149,1,0,0:0:0:0:
352,192,169325,1,8,0:0:0:0:
352,192,169502,1,0,0:0:0:0:
320,192,169590,1,8,0:0:0:0:
352,192,169678,1,0,0:0:0:0:
352,192,169855,1,8,0:0:0:0:
352,192,170031,1,0,0:0:0:0:
352,192,170119,1,8,0:0:0:0:
352,192,170207,1,8,0:0:0:0:
352,192,170296,1,0,0:0:0:0:
352,192,170384,1,8,0:0:0:0:
352,192,170472,1,0,0:0:0:0:
352,192,170560,1,8,0:0:0:0:
352,192,170649,1,8,0:0:0:0:
352,192,170737,1,0,0:0:0:0:
352,192,170913,1,8,0:0:0:0:
320,192,171090,1,0,0:0:0:0:
320,192,171266,1,8,0:0:0:0:
352,192,171355,1,0,0:0:0:0:
352,192,171443,1,8,0:0:0:0:
352,192,171531,1,8,0:0:0:0:
352,192,171619,1,0,0:0:0:0:
352,192,171707,1,8,0:0:0:0:
352,192,171796,1,0,0:0:0:0:
352,192,171884,1,8,0:0:0:0:
352,192,171972,1,8,0:0:0:0:
352,192,172149,1,8,0:0:0:0:
352,192,172237,1,0,0:0:0:0:
352,192,172325,1,8,0:0:0:0:
352,192,172413,1,8,0:0:0:0:
352,192,172502,1,0,0:0:0:0:
352,192,172590,1,0,0:0:0:0:
352,192,172678,1,8,0:0:0:0:
288,160,172855,1,8,0:0:0:0:
320,160,172943,1,8,0:0:0:0:
288,160,173031,1,0,0:0:0:0:
288,160,173119,1,0,0:0:0:0:
288,160,173207,1,8,0:0:0:0:
320,160,173296,1,8,0:0:0:0:
320,160,173384,1,0,0:0:0:0:
320,160,173472,1,0,0:0:0:0:
320,160,173560,1,8,0:0:0:0:
256,160,173678,5,0,0:0:0:0:
288,160,173796,1,0,0:0:0:0:
288,160,173913,1,8,0:0:0:0:
288,160,174031,1,0,0:0:0:0:
288,160,174149,1,0,0:0:0:0:
288,192,174266,1,8,0:0:0:0:
384,128,174325,1,0,0:0:0:0:
384,128,174384,1,0,0:0:0:0:
288,192,174443,1,0,0:0:0:0:
384,128,174502,1,0,0:0:0:0:
352,128,174560,1,0,0:0:0:0:
352,128,174619,1,0,0:0:0:0:
352,128,174678,1,0,0:0:0:0:
352,128,174737,1,0,0:0:0:0:
352,128,174796,1,0,0:0:0:0:
352,128,174972,1,8,0:0:0:0:
352,128,175149,1,0,0:0:0:0:
352,192,175237,1,0,0:0:0:0:
352,128,175325,1,8,0:0:0:0:
352,192,175502,1,0,0:0:0:0:
352,192,175678,1,8,0:0:0:0:
352,192,175766,1,8,0:0:0:0:
352,192,175854,1,0,0:0:0:0:
352,192,175943,1,0,0:0:0:0:
384,192,176031,1,8,0:0:0:0:
384,192,176207,1,0,0:0:0:0:
384,192,176384,1,8,0:0:0:0:
384,192,176472,1,0,0:0:0:0:
384,192,176560,1,8,0:0:0:0:
384,192,176649,1,0,0:0:0:0:
384,192,176737,1,8,0:0:0:0:
320,192,176913,1,8,0:0:0:0:
320,192,177090,1,4,0:0:0:0:
384,192,177266,1,0,0:0:0:0:
384,192,177354,1,0,0:0:0:0:
384,192,177443,1,8,0:0:0:0:
352,160,177531,1,8,0:0:0:0:
384,160,177619,1,0,0:0:0:0:
384,160,177796,1,8,0:0:0:0:
384,160,177972,1,0,0:0:0:0:
384,192,178060,1,8,0:0:0:0:
384,160,178149,1,8,0:0:0:0:
384,160,178237,1,0,0:0:0:0:
384,160,178325,1,8,0:0:0:0:
384,192,178502,1,8,0:0:0:0:
352,192,178678,1,0,0:0:0:0:
352,192,178766,1,0,0:0:0:0:
352,192,178854,1,8,0:0:0:0:
352,192,178943,1,0,0:0:0:0:
352,192,179031,1,8,0:0:0:0:
352,192,179119,1,8,0:0:0:0:
352,192,179207,1,8,0:0:0:0:
352,192,179296,1,0,0:0:0:0:
352,192,179384,1,0,0:0:0:0:
352,192,179472,1,8,0:0:0:0:
384,192,179560,1,8,0:0:0:0:
384,192,179649,1,0,0:0:0:0:
384,192,179737,1,0,0:0:0:0:
384,192,179825,1,0,0:0:0:0:
384,192,179913,1,8,0:0:0:0:
352,192,180090,1,0,0:0:0:0:
352,192,180178,1,0,0:0:0:0:
320,160,180266,1,8,0:0:0:0:
352,192,180354,1,0,0:0:0:0:
352,192,180443,1,0,0:0:0:0:
288,192,180531,1,0,0:0:0:0:
352,192,180619,1,8,0:0:0:0:
416,160,180678,1,8,0:0:0:0:
416,160,180737,1,8,0:0:0:0:
416,160,180796,1,0,0:0:0:0:
416,160,180854,1,0,0:0:0:0:
416,160,180913,1,0,0:0:0:0:
416,160,180972,1,8,0:0:0:0:
416,160,181031,1,8,0:0:0:0:
416,160,181090,1,8,0:0:0:0:
416,160,181149,1,0,0:0:0:0:
416,160,181325,1,0,0:0:0:0:
416,160,181502,1,8,0:0:0:0:
384,192,181590,1,8,0:0:0:0:
384,192,181678,1,0,0:0:0:0:
384,192,181854,1,8,0:0:0:0:
384,192,182031,1,8,0:0:0:0:
416,192,182119,1,0,0:0:0:0:
416,192,182207,1,8,0:0:0:0:
416,192,182296,1,8,0:0:0:0:
416,192,182384,1,0,0:0:0:0:
416,192,182472,1,0,0:0:0:0:
416,192,182560,1,8,0:0:0:0:
416,192,182737,1,0,0:0:0:0:
352,192,182913,1,0,0:0:0:0:
352,192,183002,1,0,0:0:0:0:
352,192,183090,1,8,0:0:0:0:
352,192,183266,1,0,0:0:0:0:
320,192,183443,1,8,0:0:0:0:
320,192,183531,1,8,0:0:0:0:
320,192,183619,1,0,0:0:0:0:
320,192,183707,1,0,0:0:0:0:
320,192,183796,1,0,0:0:0:0:
320,192,183884,1,0,0:0:0:0:
320,192,183972,1,8,0:0:0:0:
320,192,184149,1,0,0:0:0:0:
320,192,184325,1,8,0:0:0:0:
320,192,184413,1,8,0:0:0:0:
320,192,184502,1,0,0:0:0:0:
320,192,184678,1,0,0:0:0:0:
320,192,184854,1,8,0:0:0:0:
352,192,184943,1,0,0:0:0:0:
352,192,185031,1,0,0:0:0:0:
352,192,185119,1,8,0:0:0:0:
352,192,185207,1,0,0:0:0:0:
352,192,185384,1,8,0:0:0:0:
352,192,185560,1,0,0:0:0:0:
416,192,185619,1,0,0:0:0:0:
416,160,185678,1,0,0:0:0:0:
416,160,185737,1,8,0:0:0:0:
416,160,185796,1,8,0:0:0:0:
416,160,185854,1,8,0:0:0:0:
416,160,185913,1,0,0:0:0:0:
384,160,186002,1,0,0:0:0:0:
384,192,186090,1,8,0:0:0:0:
384,192,186178,1,0,0:0:0:0:
384,192,186266,1,0,0:0:0:0:
352,192,186443,1,8,0:0:0:0:
352,192,186531,1,8,0:0:0:0:
352,192,186619,1,0,0:0:0:0:
352,192,186796,1,8,0:0:0:0:
352,192,186972,1,0,0:0:0:0:
352,192,187149,1,8,0:0:0:0:
352,192,187237,1,8,0:0:0:0:
352,192,187325,1,0,0:0:0:0:
352,192,187502,1,0,0:0:0:0:
352,192,187590,1,0,0:0:0:0:
352,192,187678,1,8,0:0:0:0:
352,192,187766,1,8,0:0:0:0:
352,192,187854,1,0,0:0:0:0:
352,160,187943,1,8,0:0:0:0:
352,160,188031,1,0,0:0:0:0:
352,192,188207,1,0,0:0:0:0:
192,192,188384,5,0,1:0:0:0:
320,192,188726,1,8,1:0:0:0:
320,192,189059,1,8,1:0:0:0:
320,192,189383,1,8,1:0:0:0:
320,192,189698,1,8,1:0:0:0:
320,192,189851,1,8,1:0:0:0:
320,192,190005,1,8,1:0:0:0:
320,192,190305,1,8,1:0:0:0:
320,192,190597,1,8,1:0:0:0:
192,192,190882,1,0,1:0:0:0:
320,192,191161,1,8,1:0:0:0:
320,192,191433,1,8,1:0:0:0:
320,192,191699,1,8,1:0:0:0:
320,192,191959,1,8,1:0:0:0:
320,192,192214,1,8,1:0:0:0:
320,192,192339,1,8,1:0:0:0:
320,192,192464,1,8,1:0:0:0:
320,192,192584,1,8,1:0:0:0:
320,192,192704,1,8,1:0:0:0:
320,192,192761,1,8,1:0:0:0:
320,192,192819,1,8,1:0:0:0:
320,192,192877,1,8,1:0:0:0:
192,192,192934,1,0,1:0:0:0:
192,192,193156,1,0,1:0:0:0:
320,192,193378,1,8,1:0:0:0:
192,192,193596,1,0,1:0:0:0:
320,192,193814,1,8,1:0:0:0:
192,192,194028,1,0,1:0:0:0:
320,192,194238,1,8,1:0:0:0:
192,192,194341,1,0,1:0:0:0:
192,192,194444,1,0,1:0:0:0:
192,192,194644,1,0,1:0:0:0:
192,192,194837,1,0,1:0:0:0:
320,192,195024,1,8,1:0:0:0:
192,192,195208,1,0,1:0:0:0:
320,192,195393,1,8,1:0:0:0:
192,192,195574,1,0,1:0:0:0:
192,192,195665,1,0,1:0:0:0:
320,192,195756,1,8,1:0:0:0:
192,192,195844,1,0,1:0:0:0:
192,192,195888,1,0,1:0:0:0:
320,192,195932,1,8,1:0:0:0:
320,192,196020,1,8,1:0:0:0:
192,192,196108,1,0,1:0:0:0:
320,192,196450,1,8,1:0:0:0:
192,192,196774,1,0,1:0:0:0:
320,192,197081,1,8,1:0:0:0:
192,192,197389,1,0,1:0:0:0:
192,192,197539,1,0,1:0:0:0:
320,192,197689,1,8,1:0:0:0:
192,192,197839,1,0,1:0:0:0:
192,192,197989,1,0,1:0:0:0:
320,192,198131,1,0,1:0:0:0:
192,192,198274,1,8,1:0:0:0:
192,192,198410,1,0,1:0:0:0:
192,192,198546,1,0,1:0:0:0:
192,192,198614,1,0,1:0:0:0:
320,192,198683,1,8,1:0:0:0:
192,192,198819,1,0,1:0:0:0:
320,192,198955,1,8,1:0:0:0:
192,192,199092,1,0,1:0:0:0:
320,192,199160,1,8,1:0:0:0:
320,192,199228,1,8,1:0:0:0:
192,192,199364,1,0,1:0:0:0:
192,192,199432,1,0,1:0:0:0:
320,192,199501,1,8,1:0:0:0:
320,192,199569,1,8,1:0:0:0:
192,192,199637,1,0,1:0:0:0:
192,192,199705,5,0,1:0:0:0:
320,192,199774,1,8,1:0:0:0:
320,192,199864,1,8,1:0:0:0:
320,192,199955,1,8,1:0:0:0:
320,192,200046,1,8,1:0:0:0:
320,192,200183,1,8,1:0:0:0:
320,192,200228,1,8,1:0:0:0:
320,192,200274,1,8,1:0:0:0:
320,192,200319,1,8,1:0:0:0:
320,192,200592,1,8,0:0:0:0:
192,192,200728,1,0,0:0:0:0:
192,192,201182,1,0,0:0:0:0:
320,192,201273,1,8,0:0:0:0:
192,192,201455,1,0,0:0:0:0:
320,192,201546,1,8,0:0:0:0:
320,192,201637,1,8,0:0:0:0:
192,192,201728,1,0,0:0:0:0:
192,192,201818,1,0,0:0:0:0:
192,192,202000,1,0,0:0:0:0:
192,192,202091,1,0,0:0:0:0:
192,192,202273,1,0,0:0:0:0:
320,192,202364,1,8,0:0:0:0:
192,192,202500,1,0,0:0:0:0:
192,192,202546,1,0,0:0:0:0:
192,192,202591,1,0,0:0:0:0:
320,192,202637,1,8,0:0:0:0:
320,192,202818,1,8,0:0:0:0:
192,192,202909,1,0,0:0:0:0:
192,192,203091,1,0,0:0:0:0:
192,192,203273,1,0,0:0:0:0:
320,192,203364,1,8,0:0:0:0:
192,192,203455,1,0,0:0:0:0:
192,192,203728,1,0,0:0:0:0:
320,192,203909,1,8,0:0:0:0:
192,192,204000,1,0,0:0:0:0:
192,192,204137,1,0,0:0:0:0:
192,192,204273,1,0,0:0:0:0:
320,192,204409,1,8,0:0:0:0:
192,192,204546,1,0,0:0:0:0:
192,192,204818,1,0,0:0:0:0:
320,192,204909,1,8,0:0:0:0:
192,192,205091,1,0,0:0:0:0:
192,192,205364,1,0,0:0:0:0:
192,192,205546,1,0,0:0:0:0:
320,192,205637,1,8,0:0:0:0:
320,192,205818,1,8,0:0:0:0:
192,192,205909,1,0,0:0:0:0:
320,192,206000,1,8,0:0:0:0:
320,192,206091,1,8,0:0:0:0:
192,192,206182,1,0,0:0:0:0:
192,192,206364,1,0,0:0:0:0:
192,192,206455,1,0,0:0:0:0:
320,192,206637,1,0,0:0:0:0:
320,192,206728,1,8,0:0:0:0:
320,192,206909,1,8,0:0:0:0:
192,192,207000,1,0,0:0:0:0:
192,192,207182,1,0,0:0:0:0:
192,192,207273,1,0,0:0:0:0:
192,192,207546,1,0,0:0:0:0:
320,192,207818,1,8,0:0:0:0:
192,192,208091,1,0,0:0:0:0:
192,192,208273,1,0,0:0:0:0:
320,192,208364,1,8,0:0:0:0:
320,192,208546,1,8,0:0:0:0:
320,192,208637,1,8,0:0:0:0:
320,192,208818,1,8,0:0:0:0:
192,192,208909,1,0,0:0:0:0:
192,192,209000,1,0,0:0:0:0:
320,192,209091,1,8,0:0:0:0:
192,192,209182,1,0,0:0:0:0:
192,192,209455,1,4,0:0:0:0:
192,192,209637,1,0,0:0:0:0:
192,192,209909,1,0,0:0:0:0:
320,192,210000,1,8,0:0:0:0:
320,192,210091,1,8,0:0:0:0:
192,192,210182,1,0,0:0:0:0:
320,192,210273,1,8,0:0:0:0:
320,192,210364,1,8,0:0:0:0:
320,192,210455,1,8,0:0:0:0:
192,192,210546,1,0,0:0:0:0:
320,192,210728,1,8,0:0:0:0:
192,192,210818,1,0,0:0:0:0:
192,192,210909,1,0,0:0:0:0:
320,192,211000,1,8,0:0:0:0:
192,192,211091,1,0,0:0:0:0:
192,192,211182,1,0,0:0:0:0:
192,192,211228,1,0,0:0:0:0:
192,192,211273,1,0,0:0:0:0:
320,192,211318,1,8,0:0:0:0:
320,192,211364,1,8,0:0:0:0:
320,192,211409,1,8,0:0:0:0:
192,192,211455,1,0,0:0:0:0:
192,192,211500,1,0,0:0:0:0:
192,192,211637,1,0,0:0:0:0:
192,192,211705,1,0,0:0:0:0:
192,192,211773,1,0,0:0:0:0:
192,192,211841,1,0,0:0:0:0:
320,192,211909,1,8,0:0:0:0:
192,192,212000,1,0,0:0:0:0:
320,192,212091,1,8,0:0:0:0:
192,192,212182,1,0,0:0:0:0:
320,192,212250,1,8,0:0:0:0:
320,192,212318,1,8,0:0:0:0:
320,192,212387,1,8,0:0:0:0:
320,192,212455,1,8,0:0:0:0:
320,192,212523,1,8,0:0:0:0:
320,192,212591,1,8,0:0:0:0:
320,192,212659,1,8,0:0:0:0:
320,192,212728,1,8,0:0:0:0:
320,192,212796,1,8,0:0:0:0:
192,192,212864,1,0,0:0:0:0:
320,192,213205,1,8,0:0:0:0:
192,192,213273,1,0,0:0:0:0:
192,192,213318,1,0,0:0:0:0:
192,192,213364,1,0,0:0:0:0:
192,192,213409,1,0,0:0:0:0:
192,192,213455,1,0,0:0:0:0:
192,192,213500,1,0,0:0:0:0:
320,192,213546,1,8,0:0:0:0:
192,192,213637,1,0,0:0:0:0:
320,192,213728,1,8,0:0:0:0:
192,192,213818,1,0,0:0:0:0:
192,192,214091,1,0,0:0:0:0:
192,192,214273,1,0,0:0:0:0:
320,192,214364,1,8,0:0:0:0:
192,192,214546,1,0,0:0:0:0:
320,192,214637,1,8,0:0:0:0:
192,192,214728,1,0,0:0:0:0:
320,192,214818,1,8,0:0:0:0:
320,192,214909,1,8,0:0:0:0:
320,192,215091,1,8,0:0:0:0:
192,192,215182,1,0,0:0:0:0:
192,192,215364,1,0,0:0:0:0:
320,192,215455,1,8,0:0:0:0:
320,192,215682,1,8,0:0:0:0:
320,192,215728,1,8,0:0:0:0:
192,192,216000,1,0,0:0:0:0:
320,192,216046,1,8,0:0:0:0:
320,192,216091,1,8,0:0:0:0:
192,192,216137,1,0,0:0:0:0:
192,192,216182,1,0,0:0:0:0:
320,192,216228,1,8,0:0:0:0:
320,192,216273,1,8,0:0:0:0:
192,192,216341,1,0,0:0:0:0:
192,192,216409,1,0,0:0:0:0:
192,192,216478,1,0,0:0:0:0:
320,192,216546,1,8,0:0:0:0:
320,192,216750,1,8,0:0:0:0:
192,192,216955,1,0,0:0:0:0:
320,192,217091,1,8,0:0:0:0:
320,192,217296,1,8,0:0:0:0:
320,192,217364,1,8,0:0:0:0:
192,192,217568,1,0,0:0:0:0:
320,192,217636,1,8,0:0:0:0:
192,192,217841,1,0,0:0:0:0:
320,192,217909,1,8,0:0:0:0:
192,192,217978,1,0,0:0:0:0:
192,192,218046,1,0,0:0:0:0:
256,160,218182,5,4,0:0:0:0:
256,160,218313,1,0,0:0:0:0:
256,160,218379,1,0,0:0:0:0:
256,160,218445,1,8,0:0:0:0:
288,160,218577,1,0,0:0:0:0:
288,160,218709,1,8,0:0:0:0:
288,160,218775,1,8,0:0:0:0:
288,160,218841,1,0,0:0:0:0:
288,160,218907,1,0,0:0:0:0:
288,192,218973,1,8,0:0:0:0:
288,192,219105,1,8,0:0:0:0:
256,192,219236,1,0,0:0:0:0:
288,160,219368,1,8,0:0:0:0:
288,160,219434,1,8,0:0:0:0:
288,160,219500,1,0,0:0:0:0:
288,160,219632,1,0,0:0:0:0:
320,160,219698,1,0,0:0:0:0:
320,160,219764,1,8,0:0:0:0:
320,160,219896,1,8,0:0:0:0:
320,160,220028,1,0,0:0:0:0:
320,160,220160,1,8,0:0:0:0:
320,160,220225,1,8,0:0:0:0:
320,192,220291,1,0,0:0:0:0:
320,192,220423,1,8,0:0:0:0:
320,192,220556,1,0,0:0:0:0:
320,192,220622,1,0,0:0:0:0:
320,192,220689,1,8,0:0:0:0:
320,192,220821,1,8,0:0:0:0:
320,192,220954,1,0,0:0:0:0:
352,160,221021,1,0,0:0:0:0:
352,160,221087,1,8,0:0:0:0:
320,192,221220,1,8,0:0:0:0:
384,160,221352,1,0,0:0:0:0:
384,160,221485,1,8,0:0:0:0:
384,160,221618,1,0,0:0:0:0:
384,160,221751,1,8,0:0:0:0:
384,160,221883,1,0,0:0:0:0:
384,160,222016,1,8,0:0:0:0:
384,160,222083,1,8,0:0:0:0:
384,160,222149,1,0,0:0:0:0:
384,160,222215,1,0,0:0:0:0:
384,160,222282,1,8,0:0:0:0:
384,160,222348,1,8,0:0:0:0:
352,192,222414,1,0,0:0:0:0:
352,192,222546,1,0,0:0:0:0:
320,192,222613,1,0,0:0:0:0:
320,192,222679,1,8,0:0:0:0:
320,192,222812,1,8,0:0:0:0:
320,192,222944,1,0,0:0:0:0:
320,192,223077,1,8,0:0:0:0:
320,192,223144,1,8,0:0:0:0:
320,192,223210,1,0,0:0:0:0:
320,192,223276,1,0,0:0:0:0:
320,192,223343,1,8,0:0:0:0:
320,192,223475,1,8,0:0:0:0:
288,192,223608,1,0,0:0:0:0:
288,192,223675,1,0,0:0:0:0:
288,192,223741,1,8,0:0:0:0:
288,160,223874,1,8,0:0:0:0:
288,160,224006,1,0,0:0:0:0:
288,160,224073,1,8,0:0:0:0:
288,160,224139,1,8,0:0:0:0:
288,160,224206,1,8,0:0:0:0:
288,160,224272,1,0,0:0:0:0:
288,160,224405,1,8,0:0:0:0:
288,160,224537,1,8,0:0:0:0:
288,160,224604,1,0,0:0:0:0:
288,160,224670,1,0,0:0:0:0:
288,160,224803,1,8,0:0:0:0:
288,160,224869,1,8,0:0:0:0:
288,160,224936,1,0,0:0:0:0:
288,160,225068,1,8,0:0:0:0:
288,160,225135,1,0,0:0:0:0:
288,160,225201,1,0,0:0:0:0:
288,128,225334,1,8,0:0:0:0:
288,160,225400,1,8,0:0:0:0:
288,128,225467,1,0,0:0:0:0:
288,160,225599,1,8,0:0:0:0:
256,192,225666,1,0,0:0:0:0:
288,160,225732,1,8,0:0:0:0:
288,192,225798,1,0,0:0:0:0:
288,160,225865,1,8,0:0:0:0:
288,160,225931,1,8,0:0:0:0:
288,160,225998,1,8,0:0:0:0:
288,160,226064,1,0,0:0:0:0:
288,160,226130,1,8,0:0:0:0:
288,160,226197,1,0,0:0:0:0:
288,160,226263,1,0,0:0:0:0:
288,160,226329,1,0,0:0:0:0:
288,160,226396,1,8,0:0:0:0:
288,160,226529,1,0,0:0:0:0:
288,160,226661,1,4,0:0:0:0:
288,160,226794,1,0,0:0:0:0:
288,160,226860,1,0,0:0:0:0:
288,160,226927,1,8,0:0:0:0:
320,128,227060,1,8,0:0:0:0:
288,128,227192,1,0,0:0:0:0:
288,128,227259,1,0,0:0:0:0:
288,128,227325,1,8,0:0:0:0:
320,128,227391,1,8,0:0:0:0:
288,128,227458,1,0,0:0:0:0:
288,128,227524,1,0,0:0:0:0:
288,128,227590,1,8,0:0:0:0:
288,128,227723,1,8,0:0:0:0:
288,128,227856,1,0,0:0:0:0:
288,128,227922,1,0,0:0:0:0:
288,128,227989,1,8,0:0:0:0:
288,128,228121,1,0,0:0:0:0:
288,128,228188,1,8,0:0:0:0:
288,128,228254,1,0,0:0:0:0:
288,128,228387,1,8,0:0:0:0:
288,128,228520,1,0,0:0:0:0:
320,160,228586,1,0,0:0:0:0:
288,128,228652,1,8,0:0:0:0:
320,128,228785,1,8,0:0:0:0:
320,128,228852,1,0,0:0:0:0:
320,128,228918,1,0,0:0:0:0:
320,128,228984,1,8,0:0:0:0:
320,128,229051,1,8,0:0:0:0:
320,128,229117,1,8,0:0:0:0:
320,128,229183,1,0,0:0:0:0:
320,128,229250,1,0,0:0:0:0:
320,128,229316,1,0,0:0:0:0:
320,128,229405,1,8,0:0:0:0:
320,128,229493,1,0,0:0:0:0:
288,128,229582,1,0,0:0:0:0:
288,128,229670,1,8,0:0:0:0:
320,128,229759,1,0,0:0:0:0:
320,128,229847,1,8,0:0:0:0:
320,128,229936,1,0,0:0:0:0:
320,128,230024,1,0,0:0:0:0:
320,128,230113,1,8,0:0:0:0:
320,128,230290,1,0,0:0:0:0:
320,128,230378,1,8,0:0:0:0:
320,128,230555,1,0,0:0:0:0:
320,128,230644,1,8,0:0:0:0:
320,128,230821,1,8,0:0:0:0:
320,128,230909,1,4,0:0:0:0:
320,96,231042,1,0,0:0:0:0:
320,128,231108,1,0,0:0:0:0:
320,128,231175,1,8,0:0:0:0:
320,128,231307,1,8,0:0:0:0:
320,128,231440,1,0,0:0:0:0:
320,128,231506,1,0,0:0:0:0:
320,128,231573,1,8,0:0:0:0:
320,160,231706,1,8,0:0:0:0:
320,160,231838,1,0,0:0:0:0:
320,160,231905,1,0,0:0:0:0:
320,160,231971,1,8,0:0:0:0:
288,160,232037,1,8,0:0:0:0:
288,160,232104,1,0,0:0:0:0:
288,160,232237,1,0,0:0:0:0:
288,160,232369,1,8,0:0:0:0:
288,160,232436,1,8,0:0:0:0:
256,192,232502,12,0,232900,0:0:0:0:
352,192,233033,5,0,0:0:0:0:
320,128,233099,1,0,0:0:0:0:
320,160,233166,1,8,0:0:0:0:
320,160,233232,1,8,0:0:0:0:
320,160,233298,1,0,0:0:0:0:
320,160,233365,1,0,0:0:0:0:
320,160,233431,1,8,0:0:0:0:
320,128,233498,1,8,0:0:0:0:
320,128,233564,1,0,0:0:0:0:
320,128,233630,1,0,0:0:0:0:
320,128,233697,1,8,0:0:0:0:
320,128,233763,1,8,0:0:0:0:
320,128,233829,1,0,0:0:0:0:
320,128,233896,1,0,0:0:0:0:
320,128,233962,1,8,0:0:0:0:
320,128,234029,1,8,0:0:0:0:
320,128,234095,1,0,0:0:0:0:
320,128,234183,1,0,0:0:0:0:
320,128,234272,1,8,0:0:0:0:
320,128,234360,1,0,0:0:0:0:
288,128,234537,1,0,0:0:0:0:
288,128,234626,1,8,0:0:0:0:
320,160,234891,1,8,0:0:0:0:
320,192,235157,5,0,0:0:0:0:
320,160,235690,1,12,0:0:0:0:
320,160,236248,1,0,0:0:0:0:
320,160,236819,1,12,0:0:0:0:
320,160,237404,1,0,0:0:0:0:
320,160,238004,1,12,0:0:0:0:
320,160,238619,1,0,0:0:0:0:
320,160,239250,1,12,0:0:0:0:
320,160,239895,1,0,0:0:0:0:
320,160,240540,1,12,0:0:0:0:
320,160,241185,1,0,0:0:0:0:
320,160,241537,1,0,0:0:0:0:
320,160,241900,1,12,0:0:0:0:
320,160,242650,1,0,0:0:0:0:
320,160,243404,1,0,0:0:0:0:
320,160,244159,1,0,0:0:0:0:
320,160,244986,1,0,0:0:0:0:
256,192,245828,12,0,251828,0:0:0:0:
