osu file format v6

[General]
AudioFilename: Servant of Evil.mp3
AudioLeadIn: 0
PreviewTime: 64596
Countdown: 0
SampleSet: Normal
StackLeniency: 0.7
Mode: 0
LetterboxInBreaks: 1

[Editor]
DistanceSpacing: 0.800000011920929
BeatDivisor: 4
GridSize: 8

[Metadata]
Title:Aku no Meshitsukai
Artist:Ren Kagamine
Creator:dksslqj
Version:Hard
Source:Akuno-P
Tags:kagamine ren rin aku no meshitsukai Vocaloid Servant of Evil

[Difficulty]
HPDrainRate:5
CircleSize:5
OverallDifficulty:6
SliderMultiplier:1.6
SliderTickRate:0.5

[Events]
//Background and Video events
0,0,"bg.jpg"
Video,0,"bg3.avi"
//Break Periods
2,133921,141796
2,191921,207796
2,225046,225546
//Storyboard Layer 0 (Background)
//Storyboard Layer 1 (Fail)
//Storyboard Layer 2 (Pass)
//Storyboard Layer 3 (Foreground)
//Storyboard Sound Samples
//Background Colour Transformations
3,100,163,162,255

[TimingPoints]
846,500,2,2,1,100,1,0
64720,-100,4,1,0,100,0,0
66846,-100,4,1,0,100,0,1
82720,-100,4,2,0,100,0,1
82846,-100,4,2,1,100,0,0
116721,-100,4,1,0,100,0,0
118846,-100,4,1,0,100,0,1
134846,-100,4,2,1,100,0,0
174721,-100,4,1,0,100,0,0
176846,-100,4,1,0,100,0,1
192846,-100,4,2,1,100,0,0
223721,-100,4,2,1,0,0,0
226471,-100,4,1,0,100,0,0
226846,-100,4,1,0,100,0,1
242596,-100,4,2,1,0,0,0

[Colours]
Combo1 : 0,234,234
Combo2 : 224,117,10

[HitObjects]
120,128,32846,1,8
184,128,33096,1,2
184,128,33221,1,0
184,224,33596,1,2
248,224,33846,1,8
312,224,34096,1,2
344,224,34221,1,0
376,328,34596,6,0,B|280:328,2,80,2|8|2
408,328,35221,1,0
408,256,35471,1,0
408,224,35596,1,2
408,160,35846,1,8
152,168,36846,6,0,B|256:168,1,80,8|2
232,136,37221,2,0,B|272:128|288:184|264:216|232:208,1,120,0|2
176,208,37846,2,0,B|64:208,1,80,8|2
96,176,38221,2,0,B|56:176|40:216|56:248|96:248,1,120,0|2
160,248,38846,5,8
224,248,39096,1,2
256,248,39221,1,0
256,312,39471,1,0
288,312,39596,1,2
352,312,39846,1,8
352,56,40846,6,0,B|408:56,3,40,8|0|2|0
488,56,41596,1,2
488,120,41846,1,8
488,184,42096,1,2
488,248,42346,1,0
488,312,42596,1,2
424,312,42846,5,8
360,312,43096,1,2
328,312,43221,1,0
328,248,43471,1,0
360,248,43596,1,2
424,248,43846,1,8
424,56,44596,5,2
392,56,44721,1,0
360,56,44846,2,0,B|256:56,1,80,8|2
248,56,45221,2,0,B|152:56,1,80
136,56,45596,2,0,B|24:56,1,80,2|8
136,152,46346,5,0
200,152,46596,1,2
264,152,46846,2,0,B|376:152,1,80,8|2
376,152,47221,2,0,B|424:152|424:256,1,120,0|2
480,272,47846,1,8
288,272,48596,6,0,B|288:328,2,40,2|0|8
288,144,49346,1,0
256,264,49846,1,8
320,264,50096,1,2
288,208,50346,1,0
288,80,50846,2,0,B|352:40|408:88,2,120,8|0|0
288,144,51846,1,10
96,144,52596,5,2
128,144,52721,1,0
160,144,52846,1,8
288,144,53346,2,0,B|312:144|312:112|312:80|280:80|280:80,1,80,0|2
288,144,53846,2,0,B|312:144|312:176|312:208|288:208,1,80,8|2
264,208,54221,2,0,B|168:208,1,80
152,208,54596,1,2
152,272,54846,2,0,B|256:272,1,80,8|2
264,272,55221,1,0
360,272,55596,1,2
360,208,55846,1,8
168,208,56596,6,0,B|168:256,2,40,2|0|8
296,208,57346,1,0
296,80,57846,2,0,B|392:88|336:184,2,120,8|0|0
232,80,58846,1,8
168,80,59096,1,10
136,80,59221,1,8
104,80,59346,1,8
136,136,59596,1,2
136,200,59846,1,8
264,200,60346,5,0
312,160,60596,1,2
320,224,60846,1,8
368,184,61096,1,2
416,144,61346,1,0
424,208,61596,1,2
472,168,61846,5,8
464,104,62096,1,2
464,104,62221,1,0
440,48,62471,1,0
440,48,62596,1,2
400,96,62846,1,10
336,96,63096,1,2
336,96,63221,1,2
240,96,63596,2,2,B|128:96|128:96|128:88,1,80,2|10
160,256,64846,5,4
352,256,65221,1,4
256,88,65596,1,4
240,344,66596,5,0
272,344,66721,1,0
256,312,66846,2,0,B|256:176,2,120,8|0|0
320,312,67846,2,0,B|400:312|384:224,1,120,8|0
352,232,68346,2,0,B|352:112,1,80
352,88,68846,5,8
352,152,69096,1,0
352,152,69221,1,0
288,152,69471,1,0
288,152,69596,1,0
224,152,69846,1,8
96,152,70346,6,0,B|96:256,1,80
96,296,70846,1,8
160,296,71096,1,0
160,296,71221,1,0
256,296,71596,1,0
256,232,71846,1,8
256,104,72346,5,0
320,104,72596,1,0
320,168,72846,1,8
320,232,73096,1,0
320,232,73221,1,0
416,232,73596,1,0
416,168,73846,1,8
224,168,74596,5,0
224,136,74721,1,0
224,104,74846,2,0,B|80:104,2,120,8|0|0
288,104,75846,2,0,B|424:104,1,120,8|0
408,200,76596,5,0
344,200,76846,1,8
296,240,77096,1,0
296,240,77221,1,0
248,200,77471,1,0
248,200,77596,1,0
184,200,77846,1,8
256,96,78346,5,0
256,96,78596,1,0
320,96,78846,2,0,B|320:152|296:192|256:192|208:192|192:152|192:88,1,240,8|0
128,96,79846,2,0,B|128:240,1,120,8|0
128,248,80346,1,0
192,248,80596,1,0
256,248,80846,5,8
320,248,81096,1,0
344,224,81221,1,0
368,200,81346,1,0
392,176,81471,1,0
392,112,81721,1,8
392,48,81971,1,0
392,48,82096,1,0
328,48,82346,1,8
328,48,82596,1,0
264,48,82846,5,0
168,48,83221,1,0
216,128,83596,1,0
272,208,83971,1,0
168,208,84346,1,0
168,272,84596,1,2
168,272,84846,5,8
232,272,85096,1,2
264,272,85221,2,0,B|336:272|336:192,1,120,0|2
336,128,85846,1,8
400,128,86096,1,2
400,64,86346,1,0
336,64,86596,1,2
272,64,86846,5,8
208,64,87096,1,2
208,64,87221,1,0
144,64,87471,1,0
144,64,87596,1,2
176,120,87846,1,8
416,40,88846,5,8
424,104,89096,1,2
432,136,89221,2,0,B|440:200|392:232,1,80
384,224,89596,1,2
320,224,89846,1,8
320,160,90096,1,2
320,160,90221,1,0
320,96,90471,1,0
320,96,90596,1,2
256,96,90846,2,0,B|88:96,1,160,8|0
32,96,91596,1,2
32,96,91846,1,8
288,72,92846,5,8
336,112,93096,1,2
336,112,93221,1,0
272,128,93471,1,0
272,128,93596,1,2
208,144,93846,1,8
152,176,94096,1,2
104,216,94346,1,0
64,264,94596,1,2
128,264,94846,5,8
192,264,95096,1,2
192,264,95221,1,0
240,224,95471,1,0
240,224,95596,1,2
216,160,95846,1,8
408,160,96596,5,2
408,160,96721,1,0
408,160,96846,2,0,B|408:264,1,80,8|2
408,272,97221,2,0,B|408:280|408:288|408:296|400:304|392:312|384:312|376:312|368:312|360:320|352:328|352:336|352:344|352:352|320:352,1,120,0|2
264,352,97846,1,8
264,224,98346,5,0
264,160,98596,1,2
264,96,98846,2,0,B|328:96|360:144,1,80,8|2
360,144,99221,2,0,B|400:192|400:224,1,80
408,240,99596,2,0,B|432:296|408:344,1,80,2|8
256,208,100596,6,0,B|256:152,2,40,2|0|8
256,336,101346,2,0,B|296:336|304:272|288:208|248:208,1,160,0|8
160,208,102221,1,0
200,120,102596,1,2
200,56,102846,1,8
264,56,103096,1,2
264,56,103221,1,0
264,152,103596,2,0,B|368:152,1,80,2|8
152,152,104596,5,2
152,152,104721,1,0
152,152,104846,2,0,B|328:152,1,160,8|0
256,40,105846,1,8
352,40,106221,1,0
448,40,106596,1,2
424,96,106846,1,8
328,96,107221,1,0
232,96,107596,1,2
168,96,107846,1,8
280,248,108596,6,0,B|208:248,1,40,2|0
208,248,108846,2,0,B|112:248,2,80,8|2|0
272,248,109596,1,2
280,184,109846,2,0,B|280:104|320:64|320:64|360:64,1,160,8|0
416,64,110596,1,2
480,64,110846,2,0,B|480:152|456:192|456:192|408:192|408:192|408:192,1,160,8|0
360,192,111596,1,2
360,192,111846,1,8
232,192,112346,6,0,B|136:192,1,80,0|2
152,128,112846,2,0,B|288:128,2,120,8|0|2
88,128,113846,1,8
136,208,114221,1,0
40,208,114596,1,2
88,248,114846,1,10
88,312,115096,1,2
88,312,115221,1,2
184,312,115596,2,2,B|304:312,1,80,2|10
256,48,116846,5,4
256,176,117096,1,0
256,184,117221,1,4
256,312,117471,1,0
256,320,117596,1,4
184,104,118596,5,0
208,80,118721,1,0
240,72,118846,1,8
264,168,119221,1,0
320,248,119596,1,0
256,248,119846,2,0,B|128:248,2,120,8|0|0
320,248,120846,1,8
320,184,121096,1,0
320,152,121221,1,0
368,104,121471,1,0
400,104,121596,1,0
384,168,121846,1,8
384,296,122346,5,0
384,296,122596,1,0
320,296,122846,2,0,B|320:192|320:192|328:192,1,80,8|0
288,216,123221,2,0,B|288:312,1,80
256,296,123596,2,0,B|256:200,1,80,0|8
256,88,124346,6,0,B|256:176,1,80
320,168,124846,2,0,B|320:72,1,80,8|0
352,88,125221,2,0,B|352:200,1,80
384,168,125596,2,0,B|384:80,1,80,0|8
384,280,126596,5,0
384,280,126721,1,0
384,280,126846,2,0,B|280:280,1,80,8|0
272,280,127221,2,0,B|272:160,1,80
272,168,127596,2,0,B|384:168,1,80,0|8
448,168,128221,6,0,B|448:80|352:80,1,120
320,80,128846,1,8
256,80,129096,1,0
256,80,129221,1,0
192,80,129471,1,0
192,80,129596,1,0
128,80,129846,1,8
208,176,130346,5,0
176,232,130596,1,0
240,232,130846,1,8
304,232,131096,1,0
368,232,131346,1,0
432,232,131596,1,0
432,168,131846,1,8
304,152,132346,6,0,B|304:48,1,80
240,72,132846,1,8
176,72,133096,1,0
176,72,133221,1,0
112,72,133471,1,8
48,72,133721,1,4
376,112,142846,5,8
376,208,143221,1,0
288,160,143596,1,2
224,160,143846,1,8
224,224,144096,2,0,B|224:272,1,40,2|0
136,224,144596,1,2
136,160,144846,1,8
136,96,145096,2,0,B|136:40,1,40,2|0
72,56,145471,2,0,B|72:120,1,40,0|2
72,160,145846,1,8
328,160,146846,6,0,B|472:160,2,120,8|0|2
264,160,147846,2,0,B|136:160,2,120,8|0|2
264,224,148846,1,8
200,224,149096,2,0,B|16:224,1,160,2|2
40,288,149846,1,8
296,288,150846,6,0,B|296:344,3,40,8|0|2|0
384,288,151596,5,2
344,232,151846,1,8
376,176,152096,1,2
344,120,152346,1,0
384,64,152596,1,2
336,16,152846,1,8
272,16,153096,1,2
272,16,153221,1,0
272,16,153346,1,0
232,72,153596,1,2
272,120,153846,1,8
272,312,154596,5,2
208,288,154846,2,0,B|152:240|104:248,1,80,8|2
104,240,155221,2,0,B|56:224|24:200|24:152,1,120,0|2
24,96,155846,1,8
152,96,156346,1,0
152,96,156596,1,2
152,160,156846,2,0,B|240:160,1,80,8|2
232,192,157221,2,0,B|128:192,1,80
152,224,157596,2,0,B|160:280|224:280,1,80,2|8
392,272,158596,5,2
360,272,158721,1,0
328,272,158846,1,8
280,224,159096,1,2
240,272,159346,1,0
280,320,159596,1,2
344,320,159846,2,0,B|480:320,2,120,8|0|2
280,320,160846,1,8
216,320,161096,1,2
216,320,161221,1,0
120,320,161596,1,2
120,320,161846,1,8
192,144,162596,5,2
192,112,162721,1,0
192,80,162846,2,0,B|280:80,1,80,8|2
272,144,163346,2,0,B|368:144,1,80,8|2
344,208,163846,2,0,B|392:208|400:224|400:240|392:256|344:256,1,120,8|0
264,208,164596,1,2
200,208,164846,2,0,B|144:208|88:176|80:136,2,120,8|0|2
200,272,165846,1,8
392,272,166596,5,2
392,240,166721,1,0
392,208,166846,2,0,B|392:128|320:128|320:64,1,160,8|0
224,64,167721,1,0
224,64,167846,1,8
160,64,168096,1,2
160,64,168221,1,0
192,152,168596,2,0,B|192:264,1,80,2|8
192,232,169096,1,2
192,232,169221,1,0
152,320,169596,2,0,B|192:352|240:312,1,80,2|8
344,280,170346,5,0
280,280,170596,1,2
312,224,170846,2,0,B|440:224,2,120,8|0|2
312,160,171846,2,0,B|312:32,2,120,8|0|2
248,160,172846,1,10
184,160,173096,1,2
184,160,173221,1,2
216,248,173596,1,2
216,312,173846,1,10
120,72,174846,6,0,B|120:160,1,80,4|0
120,152,175221,2,0,B|144:192|120:240,1,80,4|0
112,256,175596,1,4
312,56,176596,5,0
312,88,176721,1,0
312,120,176846,2,0,B|216:120,1,80,8|0
168,120,177346,2,0,B|64:120,1,80
88,184,177846,2,0,B|176:184,1,80,8|0
200,184,178221,1,0
232,184,178346,2,0,B|320:184,1,80
376,184,178846,5,8
376,216,178971,1,0
376,248,179096,1,0
312,248,179346,1,0
248,248,179596,1,0
184,248,179846,1,8
128,128,180346,5,0
128,192,180596,1,0
184,160,180846,2,0,B|328:160,2,120,8|0|0
184,96,181846,1,8
184,96,181971,1,0
184,96,182096,1,0
128,128,182346,1,0
128,192,182596,1,0
128,256,182846,5,8
112,320,183096,1,0
144,320,183221,1,0
216,256,183596,1,0
216,320,183846,1,8
336,168,184596,6,0,B|336:112,1,40
304,112,184846,2,0,B|264:112|224:88|224:88|184:88,2,120,8|0|0
368,112,185846,2,0,B|408:112|440:88|440:88|488:88,2,120,8|0|0
336,168,186846,1,8
336,232,187096,1,0
336,232,187221,1,0
336,232,187346,1,0
336,296,187596,1,0
336,296,187846,1,8
208,296,188346,5,0
208,232,188596,1,0
208,168,188846,1,8
192,104,189096,1,0
224,104,189221,1,0
320,104,189596,1,0
320,168,189846,1,8
280,288,190346,5,0
312,280,190471,1,0
344,280,190596,1,0
376,288,190721,1,0
400,304,190846,1,8
456,280,191096,1,0
456,280,191221,1,0
456,216,191471,2,8,B|456:128,1,80,8|4
104,80,208846,6,2,B|272:80,1,160
392,80,209846,2,2,B|480:96|440:200,2,120
392,144,210846,6,2,B|200:144,1,160
104,144,211846,2,2,B|24:152|48:240,2,120
104,208,212846,6,2,B|104:312,1,80
168,288,213346,2,2,B|168:192,1,80
232,208,213846,2,2,B|384:208,2,120
232,144,214846,6,2,B|424:144,1,160
392,16,215846,2,2,B|248:16,2,120
392,80,216846,2,2,B|376:192,1,80
336,208,217346,2,2,B|264:256,1,80
208,248,217846,2,2,B|120:208,1,80
104,160,218346,2,2,B|80:66,2,80
256,72,219346,5,2
256,200,219846,1,2
384,200,220346,1,2
392,336,220846,5,2
328,336,221096,1,2
264,336,221346,1,2
200,336,221596,1,2
136,336,221846,5,2
72,336,222096,1,2
8,336,222346,1,2
8,272,222596,1,2
72,272,222846,2,2,B|224:272,2,120
256,208,223846,12,0,224846
256,200,226596,6,0,B|256:136,1,40
256,128,226846,2,0,B|120:128,2,120,14|0|0
256,64,227846,2,0,B|400:64,2,120,10|0|0
256,128,228846,1,10
224,128,228971,1,0
192,128,229096,1,0
160,128,229221,1,0
96,128,229471,1,0
96,160,229596,1,0
96,224,229846,1,10
224,224,230346,5,0
256,224,230471,1,0
288,224,230596,1,0
288,288,230846,1,10
288,352,231096,1,0
320,352,231221,1,0
352,352,231346,1,0
352,288,231596,1,0
352,224,231846,1,10
360,96,232346,5,0
328,96,232471,1,0
296,96,232596,1,0
232,96,232846,1,10
232,160,233096,1,0
264,160,233221,1,0
296,160,233346,1,0
360,160,233596,1,0
360,224,233846,1,10
464,64,234596,5,0
464,96,234721,1,0
464,128,234846,2,0,B|464:224|464:224|456:224,1,80,10|0
464,240,235221,2,0,B|464:304,1,40
400,280,235596,1,0
336,280,235846,2,0,B|336:224,2,40,10|0|0
272,280,236346,1,0
208,280,236596,1,0
144,280,236846,2,0,B|96:272|72:232|72:208,1,80,10|0
80,200,237221,2,0,B|96:152|128:128|200:128,1,120
224,160,237846,1,10
256,104,238096,1,0
304,56,238346,6,0,B|416:56,2,80,0|0|10
240,56,239096,1,0
176,56,239346,2,0,B|88:56,2,80,0|0|10
208,112,240096,1,0
240,112,240221,1,0
272,112,240346,1,0
240,168,240596,1,0
240,232,240846,1,10
192,280,241096,1,0
224,280,241221,1,0
256,280,241346,1,0
288,280,241471,1,10
240,328,241721,1,14
256,208,242596,12,0,250846
