osu file format v12

[General]
AudioFilename: Mermaid girl -Akiba Koubou MIX-.mp3
AudioLeadIn: 0
PreviewTime: 55986
Countdown: 0
SampleSet: Soft
StackLeniency: 0.4
Mode: 0
LetterboxInBreaks: 0
WidescreenStoryboard: 1

[Editor]
Bookmarks: 3586,16386
DistanceSpacing: 1.3
BeatDivisor: 4
GridSize: 4

[Metadata]
Title:Mermaid girl -Akiba Koubou MIX-
TitleUnicode:Mermaid girl -秋葉工房MIX-
Artist:Remixed by DJ Command
ArtistUnicode:Remixed by DJ Command
Creator:Priti
Version:Black Another
Source:beatmania IIDX 19 Lincle
Tags:19th Cream puff BUBBLEGUM DANCE EUROBEAT Mayumi Morinaga moimoi Ryu* Ryu☆ BEMANI Konami Irreversible Lust Cloudchaser
BeatmapID:361687
BeatmapSetID:145909

[Difficulty]
HPDrainRate:8
CircleSize:4
OverallDifficulty:8
ApproachRate:9
SliderMultiplier:2.2
SliderTickRate:2

[Events]
//Background and Video events
0,0,"bg.jpg",0,0
//Break Periods
2,82189,87589
//Storyboard Layer 0 (Background)
//Storyboard Layer 1 (Fail)
//Storyboard Layer 2 (Pass)
//Storyboard Layer 3 (Foreground)
//Storyboard Sound Samples
//Background Colour Transformations
3,100,163,162,255

[TimingPoints]
389,400,4,2,1,55,1,0
3589,-133.333333333333,4,2,1,55,0,0
9989,-117.647058823529,4,2,1,60,0,0
10789,-117.647058823529,4,1,2,90,0,0
11589,-117.647058823529,4,2,1,60,0,0
12489,-117.647058823529,4,1,2,90,0,0
12989,-117.647058823529,4,2,1,60,0,0
16389,-100,4,2,1,65,0,1
16489,-100,4,2,1,65,0,0
17789,-100,4,2,4,65,0,0
17889,-100,4,2,1,5,0,0
17989,-100,4,2,1,65,0,0
22089,-100,4,2,1,48,0,0
22389,-50,4,2,1,48,0,1
22439,-50,4,2,1,25,0,0
22789,-100,4,2,1,65,0,0
24189,-100,4,2,4,65,0,0
24289,-100,4,2,1,5,0,0
24389,-100,4,2,1,65,0,0
30389,-100,4,2,1,55,0,0
34189,-100,4,2,4,55,0,0
34289,-100,4,2,1,5,0,0
34389,-100,4,2,1,55,0,0
34589,-100,4,2,4,55,0,0
34689,-100,4,2,1,5,0,0
34789,-100,4,2,1,55,0,0
36389,-100,4,2,1,40,0,0
37189,-100,4,2,1,55,0,0
40589,-100,4,2,4,55,0,0
40689,-100,4,2,1,5,0,0
40789,-100,4,2,1,55,0,0
40989,-100,4,2,4,55,0,0
41089,-100,4,2,1,5,0,0
41189,-100,4,2,1,55,0,0
43589,-100,4,2,1,55,0,1
43689,-100,4,2,1,55,0,0
46989,-100,4,2,4,55,0,0
47089,-100,4,2,1,5,0,0
47189,-100,4,2,1,55,0,0
47389,-100,4,2,4,55,0,0
47489,-100,4,2,1,5,0,0
47589,-100,4,2,1,55,0,0
47789,-100,4,2,4,55,0,0
47889,-100,4,2,1,5,0,0
47989,-100,4,2,1,55,0,0
49989,-100,4,2,1,55,0,1
50089,-100,4,2,1,55,0,0
51789,-100,4,2,4,55,0,0
51889,-100,4,2,1,5,0,0
51989,-100,4,2,1,55,0,0
52189,-100,4,2,4,55,0,0
52289,-100,4,2,1,5,0,0
52389,-100,4,2,1,55,0,0
53389,-100,4,2,4,55,0,0
53489,-100,4,2,1,5,0,0
53589,-100,4,2,1,55,0,0
53789,-100,4,2,4,55,0,0
53889,-100,4,2,1,5,0,0
53989,-100,4,2,1,55,0,0
54189,-100,4,2,4,55,0,0
54289,-100,4,2,1,5,0,0
54389,-100,4,2,1,55,0,0
54589,-100,4,2,4,55,0,0
54689,-100,4,2,1,5,0,0
54789,-100,4,2,1,55,0,0
55589,-100,4,2,1,40,0,0
55989,-100,4,2,1,50,0,0
56389,-76.9230769230769,4,2,1,60,0,1
60989,-76.9230769230769,4,2,4,60,0,1
61089,-76.9230769230769,4,2,1,5,0,1
61189,-76.9230769230769,4,2,1,60,0,1
68989,-76.9230769230769,4,2,4,60,0,1
69089,-83.3333333333333,4,2,1,5,0,0
69189,-83.3333333333333,4,2,1,55,0,1
70789,-125,4,2,1,55,0,0
72389,-83.3333333333333,4,2,1,55,0,1
73989,-125,4,2,1,55,0,0
74989,-125,4,2,1,52,0,0
75089,-125,4,2,1,49,0,0
75189,-125,4,2,1,46,0,0
75289,-125,4,2,1,43,0,0
75389,-125,4,2,1,40,0,0
75489,-125,4,2,1,37,0,0
75589,-83.3333333333333,4,2,1,55,0,1
81989,-100,4,2,1,55,0,0
88189,-133.333333333333,4,1,1,40,0,0
93989,-133.333333333333,4,2,1,45,0,0
94789,-100,4,2,1,45,0,1
94889,-100,4,2,1,45,0,0
96389,-71.4285714285714,4,2,1,65,0,1
97789,-71.4285714285714,4,2,4,65,0,1
97889,-71.4285714285714,4,2,1,5,0,1
97989,-71.4285714285714,4,2,1,65,0,1
109089,-71.4285714285714,4,2,1,65,0,0
109189,-76.9230769230769,4,2,1,60,0,1
118589,-76.9230769230769,4,2,4,60,0,1
118689,-76.9230769230769,4,2,1,5,0,1
118789,-76.9230769230769,4,2,1,60,0,1
121989,-76.9230769230769,4,2,1,55,0,0

[Colours]
Combo1 : 175,142,244
Combo2 : 46,129,177
Combo3 : 209,231,233
Combo4 : 98,216,255
Combo5 : 253,185,94
Combo6 : 253,102,185
Combo7 : 163,244,102

[HitObjects]
392,66,3589,1,6,0:0:0:0:
316,140,3789,1,0,0:0:0:0:
316,140,3889,1,2,0:0:0:0:
456,212,4189,1,2,0:0:0:0:
485,314,4389,1,2,0:0:0:0:
382,344,4589,1,2,0:0:0:0:
352,240,4789,1,0,0:0:0:0:
196,296,5189,6,0,P|200:240|188:204,1,82.5000031471254,2|0,0:0|0:0,0:0:0:0:
124,132,5589,2,0,P|120:76|132:40,1,82.5000031471254,0|2,0:0|0:0,0:0:0:0:
224,95,5989,1,0,0:0:0:0:
328,128,6189,1,2,0:0:0:0:
432,96,6389,1,0,0:0:0:0:
476,308,6789,85,2,0:0:0:0:
392,240,6989,1,0,0:0:0:0:
392,240,7089,1,2,0:0:0:0:
292,280,7289,1,0,0:0:0:0:
292,280,7389,1,2,0:0:0:0:
196,228,7589,1,2,0:0:0:0:
100,276,7789,1,0,0:0:0:0:
108,168,7989,1,2,0:0:0:0:
292,60,8389,5,0,0:0:0:0:
414,45,8589,1,2,0:0:0:0:
429,167,8789,1,2,0:0:0:0:
305,182,8989,1,2,0:0:0:0:
292,60,9189,1,2,0:0:0:0:
468,352,9589,1,0,0:0:0:0:
492,248,9789,1,0,1:0:0:0:
490,235,9889,1,0,1:0:0:0:
488,223,9989,85,4,1:0:0:0:
376,80,10289,1,0,0:0:0:0:
316,252,10589,1,0,0:0:0:0:
486,211,10789,1,0,0:0:0:0:
485,198,10889,1,0,0:0:0:0:
483,186,10989,1,0,0:0:0:0:
412,308,11189,1,0,0:0:0:0:
413,295,11289,1,0,0:0:0:0:
415,283,11389,1,0,0:0:0:0:
309,343,11589,6,0,L|161:355,2,140.250002675057,4|0|0,1:0|0:0|0:0,0:0:0:0:
384,176,12489,1,0,0:0:0:0:
388,160,12589,1,0,0:0:0:0:
424,44,12789,1,0,0:0:0:0:
304,64,12989,1,0,1:0:0:0:
284,68,13089,1,0,1:0:0:0:
264,72,13189,85,4,1:0:0:0:
128,100,13389,2,0,L|68:84,1,46.7500008916855
212,184,13589,1,0,1:0:0:0:
230,176,13689,2,0,L|290:160,1,46.7500008916855
96,216,13989,1,4,1:2:0:0:
192,320,14189,1,0,0:0:0:0:
328,288,14389,1,0,1:0:0:0:
96,216,14789,5,4,1:0:0:0:
96,216,15589,85,2,0:0:0:0:
131,194,15689,1,0,0:0:0:0:
172,188,15789,1,2,0:0:0:0:
213,196,15889,1,0,0:0:0:0:
247,220,15989,1,2,0:0:0:0:
273,252,16089,1,0,0:0:0:0:
306,278,16189,1,2,0:0:0:0:
347,283,16289,1,0,0:0:0:0:
391,262,16389,22,0,P|428:212|431:157,1,110,4|2,1:0|0:0,0:0:0:0:
402,94,16689,1,0,0:0:0:0:
348,40,16789,2,0,B|327:27|303:39|303:39|275:51|224:28,1,110,8|2,1:0|0:0,0:0:0:0:
88,28,17189,2,0,P|72:108|80:156,1,110,0|2,1:0|0:0,0:0:0:0:
132,276,17589,2,0,B|148:298|184:312|184:312|236:288|288:308,1,165,8|0,1:0|0:0,0:0:0:0:
350,328,17989,21,0,1:0:0:0:
419,312,18089,1,0,0:0:0:0:
473,265,18189,1,2,0:0:0:0:
491,195,18289,1,0,0:0:0:0:
478,125,18389,2,0,P|424:100|356:104,1,110,8|2,1:0|0:0,0:0:0:0:
300,124,18689,1,0,0:0:0:0:
228,152,18789,2,0,P|173:150|124:126,1,110,0|2,1:0|0:0,0:0:0:0:
4,28,19189,1,8,1:0:0:0:
108,316,19589,70,0,P|176:340|236:320,1,110,0|2,1:0|0:0,0:0:0:0:
284,304,19889,1,0,0:0:0:0:
336,248,19989,2,0,L|324:180,1,55,8|0,1:0|0:0,0:0:0:0:
412,204,20189,2,0,L|400:136,1,55,2|0,0:0|0:0,0:0:0:0:
480,152,20389,2,0,L|460:39,1,110,2|0,1:2|0:0,0:0:0:0:
308,52,20789,2,0,B|288:60|272:60|272:60|248:36|216:32|184:44,1,110,8|2,1:0|0:0,0:0:0:0:
96,148,21189,22,0,B|116:140|132:140|132:140|156:164|188:168|220:156,1,110,0|2,1:0|0:0,0:0:0:0:
276,155,21489,1,0,0:0:0:0:
347,183,21589,1,8,1:0:0:0:
371,256,21689,1,0,0:0:0:0:
338,325,21789,1,2,0:0:0:0:
184,321,21989,2,0,L|124:335,1,55,8|4,3:0|3:0,0:0:0:0:
130,233,22189,2,0,L|70:247,1,55,8|8,3:0|3:0,0:0:0:0:
76,145,22389,6,0,L|22:157,7,55,8|0|0|0|0|0|0|0,1:3|0:0|0:0|0:0|0:0|0:0|0:0|0:0,0:0:0:0:
12,196,22789,54,0,P|12:264|32:316,1,110,4|2,1:0|0:0,0:0:0:0:
92,340,23089,1,0,0:0:0:0:
168,352,23189,2,0,B|200:344|220:356|220:356|256:352|284:320,1,110,8|2,1:0|0:0,0:0:0:0:
334,290,23489,1,0,0:0:0:0:
362,218,23589,2,0,P|375:159|357:103,1,110,0|2,1:0|0:0,0:0:0:0:
216,60,23989,2,0,B|188:72|172:104|172:104|116:76|60:104,1,165,8|0,1:0|0:0,0:0:0:0:
28,153,24389,21,0,1:0:0:0:
10,222,24489,1,0,0:0:0:0:
37,287,24589,1,2,0:0:0:0:
104,311,24689,1,0,0:0:0:0:
175,320,24789,2,0,P|240:318|290:280,1,110,8|2,1:0|0:0,0:0:0:0:
317,229,25089,1,0,0:0:0:0:
261,175,25189,2,0,P|196:177|146:215,1,110,0|2,1:0|0:0,0:0:0:0:
37,287,25589,1,8,1:0:0:0:
341,335,25989,69,2,1:2:0:0:
389,346,26089,1,2,0:2:0:0:
432,321,26189,1,2,0:2:0:0:
449,274,26289,1,2,0:2:0:0:
439,225,26389,1,8,1:0:0:0:
398,196,26489,1,2,0:2:0:0:
348,197,26589,1,2,0:2:0:0:
302,216,26689,1,2,0:2:0:0:
253,206,26789,21,6,1:2:0:0:
222,167,26889,1,2,0:2:0:0:
222,117,26989,1,2,0:2:0:0:
254,79,27089,1,2,0:2:0:0:
302,71,27189,1,8,1:0:0:0:
341,101,27289,1,2,0:2:0:0:
356,148,27389,1,2,0:2:0:0:
348,197,27489,1,0,0:0:0:0:
328,242,27589,70,0,P|277:283|216:279,1,110,4|2,1:0|0:0,0:0:0:0:
158,297,27889,1,0,0:0:0:0:
83,276,27989,2,0,P|52:202|63:138,1,110,8|2,1:0|0:0,0:0:0:0:
102,113,28289,1,0,0:0:0:0:
175,90,28389,2,0,P|224:68|240:52,1,55,0|0,1:0|0:0,0:0:0:0:
384,172,28589,2,0,P|379:226|385:248,1,55,2|0,0:0|0:0,0:0:0:0:
208,313,28789,2,0,P|164:281|142:275,1,55,8|0,1:0|0:0,0:0:0:0:
303,70,29189,21,2,2:1:0:0:
127,211,29589,1,2,2:1:0:0:
337,294,29989,6,0,L|383:312,1,36.6666666666667
365,251,30122,2,0,L|418:248,1,36.6666666666667
377,201,30255,2,0,L|426:178,1,36.6666666666667
372,149,30389,54,0,P|381:93|367:36,1,110,2|0,0:0|0:0,0:0:0:0:
240,69,30789,70,0,P|172:113|124:117,1,110,4|2,1:2|0:0,0:0:0:0:
101,127,31089,1,0,0:0:0:0:
58,139,31189,2,0,P|28:188|28:252,1,110,8|2,1:0|0:0,0:0:0:0:
112,340,31589,2,0,B|131:336|154:350|154:350|190:342|218:358,1,110,0|2,1:0|0:0,0:0:0:0:
348,328,31989,1,8,1:0:0:0:
355,284,32089,1,0,0:0:0:0:
362,240,32189,1,2,0:0:0:0:
332,107,32389,22,0,P|266:143|225:147,2,110,0|2|8,1:0|0:0|1:0,0:0:0:0:
445,37,32989,2,0,P|463:115|447:162,1,110,2|0,0:0|1:0,0:0:0:0:
479,273,33389,1,2,0:0:0:0:
357,220,33589,2,0,P|339:142|355:95,1,110,8|2,1:0|0:0,0:0:0:0:
225,57,33989,70,0,P|156:61|88:137,1,165,0|0,1:0|0:0,0:0:0:0:
68,164,34389,2,0,B|82:214|58:244|33:272|53:329,1,165,8|0,1:0|0:0,0:0:0:0:
90,345,34789,2,0,P|171:342|216:302,1,110,0|0,1:0|0:0,0:0:0:0:
310,266,35189,1,8,1:0:0:0:
433,311,35389,1,2,0:0:0:0:
356,142,35589,21,0,1:0:0:0:
479,187,35789,1,2,0:0:0:0:
310,266,35989,1,8,1:0:0:0:
433,311,36189,1,2,0:0:0:0:
181,295,36389,69,8,1:3:0:0:
139,308,36489,1,8,1:3:0:0:
96,297,36589,1,8,1:3:0:0:
70,260,36689,1,8,1:3:0:0:
69,216,36789,1,8,1:3:0:0:
88,176,36889,1,8,1:3:0:0:
124,151,36989,1,8,1:3:0:0:
135,108,37089,1,8,1:3:0:0:
109,71,37189,22,0,P|52:43|-1:58,1,110,4|2,1:2|0:0,0:0:0:0:
177,126,37589,2,0,P|224:98|244:48,1,110,8|2,1:0|0:0,0:0:0:0:
94,151,37988,2,0,P|94:206|127:248,1,110,0|2,1:0|0:0,0:0:0:0:
260,246,38389,2,0,P|323:251|373:290,1,110,8|2,1:0|0:0,0:0:0:0:
431,164,38789,69,4,1:2:0:0:
228,17,39189,1,8,1:0:0:0:
81,220,39589,1,4,1:2:0:0:
284,367,39989,1,10,1:0:0:0:
385,283,40189,1,2,0:0:0:0:
261,236,40389,22,0,P|249:180|325:114,1,165,4|0,1:2|0:0,0:0:0:0:
323,191,40789,2,0,L|156:120,1,165,8|0,1:0|0:0,0:0:0:0:
95,141,41189,2,0,P|101:87|141:52,1,110,0|2,1:0|0:0,0:0:0:0:
271,26,41589,1,8,1:0:0:0:
389,84,41789,1,2,0:0:0:0:
404,215,41989,69,4,1:2:0:0:
233,340,42189,1,2,0:0:0:0:
108,169,42389,1,8,1:0:0:0:
279,44,42589,1,2,0:0:0:0:
404,215,42789,21,8,3:0:0:0:
443,234,42889,1,0,0:0:0:0:
452,276,42989,1,0,0:0:0:0:
424,310,43089,1,0,0:0:0:0:
381,320,43189,1,8,3:0:0:0:
337,312,43289,1,0,0:0:0:0:
301,285,43389,1,0,0:0:0:0:
257,279,43489,1,0,0:0:0:0:
215,292,43589,85,6,1:0:0:0:
89,360,43789,1,2,0:0:0:0:
29,230,43989,2,0,P|31:160|53:110,1,110,8|2,1:0|0:0,0:0:0:0:
167,49,44389,1,0,1:0:0:0:
170,191,44589,1,2,0:0:0:0:
45,123,44789,1,8,1:0:0:0:
48,264,44989,1,2,0:0:0:0:
170,191,45189,5,0,1:0:0:0:
152,332,45389,2,0,P|218:326|275:333,1,110,2|8,0:0|1:0,0:0:0:0:
404,349,45789,2,0,B|464:316|464:264|464:264|444:224|444:180|470:141,1,220,2|2,0:0|0:0,0:0:0:0:
396,16,46389,1,8,1:0:0:0:
308,144,46589,1,2,0:0:0:0:
164,76,46789,86,0,P|116:136|136:228,1,165,0|0,1:0|0:0,0:0:0:0:
180,268,47189,2,0,P|255:279|325:216,1,165,8|0,1:0|0:0,0:0:0:0:
338,158,47589,2,0,P|310:86|220:57,1,165,0|0,1:0|0:0,0:0:0:0:
164,76,47989,2,0,P|112:160|113:181,1,110,8|2,1:0|0:0,0:0:0:0:
52,296,48389,5,2,1:2:0:0:
177,368,48589,1,0,0:0:0:0:
305,304,48789,1,8,1:0:0:0:
342,280,48889,1,2,0:0:0:0:
472,224,49089,1,2,0:0:0:0:
480,80,49289,1,2,0:0:0:0:
436,76,49389,1,0,0:0:0:0:
312,12,49589,1,8,1:0:0:0:
264,148,49789,1,2,0:0:0:0:
139,82,49989,85,6,1:0:0:0:
58,200,50189,2,0,P|65:283|100:328,1,110,2|8,0:0|1:0,0:0:0:0:
212,351,50589,1,2,0:0:0:0:
322,259,50789,2,0,L|454:285,1,110,0|2,1:0|0:0,0:0:0:0:
347,162,51189,2,0,L|215:188,1,110,8|2,1:0|0:0,0:0:0:0:
95,170,51589,6,0,P|82:263|117:344,1,165,4|0,1:2|0:0,0:0:0:0:
176,315,51989,2,0,B|234:299|280:328|280:328|316:314|362:332,1,165,8|0,1:0|0:0,0:0:0:0:
401,293,52389,1,4,1:2:0:0:
410,250,52489,1,0,0:0:0:0:
419,207,52589,1,2,0:0:0:0:
337,89,52789,1,8,1:0:0:0:
276,218,52989,1,2,0:0:0:0:
131,126,53189,86,0,P|144:224|120:292,1,165,4|0,1:2|0:0,0:0:0:0:
190,317,53589,2,0,P|288:304|356:328,1,165,8|0,1:0|0:0,0:0:0:0:
381,258,53989,2,0,P|368:160|392:92,1,165,4|0,1:2|0:0,0:0:0:0:
322,67,54389,2,0,P|224:80|156:56,1,165,8|0,1:0|0:0,0:0:0:0:
148,153,54789,5,2,1:3:0:0:
343,117,55189,1,2,1:3:0:0:
276,305,55589,1,2,1:2:0:0:
314,326,55689,1,2,0:0:0:0:
357,331,55789,1,2,0:0:0:0:
397,314,55889,1,2,0:0:0:0:
426,281,55989,1,2,1:2:0:0:
434,237,56089,1,2,0:0:0:0:
426,193,56189,1,2,0:0:0:0:
386,172,56289,1,2,0:0:0:0:
342,155,56389,38,0,P|245:142|203:114,1,142.99999345398,4|2,1:0|0:0,0:0:0:0:
116,97,56689,1,0,0:0:0:0:
36,144,56789,2,0,P|20:214|41:281,1,142.99999345398,8|2,1:0|0:0,0:0:0:0:
246,318,57189,1,0,1:0:0:0:
101,168,57389,1,2,0:0:0:0:
130,374,57589,1,8,1:0:0:0:
228,190,57789,1,2,0:0:0:0:
410,227,57989,54,0,B|393:193|407:154|407:154|422:113|397:86,1,142.99999345398,0|2,1:0|0:0,0:0:0:0:
308,66,58289,1,0,0:0:0:0:
215,55,58389,2,0,P|128:76|86:115,1,142.99999345398,8|2,1:0|0:0,0:0:0:0:
146,287,58789,1,0,1:0:0:0:
393,239,58989,1,2,0:0:0:0:
228,49,59189,1,8,1:0:0:0:
146,287,59389,1,2,0:0:0:0:
393,239,59589,37,8,1:3:0:0:
267,329,59789,1,0,0:0:0:0:
267,329,59889,1,2,0:0:0:0:
509,282,60089,1,0,0:0:0:0:
509,282,60189,1,2,0:0:0:0:
505,90,60389,2,0,P|428:66|349:89,1,142.99999345398,0|2,1:0|0:0,0:0:0:0:
189,28,60789,2,0,P|232:132|167:214,1,214.49999018097,8|0,1:0|0:0,0:0:0:0:
117,277,61189,54,0,P|160:346|221:374,1,142.99999345398,0|2,1:0|0:0,0:0:0:0:
251,29,61589,2,0,P|170:31|115:70,1,142.99999345398,8|2,1:0|0:0,0:0:0:0:
399,269,61989,2,0,P|437:198|431:131,1,142.99999345398,0|6,1:0|3:0,0:0:0:0:
368,80,62289,1,4,3:0:0:0:
284,61,62389,1,8,3:0:0:0:
201,84,62489,1,4,3:0:0:0:
139,143,62589,1,4,3:0:0:0:
115,225,62689,1,4,3:0:0:0:
138,307,62789,38,0,B|160:336|192:340|192:340|238:324|294:343,1,142.99999345398,4|2,1:0|0:0,0:0:0:0:
359,309,63089,1,0,0:0:0:0:
427,246,63189,2,0,P|463:175|458:93,1,142.99999345398,8|2,1:0|0:0,0:0:0:0:
288,48,63589,1,0,1:0:0:0:
220,220,63789,1,2,0:0:0:0:
116,68,63989,1,8,1:0:0:0:
116,68,64089,1,0,0:0:0:0:
116,68,64189,1,2,0:0:0:0:
132,220,64389,53,0,1:0:0:0:
380,164,64589,1,2,0:0:0:0:
380,164,64689,1,0,0:0:0:0:
380,164,64789,1,8,1:0:0:0:
172,85,64989,1,2,0:0:0:0:
340,299,65189,1,0,1:0:0:0:
326,54,65389,1,2,0:0:0:0:
186,330,65589,1,8,1:0:0:0:
8,276,65789,1,2,0:0:0:0:
138,145,65989,37,8,1:3:0:0:
316,212,66189,1,2,0:0:0:0:
316,212,66289,1,2,0:0:0:0:
500,232,66489,1,2,0:0:0:0:
500,232,66589,1,2,0:0:0:0:
373,97,66789,1,4,1:2:0:0:
192,51,66989,1,2,0:0:0:0:
242,229,67189,1,8,1:0:0:0:
354,317,67389,1,2,0:0:0:0:
220,376,67589,53,4,1:2:0:0:
56,292,67789,1,2,0:0:0:0:
56,292,67889,1,2,0:0:0:0:
92,108,68089,1,2,0:0:0:0:
92,108,68189,1,2,0:0:0:0:
269,52,68389,2,0,P|351:55|411:78,1,142.99999345398,0|2,1:0|0:0,0:0:0:0:
480,248,68789,2,0,P|456:348|348:344,1,214.49999018097,8|0,1:0|0:0,0:0:0:0:
281,314,69189,54,0,P|200:288|163:228,1,131.99999597168,4|2,1:0|0:0,0:0:0:0:
162,174,69489,1,0,0:0:0:0:
192,101,69589,2,0,B|236:89|271:113|271:113|293:93|351:86,1,131.99999597168,8|2,1:0|0:0,0:0:0:0:
393,73,69889,1,0,0:0:0:0:
471,86,69989,1,0,1:0:0:0:
504,280,70189,1,2,0:0:0:0:
308,320,70389,1,8,1:0:0:0:
282,122,70789,22,0,P|211:103|172:111,1,88,2|0,0:0|0:0,0:0:0:0:
134,230,71189,2,0,P|205:249|244:241,1,88,0|2,0:0|0:0,0:0:0:0:
348,193,71589,1,0,0:0:0:0:
401,323,71789,1,2,0:0:0:0:
489,213,71989,1,2,0:0:0:0:
452,94,72389,22,0,B|416:88|391:98|366:110|316:97,1,131.99999597168,4|2,1:0|0:0,0:0:0:0:
234,104,72689,1,0,0:0:0:0:
155,138,72789,2,0,P|130:209|141:282,1,131.99999597168,8|2,1:0|0:0,0:0:0:0:
198,321,73089,1,0,0:0:0:0:
283,325,73189,1,0,1:0:0:0:
333,161,73389,1,2,0:0:0:0:
450,286,73589,1,8,1:0:0:0:
490,120,73989,70,0,P|435:86|393:93,1,88,0|2,0:0|0:0,0:0:0:0:
288,154,74389,2,0,P|233:188|194:183,2,88,2|0|2,0:0|0:0|0:0,0:0:0:0:
322,126,74889,1,8,3:0:0:0:
363,110,74989,1,8,3:0:0:0:
406,111,75089,1,8,3:0:0:0:
445,130,75189,1,8,3:0:0:0:
468,166,75289,1,8,3:0:0:0:
449,206,75389,1,8,3:0:0:0:
451,249,75489,1,8,3:0:0:0:
461,293,75589,70,0,P|392:337|335:336,1,131.99999597168,4|2,1:0|0:0,0:0:0:0:
257,333,75889,1,0,0:0:0:0:
190,281,75989,2,0,B|160:256|136:256|136:256|108:272|55:253,1,131.99999597168,8|2,1:0|0:0,0:0:0:0:
23,182,76289,1,0,0:0:0:0:
61,105,76389,1,0,1:0:0:0:
254,147,76589,1,2,0:0:0:0:
54,21,76789,1,8,1:0:0:0:
247,63,77189,53,0,1:0:0:0:
324,81,77289,1,0,0:0:0:0:
385,131,77389,1,2,0:0:0:0:
432,194,77489,1,0,0:0:0:0:
418,272,77589,2,0,B|380:264|352:280|352:280|340:256|300:240,1,131.99999597168,8|2,1:0|0:0,0:0:0:0:
170,121,77989,1,0,1:0:0:0:
139,290,78189,1,2,0:0:0:0:
301,231,78389,1,8,1:0:0:0:
170,121,78789,37,4,1:2:0:0:
214,92,78889,1,0,0:0:0:0:
266,93,78989,1,0,0:0:0:0:
307,126,79089,1,0,0:0:0:0:
352,151,79189,1,8,1:0:0:0:
404,150,79289,1,0,0:0:0:0:
452,128,79389,1,0,0:0:0:0:
460,75,79489,1,0,0:0:0:0:
425,34,79589,53,4,1:2:0:0:
374,50,79689,1,0,0:0:0:0:
352,98,79789,1,0,0:0:0:0:
352,151,79889,1,0,0:0:0:0:
362,202,79989,1,8,1:0:0:0:
395,243,80089,1,0,0:0:0:0:
438,272,80189,1,0,0:0:0:0:
493,281,80289,1,0,0:0:0:0:
493,281,80389,38,0,P|501:331|426:376,1,131.99999597168,4|2,1:2|0:0,0:0:0:0:
365,362,80689,1,0,0:0:0:0:
294,326,80789,2,0,B|240:338|217:282|164:294,1,131.99999597168,12|2,1:0|0:0,0:0:0:0:
96,260,81089,1,0,0:0:0:0:
116,183,81189,1,0,1:0:0:0:
333,75,81389,1,2,0:0:0:0:
318,317,81589,1,8,1:0:0:0:
304,324,81989,21,6,1:0:0:0:
444,314,88189,101,0,0:0:0:0:
428,312,88289,1,0,0:0:0:0:
411,309,88389,1,4,0:0:0:0:
295,295,88789,1,0,0:0:0:0:
179,281,89189,1,0,0:0:0:0:
63,267,89589,1,0,0:0:0:0:
19,160,89789,1,0,0:0:0:0:
19,160,89989,85,0,0:0:0:0:
135,174,90389,1,0,0:0:0:0:
251,188,90789,1,0,0:0:0:0:
367,202,91189,1,0,0:0:0:0:
436,112,91389,1,0,0:0:0:0:
436,112,91489,1,0,0:0:0:0:
436,112,91589,5,4,0:2:0:0:
320,98,91789,1,0,0:0:0:0:
204,84,91989,1,0,0:0:0:0:
88,70,92189,1,0,0:0:0:0:
20,202,92389,85,4,0:3:0:0:
136,216,92589,1,0,0:0:0:0:
252,230,92789,1,4,0:3:0:0:
368,244,92989,1,0,0:0:0:0:
20,202,93189,5,2,0:0:0:0:
368,244,93589,1,2,0:0:0:0:
256,192,93989,12,4,94789,1:0:0:0:
344,116,95989,5,0,1:0:0:0:
146,153,96189,1,2,0:0:0:0:
277,306,96389,2,0,P|376:304|417:255,1,153.999995300293,4|2,1:0|0:0,0:0:0:0:
444,172,96689,1,0,0:0:0:0:
432,72,96789,1,8,1:0:0:0:
240,132,96989,1,2,0:0:0:0:
48,72,97189,1,0,1:0:0:0:
93,266,97389,1,2,0:0:0:0:
240,132,97589,2,0,B|279:164|339:145|339:145|388:74|483:113,1,230.99999295044,8|0,1:0|0:0,0:0:0:0:
421,198,97989,6,0,P|414:288|365:338,1,153.999995300293,0|2,1:0|0:0,0:0:0:0:
280,344,98289,1,0,0:0:0:0:
190,322,98389,1,8,1:0:0:0:
125,256,98489,1,0,0:0:0:0:
100,167,98589,1,0,0:0:0:0:
232,40,98789,2,0,P|310:51|392:29,1,153.999995300293,0|2,1:0|0:0,0:0:0:0:
280,344,99189,2,0,P|202:333|120:355,1,153.999995300293,8|2,1:0|0:0,0:0:0:0:
471,241,99589,85,8,1:3:0:0:
350,81,99789,1,2,0:0:0:0:
304,52,99889,1,2,0:0:0:0:
162,303,100089,1,2,0:0:0:0:
208,332,100189,1,2,0:0:0:0:
44,222,100389,2,0,P|38:155|90:73,1,153.999995300293,0|2,1:0|0:0,0:0:0:0:
468,162,100789,2,0,P|474:229|422:311,1,153.999995300293,8|2,1:0|0:0,0:0:0:0:
295,321,101189,5,0,1:0:0:0:
217,63,101389,1,2,0:0:0:0:
385,153,101589,1,8,1:0:0:0:
127,231,101789,1,2,0:0:0:0:
295,321,101989,2,0,P|397:304|457:318,1,153.999995300293,0|2,1:0|0:0,0:0:0:0:
217,63,102389,2,0,P|115:80|55:66,1,153.999995300293,8|2,1:0|0:0,0:0:0:0:
295,321,102789,86,0,P|280:221|315:163,1,153.999995300293,0|2,1:0|0:0,0:0:0:0:
396,139,103089,1,0,0:0:0:0:
494,155,103189,2,0,P|509:255|474:313,1,153.999995300293,8|2,1:0|0:0,0:0:0:0:
295,321,103589,1,0,1:0:0:0:
217,63,103789,1,2,0:0:0:0:
385,153,103989,1,8,1:0:0:0:
127,231,104189,1,2,0:0:0:0:
36,325,104389,6,0,P|104:359|180:355,1,153.999995300293,0|2,1:0|0:0,0:0:0:0:
272,354,104689,1,0,0:0:0:0:
358,321,104789,1,8,1:0:0:0:
412,246,104889,1,0,0:0:0:0:
424,154,104989,1,2,0:0:0:0:
372,77,105089,1,0,0:0:0:0:
286,45,105189,2,0,P|193:53|125:38,1,153.999995300293,0|2,1:0|0:0,0:0:0:0:
226,339,105589,2,0,P|319:331|387:346,1,153.999995300293,8|0,1:0|0:0,0:0:0:0:
256,192,105989,85,8,1:3:0:0:
118,92,106189,1,2,0:0:0:0:
134,41,106289,1,2,0:0:0:0:
394,292,106489,1,2,0:0:0:0:
377,342,106589,1,2,0:0:0:0:
360,84,106789,2,0,P|440:100|520:68,1,153.999995300293,4|2,1:2|0:0,0:0:0:0:
152,300,107189,2,0,P|72:284|-8:316,1,153.999995300293,8|2,1:0|0:0,0:0:0:0:
196,364,107589,6,0,P|280:352|330:287,1,153.999995300293,2|2,1:2|0:0,0:0:0:0:
352,214,107889,1,0,0:0:0:0:
316,128,107989,1,8,1:0:0:0:
230,92,108089,1,0,0:0:0:0:
142,120,108189,1,2,0:0:0:0:
93,198,108289,1,0,0:0:0:0:
130,284,108389,1,0,1:0:0:0:
398,255,108589,1,2,0:0:0:0:
239,36,108789,1,4,1:3:0:0:
177,29,108889,1,4,3:0:0:0:
117,43,108989,1,4,3:0:0:0:
65,77,109089,1,4,3:0:0:0:
36,126,109189,22,0,P|15:205|41:278,1,142.99999345398,4|2,1:0|0:0,0:0:0:0:
104,319,109489,1,0,0:0:0:0:
196,312,109589,2,0,P|290:293|352:301,1,142.99999345398,8|2,1:0|0:0,0:0:0:0:
426,320,109889,1,0,0:0:0:0:
503,268,109989,1,0,1:0:0:0:
398,114,110189,1,2,0:0:0:0:
214,81,110389,2,0,P|125:47|68:37,1,142.99999345398,8|2,1:0|0:0,0:0:0:0:
298,303,110789,6,0,P|387:337|411:343,1,71.4999967269899,0|0,1:0|0:0,0:0:0:0:
442,160,110989,2,0,P|408:147|376:133,1,71.4999967269899,2|0,0:0|0:0,0:0:0:0:
340,218,111189,2,0,P|373:233|407:246,1,71.4999967269899,8|0,1:0|0:0,0:0:0:0:
481,75,111389,2,0,P|447:62|414:47,1,71.4999967269899,2|0,0:0|0:0,0:0:0:0:
323,63,111589,1,0,1:0:0:0:
189,321,111789,1,2,0:0:0:0:
127,125,111989,1,8,1:0:0:0:
385,259,112189,1,2,0:0:0:0:
323,63,112389,86,0,P|403:71|470:108,1,142.99999345398,0|2,0:0|0:0,0:0:0:0:
488,178,112689,1,0,0:0:0:0:
458,258,112789,1,8,1:0:0:0:
383,301,112889,1,0,0:0:0:0:
301,273,112989,1,2,0:0:0:0:
215,267,113089,1,0,0:0:0:0:
131,288,113189,2,0,P|70:238|50:163,1,142.99999345398,0|2,1:0|0:0,0:0:0:0:
216,94,113589,6,0,L|205:59,1,35.749998363495,8|0,1:0|0:0,0:0:0:0:
252,93,113689,2,0,L|253:57,1,35.749998363495,2|0,0:0|0:0,0:0:0:0:
288,102,113789,2,0,L|300:68,1,35.749998363495,2|0,0:0|0:0,0:0:0:0:
331,120,113889,2,0,L|344:86,1,35.749998363495,2|0,0:0|0:0,0:0:0:0:
369,140,113989,86,0,P|380:212|340:280,1,142.99999345398,0|2,1:0|0:0,0:0:0:0:
255,277,114289,1,0,0:0:0:0:
172,236,114389,2,0,P|128:184|43:199,1,142.99999345398,8|2,1:0|0:0,0:0:0:0:
13,267,114689,1,0,0:0:0:0:
39,356,114789,6,0,L|131:367,1,71.4999967269899,4|4,1:3|3:0,0:0:0:0:
172,236,114989,2,0,L|242:227,1,71.4999967269899,4|4,3:0|3:0,0:0:0:0:
311,353,115189,2,0,L|381:361,1,71.4999967269899,4|4,3:0|3:0,0:0:0:0:
437,227,115389,2,0,L|507:218,1,71.4999967269899,4|4,3:0|3:0,0:0:0:0:
311,353,115589,86,0,L|468:373,1,142.99999345398,4|2,1:0|0:0,0:0:0:0:
505,294,115889,1,0,0:0:0:0:
501,201,115989,2,0,P|489:121|446:61,1,142.99999345398,8|2,1:0|0:0,0:0:0:0:
362,57,116289,1,0,0:0:0:0:
269,64,116389,2,0,P|192:66|113:51,1,142.99999345398,0|2,1:0|0:0,0:0:0:0:
243,320,116789,2,0,P|320:318|399:333,1,142.99999345398,8|2,1:0|0:0,0:0:0:0:
454,156,117189,5,0,1:0:0:0:
374,124,117289,1,0,0:0:0:0:
288,116,117389,1,2,0:0:0:0:
205,140,117489,1,0,0:0:0:0:
128,179,117589,2,0,P|130:256|115:335,1,142.99999345398,8|2,1:0|0:0,0:0:0:0:
28,344,117889,1,0,0:0:0:0:
28,344,117989,2,0,P|26:267|41:188,1,142.99999345398,0|2,1:0|0:0,0:0:0:0:
128,40,118389,2,0,B|172:76|231:49|292:20|336:56,1,214.49999018097,8|0,1:0|0:0,0:0:0:0:
379,90,118789,85,6,1:2:0:0:
407,139,118889,1,2,0:2:0:0:
418,194,118989,1,2,0:2:0:0:
406,250,119089,1,2,0:2:0:0:
365,290,119189,1,8,1:0:0:0:
310,309,119289,1,2,0:2:0:0:
253,301,119389,1,2,0:2:0:0:
207,266,119489,1,2,0:2:0:0:
212,209,119589,5,6,1:2:0:0:
258,175,119689,1,2,0:2:0:0:
313,189,119789,1,2,0:2:0:0:
334,241,119889,1,2,0:2:0:0:
320,296,119989,1,8,1:0:0:0:
269,323,120089,1,2,0:2:0:0:
213,336,120189,1,2,0:2:0:0:
155,333,120289,1,2,0:2:0:0:
99,315,120389,86,0,P|72:229|85:151,1,142.99999345398,4|2,1:2|0:0,0:0:0:0:
149,118,120689,1,0,0:0:0:0:
239,96,120789,2,0,B|272:91|272:91|302:114|339:121|391:105,1,142.99999345398,8|2,1:0|0:0,0:0:0:0:
460,144,121089,1,0,0:0:0:0:
493,212,121189,6,0,P|484:292|479:306,1,71.4999967269899,8|8,1:3|0:3,0:0:0:0:
174,338,121389,2,0,P|168:303|168:268,1,71.4999967269899,8|8,0:3|0:3,0:0:0:0:
344,268,121589,2,0,P|335:348|330:362,1,71.4999967269899,8|8,0:3|0:3,0:0:0:0:
25,282,121789,2,0,P|19:247|19:212,1,71.4999967269899,8|8,0:3|0:3,0:0:0:0:
256,128,121989,37,4,1:0:0:0:
