osu file format v12

[General]
AudioFilename: Mermaid girl -Akiba Koubou MIX-.mp3
AudioLeadIn: 2000
PreviewTime: 55986
Countdown: 0
SampleSet: Soft
StackLeniency: 0.7
Mode: 3
LetterboxInBreaks: 0
SpecialStyle: 0
WidescreenStoryboard: 0

[Editor]
DistanceSpacing: 0.9
BeatDivisor: 4
GridSize: 16

[Metadata]
Title:Mermaid girl -Akiba Koubou MIX-
TitleUnicode:Mermaid girl -秋葉工房MIX-
Artist:Remixed by DJ Command
ArtistUnicode:Remixed by DJ Command
Creator:Lieselotte
Version:LV.5
Source:beatmania IIDX
Tags:19th Lincle
BeatmapID:256924
BeatmapSetID:95609

[Difficulty]
HPDrainRate:6
CircleSize:7
OverallDifficulty:6
ApproachRate:5
SliderMultiplier:2
SliderTickRate:1

[Events]
//Background and Video events
0,0,"BG.jpg",0,0
//Break Periods
//Storyboard Layer 0 (Background)
//Storyboard Layer 1 (Fail)
//Storyboard Layer 2 (Pass)
//Storyboard Layer 3 (Foreground)
//Storyboard Sound Samples
Sample,9986,0,"crash.wav",70
Sample,11586,0,"crash.wav",70
Sample,13186,0,"crash.wav",70
Sample,13986,0,"crash.wav",70
Sample,14786,0,"crash.wav",70
Sample,16386,0,"crash.wav",70
Sample,22786,0,"crash.wav",70
Sample,25986,0,"crash.wav",70
Sample,26786,0,"crash.wav",70
Sample,27586,0,"crash.wav",70
Sample,30786,0,"crash.wav",70
Sample,37186,0,"crash.wav",70
Sample,38786,0,"crash.wav",70
Sample,39186,0,"crash.wav",70
Sample,39586,0,"crash.wav",70
Sample,40386,0,"crash.wav",70
Sample,41986,0,"crash.wav",70
Sample,42386,0,"crash.wav",70
Sample,49986,0,"crash.wav",70
Sample,51586,0,"crash.wav",70
Sample,51986,0,"crash.wav",70
Sample,52386,0,"crash.wav",70
Sample,53186,0,"crash.wav",70
Sample,53986,0,"crash.wav",70
Sample,56386,0,"crash.wav",70
Sample,62786,0,"crash.wav",70
Sample,66786,0,"crash.wav",70
Sample,69186,0,"crash.wav",70
Sample,72386,0,"crash.wav",70
Sample,75586,0,"crash.wav",70
Sample,78786,0,"crash.wav",70
Sample,79586,0,"crash.wav",70
Sample,80386,0,"crash.wav",70
Sample,81186,0,"crash.wav",70
Sample,92386,0,"crash.wav",70
Sample,102786,0,"crash.wav",70
Sample,108386,0,"crash.wav",70
Sample,109186,0,"crash.wav",70
Sample,115586,0,"crash.wav",70
Sample,119586,0,"crash.wav",70
Sample,120386,0,"crash.wav",70
Sample,121186,0,"crash.wav",70
Sample,121186,0,"crash.wav",70
//Background Colour Transformations
3,100,0,0,0

[TimingPoints]
386,400,4,2,0,30,1,0

[Colours]
Combo1 : 181,181,253
Combo2 : 255,187,255

[HitObjects]
109,192,3186,1,0,0:0:0:0:
402,192,3386,1,0,0:0:0:0:
109,192,3586,1,0,0:0:0:70:crash.wav
475,192,3786,1,0,0:0:0:0:
329,192,3886,1,0,0:0:0:0:
109,192,4186,1,0,0:0:0:0:
475,192,4386,1,0,0:0:0:0:
402,192,4586,1,0,0:0:0:0:
329,192,4786,1,0,0:0:0:0:
402,192,6786,1,0,0:0:0:0:
36,192,6986,1,0,0:0:0:0:
182,192,7086,1,0,0:0:0:0:
475,192,7286,1,0,0:0:0:0:
329,192,7386,1,0,0:0:0:0:
36,192,7586,1,0,0:0:0:0:
109,192,7786,1,0,0:0:0:0:
182,192,7986,1,0,0:0:0:0:
475,192,9986,1,0,0:0:0:70:kick3.wav
475,192,10286,1,0,0:0:0:70:kick3.wav
475,192,10586,1,0,0:0:0:70:kick3.wav
36,192,11586,1,0,0:0:0:70:kick3.wav
36,192,11886,1,0,0:0:0:70:kick3.wav
36,192,12186,1,0,0:0:0:70:kick3.wav
329,192,13186,1,0,0:0:0:70:kick3.wav
36,192,13386,1,0,0:0:0:0:
182,192,13486,1,0,0:0:0:0:
475,192,13686,1,0,0:0:0:0:
329,192,13786,1,0,0:0:0:0:
36,192,13986,1,0,0:0:0:70:kick3.wav
109,192,14186,1,0,0:0:0:0:
182,192,14386,1,0,0:0:0:70:kick3.wav
475,192,14786,1,0,0:0:0:70:kick3.wav
182,192,14986,1,0,0:0:0:0:
329,192,15086,1,0,0:0:0:0:
182,192,15286,1,0,0:0:0:0:
329,192,15386,1,0,0:0:0:0:
109,192,15586,1,0,0:0:0:0:
402,192,15786,1,0,0:0:0:0:
109,192,15986,1,0,0:0:0:0:
329,192,16386,1,0,0:0:0:70:kick3.wav
329,192,16786,1,0,0:0:0:70:kick3.wav
36,192,17186,1,0,0:0:0:70:kick3.wav
109,192,17386,1,0,0:0:0:0:
182,192,17586,1,0,0:0:0:70:kick3.wav
329,192,17986,1,0,0:0:0:70:kick3.wav
402,192,18786,1,0,0:0:0:70:kick3.wav
109,192,18986,1,0,0:0:0:0:
402,192,19186,1,0,0:0:0:70:kick3.wav
36,192,19586,1,0,0:0:0:70:kick3.wav
36,192,19986,1,0,0:0:0:70:kick3.wav
475,192,20386,1,0,0:0:0:70:kick3.wav
402,192,20586,1,0,0:0:0:0:
329,192,20786,1,0,0:0:0:70:kick3.wav
109,192,21186,1,0,0:0:0:70:kick3.wav
109,192,21486,1,0,0:0:0:0:
402,192,21786,1,0,0:0:0:0:
109,192,21986,1,0,0:0:0:70:kick3.wav
182,192,22786,1,0,0:0:0:70:kick3.wav
182,192,23186,1,0,0:0:0:70:kick3.wav
475,192,23586,1,0,0:0:0:70:kick3.wav
402,192,23786,1,0,0:0:0:0:
329,192,23986,1,0,0:0:0:70:kick3.wav
182,192,24386,1,0,0:0:0:70:kick3.wav
36,192,25186,1,0,0:0:0:70:kick3.wav
109,192,25386,1,0,0:0:0:0:
182,192,25586,1,0,0:0:0:70:kick3.wav
475,192,25986,128,0,26786:0:0:0:70:kick3.wav
36,192,26786,128,0,27586:0:0:0:70:kick3.wav
475,192,27586,1,0,0:0:0:70:kick3.wav
475,192,27886,1,0,0:0:0:0:
182,192,28186,1,0,0:0:0:0:
475,192,28386,1,0,0:0:0:70:kick3.wav
329,192,28586,1,0,0:0:0:70:kick3.wav
182,192,28786,1,0,0:0:0:70:kick3.wav
256,192,29186,1,0,0:0:0:70:crash.wav
256,192,29586,1,0,0:0:0:70:crash.wav
36,192,30786,1,0,0:0:0:70:kick3.wav
475,192,31186,1,0,0:0:0:70:kick3.wav
36,192,31586,1,0,0:0:0:70:kick3.wav
475,192,31986,1,0,0:0:0:70:kick3.wav
182,192,32386,1,0,0:0:0:70:kick3.wav
329,192,32586,1,0,0:0:0:0:
109,192,32786,1,0,0:0:0:70:kick3.wav
402,192,32986,1,0,0:0:0:0:
475,192,33986,1,0,0:0:0:70:kick3.wav
36,192,34386,1,0,0:0:0:70:kick3.wav
475,192,34786,1,0,0:0:0:70:kick3.wav
36,192,35186,1,0,0:0:0:70:kick3.wav
402,192,35586,1,0,0:0:0:70:kick3.wav
109,192,35786,1,0,0:0:0:0:
329,192,35986,1,0,0:0:0:70:kick3.wav
182,192,36186,1,0,0:0:0:0:
182,192,36786,1,0,0:0:0:70:kick3.wav
329,192,36986,1,0,0:0:0:0:
475,192,37186,1,0,0:0:0:70:kick3.wav
109,192,37586,1,0,0:0:0:70:kick3.wav
475,192,37986,1,0,0:0:0:70:kick3.wav
109,192,38386,1,0,0:0:0:70:kick3.wav
475,192,38786,1,0,0:0:0:70:kick3.wav
402,192,39186,1,0,0:0:0:70:kick3.wav
329,192,39586,1,0,0:0:0:70:kick3.wav
36,192,39986,1,0,0:0:0:0:
182,192,40186,1,0,0:0:0:0:
329,192,40386,1,0,0:0:0:70:kick3.wav
182,192,40786,1,0,0:0:0:70:kick3.wav
329,192,41186,1,0,0:0:0:70:kick3.wav
182,192,41586,1,0,0:0:0:70:kick3.wav
329,192,41786,1,0,0:0:0:0:
109,192,41986,1,0,0:0:0:70:kick3.wav
402,192,42186,1,0,0:0:0:0:
109,192,42386,1,0,0:0:0:70:kick3.wav
402,192,43586,1,0,0:0:0:70:crash.wav
109,192,43586,1,0,0:0:0:70:kick3.wav
402,192,43986,1,0,0:0:0:70:kick3.wav
109,192,44386,1,0,0:0:0:70:kick3.wav
402,192,44786,1,0,0:0:0:70:kick3.wav
109,192,45186,1,0,0:0:0:70:kick3.wav
402,192,45586,1,0,0:0:0:70:kick3.wav
109,192,45986,1,0,0:0:0:70:kick3.wav
402,192,46386,1,0,0:0:0:70:kick3.wav
36,192,46786,1,0,0:0:0:70:kick3.wav
182,192,47186,1,0,0:0:0:70:kick3.wav
329,192,47586,1,0,0:0:0:70:kick3.wav
475,192,47986,1,0,0:0:0:70:kick3.wav
329,192,48386,128,0,49586:0:0:0:70:kick3.wav
402,192,49986,1,0,0:0:0:70:kick3.wav
109,192,50386,1,0,0:0:0:70:kick3.wav
402,192,50786,1,0,0:0:0:70:kick3.wav
109,192,51186,1,0,0:0:0:70:kick3.wav
475,192,51586,1,0,0:0:0:70:kick3.wav
329,192,51986,1,0,0:0:0:70:kick3.wav
182,192,52386,1,0,0:0:0:70:kick3.wav
109,192,53186,1,0,0:0:0:70:kick3.wav
402,192,53586,1,0,0:0:0:70:kick3.wav
182,192,53986,1,0,0:0:0:70:kick3.wav
329,192,54386,1,0,0:0:0:70:kick3.wav
256,192,54786,1,0,0:0:0:70:crash.wav
256,192,55186,1,0,0:0:0:70:crash.wav
109,192,56386,1,0,0:0:0:70:kick3.wav
475,192,56586,1,0,0:0:0:0:
329,192,56686,1,0,0:0:0:0:
402,192,56986,1,0,0:0:0:0:
36,192,57186,1,0,0:0:0:70:kick3.wav
109,192,57386,1,0,0:0:0:0:
182,192,57586,1,0,0:0:0:70:kick3.wav
109,192,58786,1,0,0:0:0:70:kick3.wav
402,192,58986,1,0,0:0:0:0:
109,192,59186,1,0,0:0:0:70:kick3.wav
402,192,59586,1,0,0:0:0:70:kick3.wav
36,192,59786,1,0,0:0:0:0:
182,192,59886,1,0,0:0:0:0:
475,192,60086,1,0,0:0:0:0:
329,192,60186,1,0,0:0:0:0:
36,192,60386,1,0,0:0:0:70:kick3.wav
109,192,60586,1,0,0:0:0:0:
182,192,60786,1,0,0:0:0:70:kick3.wav
475,192,61186,1,0,0:0:0:70:kick3.wav
329,192,61386,1,0,0:0:0:0:
182,192,61586,1,0,0:0:0:70:kick3.wav
36,192,61786,1,0,0:0:0:0:
182,192,61986,1,0,0:0:0:70:kick3.wav
402,192,62786,1,0,0:0:0:70:kick3.wav
36,192,62986,1,0,0:0:0:0:
182,192,63086,1,0,0:0:0:0:
109,192,63386,1,0,0:0:0:0:
475,192,63586,1,0,0:0:0:70:kick3.wav
402,192,63786,1,0,0:0:0:0:
329,192,63986,1,0,0:0:0:70:kick3.wav
402,192,65186,1,0,0:0:0:70:kick3.wav
109,192,65386,1,0,0:0:0:0:
402,192,65586,1,0,0:0:0:70:kick3.wav
109,192,65986,1,0,0:0:0:70:kick3.wav
475,192,66186,1,0,0:0:0:0:
329,192,66286,1,0,0:0:0:0:
36,192,66486,1,0,0:0:0:0:
182,192,66586,1,0,0:0:0:0:
475,192,66786,1,0,0:0:0:70:kick3.wav
402,192,66986,1,0,0:0:0:0:
329,192,67186,1,0,0:0:0:70:kick3.wav
402,192,67586,1,0,0:0:0:70:kick3.wav
36,192,67786,1,0,0:0:0:0:
182,192,67886,1,0,0:0:0:0:
475,192,68086,1,0,0:0:0:0:
329,192,68186,1,0,0:0:0:0:
36,192,68386,1,0,0:0:0:70:kick3.wav
109,192,68586,1,0,0:0:0:0:
182,192,68786,1,0,0:0:0:70:kick3.wav
36,192,69186,1,0,0:0:0:70:kick3.wav
36,192,69586,1,0,0:0:0:70:kick3.wav
182,192,69986,1,0,0:0:0:70:kick3.wav
329,192,70186,1,0,0:0:0:0:
182,192,70386,1,0,0:0:0:70:kick3.wav
475,192,72386,1,0,0:0:0:70:kick3.wav
475,192,72786,1,0,0:0:0:70:kick3.wav
329,192,73186,1,0,0:0:0:70:kick3.wav
182,192,73386,1,0,0:0:0:0:
329,192,73586,1,0,0:0:0:70:kick3.wav
475,192,75386,1,0,0:0:0:0:
329,192,75486,1,0,0:0:0:0:
182,192,75586,1,0,0:0:0:70:kick3.wav
182,192,75986,1,0,0:0:0:70:kick3.wav
402,192,76386,1,0,0:0:0:70:kick3.wav
109,192,76586,1,0,0:0:0:0:
402,192,76786,1,0,0:0:0:70:kick3.wav
329,192,77186,1,0,0:0:0:70:kick3.wav
329,192,77586,1,0,0:0:0:70:kick3.wav
109,192,77986,1,0,0:0:0:70:kick3.wav
402,192,78186,1,0,0:0:0:0:
109,192,78386,1,0,0:0:0:70:kick3.wav
36,192,78786,128,0,79586:0:0:0:70:kick3.wav
475,192,79586,128,0,80386:0:0:0:70:kick3.wav
109,192,80386,1,0,0:0:0:70:kick3.wav
109,192,80686,1,0,0:0:0:0:
402,192,80986,1,0,0:0:0:0:
109,192,81186,1,0,0:0:0:70:kick3.wav
329,192,81386,1,0,0:0:0:70:kick3.wav
182,192,81586,1,0,0:0:0:70:kick3.wav
256,192,81986,1,0,0:0:0:70:crash.wav
109,192,86786,5,0,0:0:0:0:
182,192,86986,1,0,0:0:0:0:
402,192,87186,5,0,0:0:0:0:
329,192,87386,5,0,0:0:0:0:
109,192,87586,1,0,0:0:0:0:
256,192,87786,1,0,0:0:0:0:
402,192,87986,1,0,0:0:0:0:
329,192,88386,5,0,0:0:0:0:
182,192,88786,5,0,0:0:0:70:kick3.wav
329,192,89186,1,0,0:0:0:70:kick3.wav
182,192,89586,1,0,0:0:0:70:kick3.wav
329,192,89986,1,0,0:0:0:70:kick3.wav
182,192,90386,1,0,0:0:0:70:kick3.wav
329,192,90786,1,0,0:0:0:70:kick3.wav
36,192,91586,1,0,0:0:0:70:kick3.wav
182,192,91986,1,0,0:0:0:70:kick3.wav
329,192,92386,1,0,0:0:0:70:kick3.wav
475,192,92786,1,0,0:0:0:70:kick3.wav
256,192,93186,1,0,0:0:0:70:crash.wav
256,192,93586,1,0,0:0:0:70:crash.wav
256,192,93986,1,0,0:0:0:70:crash.wav
256,192,94786,128,0,95586:0:0:0:70:crash.wav
109,192,95586,1,0,0:0:0:0:
402,192,95786,1,0,0:0:0:0:
109,192,95986,1,0,0:0:0:0:
109,192,96386,1,0,0:0:0:70:kick3.wav
475,192,96586,1,0,0:0:0:0:
329,192,96686,1,0,0:0:0:0:
402,192,96986,1,0,0:0:0:0:
36,192,97186,1,0,0:0:0:70:kick3.wav
109,192,97386,1,0,0:0:0:0:
182,192,97586,1,0,0:0:0:70:kick3.wav
109,192,98786,1,0,0:0:0:70:kick3.wav
402,192,98986,1,0,0:0:0:0:
109,192,99186,1,0,0:0:0:70:kick3.wav
402,192,99586,1,0,0:0:0:70:kick3.wav
36,192,99786,1,0,0:0:0:0:
182,192,99886,1,0,0:0:0:0:
475,192,100086,1,0,0:0:0:0:
329,192,100186,1,0,0:0:0:0:
36,192,100386,1,0,0:0:0:70:kick3.wav
109,192,100586,1,0,0:0:0:0:
182,192,100786,1,0,0:0:0:70:kick3.wav
475,192,101186,1,0,0:0:0:70:kick3.wav
329,192,101386,1,0,0:0:0:0:
182,192,101586,1,0,0:0:0:70:kick3.wav
36,192,101786,1,0,0:0:0:0:
182,192,101986,1,0,0:0:0:70:kick3.wav
402,192,102786,1,0,0:0:0:70:kick3.wav
36,192,102986,1,0,0:0:0:0:
182,192,103086,1,0,0:0:0:0:
109,192,103386,1,0,0:0:0:0:
475,192,103586,1,0,0:0:0:70:kick3.wav
402,192,103786,1,0,0:0:0:0:
329,192,103986,1,0,0:0:0:70:kick3.wav
402,192,105186,1,0,0:0:0:70:kick3.wav
109,192,105386,1,0,0:0:0:0:
402,192,105586,1,0,0:0:0:70:kick3.wav
109,192,105986,1,0,0:0:0:70:kick3.wav
475,192,106186,1,0,0:0:0:0:
329,192,106286,1,0,0:0:0:0:
36,192,106486,1,0,0:0:0:0:
182,192,106586,1,0,0:0:0:0:
475,192,106786,1,0,0:0:0:70:kick3.wav
402,192,106986,1,0,0:0:0:0:
329,192,107186,1,0,0:0:0:70:kick3.wav
402,192,107586,1,0,0:0:0:70:kick3.wav
36,192,107786,1,0,0:0:0:0:
182,192,107886,1,0,0:0:0:0:
475,192,108086,1,0,0:0:0:0:
329,192,108186,1,0,0:0:0:0:
36,192,108386,1,0,0:0:0:70:kick3.wav
109,192,108586,1,0,0:0:0:0:
182,192,108786,1,0,0:0:0:70:kick3.wav
36,192,109186,1,0,0:0:0:70:kick3.wav
36,192,109586,1,0,0:0:0:70:kick3.wav
182,192,109986,1,0,0:0:0:70:kick3.wav
329,192,110186,1,0,0:0:0:0:
182,192,110386,1,0,0:0:0:70:kick3.wav
109,192,111586,1,0,0:0:0:70:kick3.wav
402,192,111786,1,0,0:0:0:0:
109,192,111986,1,0,0:0:0:70:kick3.wav
475,192,112386,1,0,0:0:0:70:kick3.wav
475,192,112786,1,0,0:0:0:70:kick3.wav
329,192,113186,1,0,0:0:0:70:kick3.wav
182,192,113386,1,0,0:0:0:0:
329,192,113586,1,0,0:0:0:70:kick3.wav
109,192,113986,1,0,0:0:0:70:kick3.wav
109,192,114286,1,0,0:0:0:0:
109,192,114586,1,0,0:0:0:0:
402,192,114786,1,0,0:0:0:70:kick3.wav
182,192,115586,1,0,0:0:0:70:kick3.wav
182,192,115986,1,0,0:0:0:70:kick3.wav
402,192,116386,1,0,0:0:0:70:kick3.wav
109,192,116586,1,0,0:0:0:0:
402,192,116786,1,0,0:0:0:70:kick3.wav
182,192,117986,1,0,0:0:0:70:kick3.wav
329,192,118186,1,0,0:0:0:0:
182,192,118386,1,0,0:0:0:70:kick3.wav
402,192,118786,1,0,0:0:0:0:
402,192,119186,1,0,0:0:0:70:kick3.wav
109,192,119586,1,0,0:0:0:70:kick3.wav
109,192,119986,1,0,0:0:0:70:kick3.wav
256,192,120386,1,0,0:0:0:70:kick3.wav
256,192,120686,1,0,0:0:0:0:
256,192,120986,1,0,0:0:0:0:
109,192,121186,1,0,0:0:0:70:kick3.wav
402,192,121386,1,0,0:0:0:0:
109,192,121586,1,0,0:0:0:70:kick3.wav
256,192,121986,1,0,0:0:0:70:crash.wav
