osu file format v12

[General]
AudioFilename: Mermaid girl -Akiba Koubou MIX-.mp3
AudioLeadIn: 2000
PreviewTime: 55986
Countdown: 0
SampleSet: Soft
StackLeniency: 0.7
Mode: 3
LetterboxInBreaks: 0
SpecialStyle: 0
WidescreenStoryboard: 0

[Editor]
DistanceSpacing: 0.9
BeatDivisor: 8
GridSize: 16

[Metadata]
Title:Mermaid girl -Akiba Koubou MIX-
TitleUnicode:Mermaid girl -秋葉工房MIX-
Artist:Remixed by DJ Command
ArtistUnicode:Remixed by DJ Command
Creator:Lieselotte
Version:LV.16
Source:beatmania IIDX
Tags:19th Lincle
BeatmapID:256673
BeatmapSetID:95609

[Difficulty]
HPDrainRate:7
CircleSize:7
OverallDifficulty:7
ApproachRate:5
SliderMultiplier:2
SliderTickRate:1

[Events]
//Background and Video events
0,0,"BG.jpg",0,0
//Break Periods
//Storyboard Layer 0 (Background)
//Storyboard Layer 1 (Fail)
//Storyboard Layer 2 (Pass)
//Storyboard Layer 3 (Foreground)
//Storyboard Sound Samples
//Background Colour Transformations
3,100,0,0,0

[TimingPoints]
386,400,4,2,0,30,1,0
10036,-150,4,2,0,30,0,0
10136,-66.6666666666667,4,2,0,30,0,0
10286,-100,4,2,0,30,0,0
10336,-150,4,2,0,30,0,0
10436,-66.6666666666667,4,2,0,30,0,0
10586,-100,4,2,0,30,0,0
11636,-150,4,2,0,30,0,0
11736,-66.6666666666667,4,2,0,30,0,0
11886,-100,4,2,0,30,0,0
11936,-149.253731343284,4,2,0,30,0,0
12036,-66.6666666666667,4,2,0,30,0,0
12186,-100,4,2,0,30,0,0
70786,-133.333333333333,4,2,0,30,0,0
72286,-100,4,2,0,30,0,0
73986,-133.333333333333,4,2,0,30,0,0
74986,-100,4,2,0,30,0,0
121636,-50,4,2,0,30,0,0
121836,-150,4,2,0,30,0,0
121936,-100,4,2,0,30,0,0

[Colours]
Combo1 : 181,181,253
Combo2 : 255,187,255

[HitObjects]
36,192,386,128,0,1986:0:0:0:0:
402,192,1986,128,0,3586:0:0:0:0:
109,192,2786,128,0,3586:0:0:0:0:
36,192,3586,1,0,0:0:0:70:crash.wav
475,192,3586,1,0,0:0:0:0:
182,192,3786,1,0,0:0:0:0:
329,192,3886,1,0,0:0:0:0:
475,192,4186,1,0,0:0:0:0:
109,192,4386,1,0,0:0:0:0:
402,192,4586,1,0,0:0:0:0:
109,192,4786,1,0,0:0:0:0:
182,192,5186,1,0,0:0:0:0:
402,192,5386,1,0,0:0:0:0:
182,192,5586,1,0,0:0:0:0:
329,192,5786,1,0,0:0:0:0:
109,192,5986,1,0,0:0:0:0:
402,192,6186,1,0,0:0:0:0:
109,192,6386,1,0,0:0:0:0:
36,192,6786,1,0,0:0:0:0:
329,192,6986,1,0,0:0:0:0:
182,192,7086,1,0,0:0:0:0:
402,192,7286,1,0,0:0:0:0:
109,192,7386,1,0,0:0:0:0:
182,192,7586,1,0,0:0:0:0:
329,192,7786,1,0,0:0:0:0:
475,192,7986,1,0,0:0:0:0:
402,192,8386,1,0,0:0:0:0:
109,192,8586,1,0,0:0:0:0:
329,192,8786,1,0,0:0:0:0:
402,192,8986,1,0,0:0:0:0:
475,192,9186,1,0,0:0:0:0:
36,192,9786,1,0,0:0:0:0:
182,192,9886,1,0,0:0:0:0:
329,192,9986,1,0,0:0:0:70:crash.wav
475,192,9986,1,0,0:0:0:70:kick3.wav
329,192,10286,1,0,0:0:0:0:
475,192,10286,1,0,0:0:0:70:kick3.wav
329,192,10586,1,0,0:0:0:0:
475,192,10586,1,0,0:0:0:70:kick3.wav
256,192,10886,1,0,0:0:0:0:
109,192,10886,1,0,0:0:0:0:
475,192,11186,1,0,0:0:0:0:
402,192,11286,1,0,0:0:0:0:
329,192,11386,1,0,0:0:0:0:
182,192,11586,1,0,0:0:0:70:crash.wav
36,192,11586,1,0,0:0:0:70:kick3.wav
36,192,11886,1,0,0:0:0:70:kick3.wav
182,192,11886,1,0,0:0:0:0:
36,192,12186,1,0,0:0:0:70:kick3.wav
182,192,12186,1,0,0:0:0:0:
256,192,12486,1,0,0:0:0:0:
402,192,12486,1,0,0:0:0:0:
109,192,12586,1,0,0:0:0:0:
475,192,12786,1,0,0:0:0:0:
402,192,12886,1,0,0:0:0:0:
329,192,12986,1,0,0:0:0:0:
256,192,13086,1,0,0:0:0:0:
182,192,13186,1,0,0:0:0:70:crash.wav
36,192,13186,1,0,0:0:0:70:kick3.wav
475,192,13386,1,0,0:0:0:0:
329,192,13486,1,0,0:0:0:0:
36,192,13686,1,0,0:0:0:0:
182,192,13786,1,0,0:0:0:0:
329,192,13986,1,0,0:0:0:70:crash.wav
475,192,13986,1,0,0:0:0:70:kick3.wav
109,192,14186,1,0,0:0:0:0:
329,192,14386,1,0,0:0:0:0:
475,192,14386,1,0,0:0:0:70:kick3.wav
329,192,14786,1,0,0:0:0:70:crash.wav
475,192,14786,1,0,0:0:0:70:kick3.wav
182,192,14986,1,0,0:0:0:0:
329,192,15086,1,0,0:0:0:0:
182,192,15286,1,0,0:0:0:0:
329,192,15386,1,0,0:0:0:0:
36,192,15586,1,0,0:0:0:0:
475,192,15786,1,0,0:0:0:0:
256,192,15986,128,0,16386:0:0:0:0:
109,192,15986,1,0,0:0:0:0:
402,192,16086,1,0,0:0:0:0:
109,192,16186,1,0,0:0:0:0:
402,192,16286,1,0,0:0:0:0:
36,192,16386,1,0,0:0:0:70:kick3.wav
329,192,16586,1,0,0:0:0:0:
182,192,16686,1,0,0:0:0:0:
402,192,16886,1,0,0:0:0:0:
109,192,16986,1,0,0:0:0:0:
402,192,17086,1,0,0:0:0:0:
36,192,17186,1,0,0:0:0:70:kick3.wav
182,192,17186,128,0,17386:0:0:0:0:
329,192,17386,128,0,17586:0:0:0:0:
475,192,17586,128,0,17986:0:0:0:0:
36,192,17586,1,0,0:0:0:70:kick3.wav
109,192,17986,1,0,0:0:0:70:kick3.wav
402,192,18086,1,0,0:0:0:0:
182,192,18186,1,0,0:0:0:0:
402,192,18286,1,0,0:0:0:0:
36,192,18486,1,0,0:0:0:0:
109,192,18586,1,0,0:0:0:0:
182,192,18686,1,0,0:0:0:0:
36,192,18786,1,0,0:0:0:70:kick3.wav
475,192,18786,128,0,18986:0:0:0:0:
329,192,18986,128,0,19186:0:0:0:0:
475,192,19186,128,0,19586:0:0:0:0:
36,192,19186,1,0,0:0:0:70:kick3.wav
109,192,19586,1,0,0:0:0:70:kick3.wav
329,192,19786,1,0,0:0:0:0:
182,192,19886,1,0,0:0:0:0:
109,192,20086,1,0,0:0:0:0:
402,192,20186,1,0,0:0:0:0:
109,192,20286,1,0,0:0:0:0:
475,192,20386,1,0,0:0:0:70:kick3.wav
329,192,20386,128,0,20586:0:0:0:0:
182,192,20586,128,0,20786:0:0:0:0:
36,192,20786,128,0,21186:0:0:0:0:
475,192,20786,1,0,0:0:0:70:kick3.wav
109,192,21186,1,0,0:0:0:70:kick3.wav
402,192,21186,1,0,0:0:0:0:
109,192,21486,128,0,21786:0:0:0:0:
402,192,21486,128,0,21786:0:0:0:0:
256,192,21786,128,0,21986:0:0:0:0:
36,192,21986,1,0,0:0:0:70:kick3.wav
475,192,21986,1,0,0:0:0:0:
256,192,22186,128,0,22786:0:0:0:0:
475,192,22386,1,0,0:0:0:70:kick3.wav
329,192,22486,1,0,0:0:0:0:
36,192,22586,1,0,0:0:0:0:
182,192,22686,1,0,0:0:0:0:
329,192,22786,1,0,0:0:0:70:crash.wav
475,192,22786,1,0,0:0:0:70:kick3.wav
182,192,22986,1,0,0:0:0:0:
329,192,23086,1,0,0:0:0:0:
402,192,23286,1,0,0:0:0:0:
109,192,23386,1,0,0:0:0:0:
402,192,23486,1,0,0:0:0:0:
36,192,23586,1,0,0:0:0:70:kick3.wav
182,192,23586,128,0,23786:0:0:0:0:
329,192,23786,128,0,23986:0:0:0:0:
475,192,23986,128,0,24386:0:0:0:0:
36,192,23986,1,0,0:0:0:70:kick3.wav
36,192,24386,1,0,0:0:0:70:kick3.wav
109,192,24486,1,0,0:0:0:0:
182,192,24586,1,0,0:0:0:0:
109,192,24686,1,0,0:0:0:0:
475,192,24886,1,0,0:0:0:0:
402,192,24986,1,0,0:0:0:0:
329,192,25086,1,0,0:0:0:0:
475,192,25186,1,0,0:0:0:70:kick3.wav
36,192,25186,128,0,25386:0:0:0:0:
182,192,25386,128,0,25586:0:0:0:0:
36,192,25586,128,0,25986:0:0:0:0:
475,192,25586,1,0,0:0:0:70:kick3.wav
475,192,25986,1,0,0:0:0:70:kick3.wav
402,192,26086,1,0,0:0:0:0:
329,192,26186,1,0,0:0:0:0:
256,192,26286,1,0,0:0:0:0:
36,192,26386,1,0,0:0:0:70:kick3.wav
109,192,26486,1,0,0:0:0:0:
182,192,26586,1,0,0:0:0:0:
256,192,26686,1,0,0:0:0:0:
475,192,26786,1,0,0:0:0:70:kick3.wav
402,192,26886,1,0,0:0:0:0:
329,192,26986,1,0,0:0:0:0:
402,192,27086,1,0,0:0:0:0:
36,192,27186,1,0,0:0:0:70:kick3.wav
109,192,27286,1,0,0:0:0:0:
182,192,27386,1,0,0:0:0:0:
109,192,27486,1,0,0:0:0:0:
36,192,27586,1,0,0:0:0:70:crash.wav
475,192,27586,1,0,0:0:0:70:kick3.wav
36,192,27886,128,0,28186:0:0:0:0:
475,192,27886,128,0,28186:0:0:0:0:
256,192,28186,1,0,0:0:0:0:
109,192,28386,1,0,0:0:0:70:kick3.wav
182,192,28486,1,0,0:0:0:0:
402,192,28586,1,0,0:0:0:0:
329,192,28686,1,0,0:0:0:0:
109,192,28786,1,0,0:0:0:70:kick3.wav
182,192,28886,1,0,0:0:0:0:
402,192,28986,1,0,0:0:0:0:
329,192,29086,1,0,0:0:0:0:
182,192,29186,1,0,0:0:0:0:
36,192,29186,1,0,0:0:0:70:crash.wav
36,192,29586,1,0,0:0:0:70:crash.wav
182,192,29586,1,0,0:0:0:0:
475,192,29986,1,0,0:0:0:0:
402,192,30052,1,0,0:0:0:0:
329,192,30119,1,0,0:0:0:0:
256,192,30186,1,0,0:0:0:0:
182,192,30252,1,0,0:0:0:0:
109,192,30319,1,0,0:0:0:0:
36,192,30386,1,0,0:0:0:0:
109,192,30452,1,0,0:0:0:0:
182,192,30519,1,0,0:0:0:0:
256,192,30586,1,0,0:0:0:0:
329,192,30652,1,0,0:0:0:0:
402,192,30719,1,0,0:0:0:0:
475,192,30786,1,0,0:0:0:0:
36,192,30786,1,0,0:0:0:70:kick3.wav
182,192,30986,1,0,0:0:0:0:
256,192,31186,1,0,0:0:0:70:kick3.wav
402,192,31186,1,0,0:0:0:0:
109,192,31386,1,0,0:0:0:0:
256,192,31586,1,0,0:0:0:0:
475,192,31586,1,0,0:0:0:70:kick3.wav
329,192,31786,1,0,0:0:0:0:
256,192,31986,1,0,0:0:0:70:kick3.wav
109,192,31986,1,0,0:0:0:0:
402,192,32186,1,0,0:0:0:0:
329,192,32386,1,0,0:0:0:70:kick3.wav
36,192,32386,128,0,32586:0:0:0:0:
109,192,32586,128,0,32786:0:0:0:0:
182,192,32786,128,0,32986:0:0:0:0:
475,192,32786,1,0,0:0:0:70:kick3.wav
36,192,32986,128,0,33186:0:0:0:0:
329,192,33186,1,0,0:0:0:70:kick3.wav
475,192,33386,1,0,0:0:0:0:
256,192,33586,1,0,0:0:0:70:kick3.wav
109,192,33586,1,0,0:0:0:0:
402,192,33786,1,0,0:0:0:0:
182,192,33986,1,0,0:0:0:0:
36,192,33986,1,0,0:0:0:70:kick3.wav
475,192,34186,1,0,0:0:0:0:
329,192,34386,1,0,0:0:0:0:
182,192,34386,1,0,0:0:0:70:kick3.wav
402,192,34586,1,0,0:0:0:0:
182,192,34786,1,0,0:0:0:0:
36,192,34786,1,0,0:0:0:70:kick3.wav
402,192,34986,1,0,0:0:0:0:
182,192,35186,1,0,0:0:0:0:
329,192,35186,1,0,0:0:0:70:kick3.wav
109,192,35386,1,0,0:0:0:0:
36,192,35586,1,0,0:0:0:70:kick3.wav
475,192,35586,128,0,35786:0:0:0:0:
402,192,35786,128,0,35986:0:0:0:0:
329,192,35986,128,0,36186:0:0:0:0:
182,192,35986,1,0,0:0:0:70:kick3.wav
475,192,36186,128,0,36386:0:0:0:0:
329,192,36386,1,0,0:0:0:70:kick3.wav
256,192,36486,1,0,0:0:0:0:
182,192,36586,1,0,0:0:0:0:
109,192,36686,1,0,0:0:0:0:
36,192,36786,1,0,0:0:0:0:
109,192,36886,1,0,0:0:0:0:
182,192,36986,1,0,0:0:0:0:
256,192,37086,1,0,0:0:0:0:
329,192,37186,1,0,0:0:0:70:crash.wav
475,192,37186,1,0,0:0:0:70:kick3.wav
182,192,37386,1,0,0:0:0:0:
329,192,37586,1,0,0:0:0:0:
475,192,37586,1,0,0:0:0:70:kick3.wav
182,192,37786,1,0,0:0:0:0:
329,192,37986,1,0,0:0:0:0:
475,192,37986,1,0,0:0:0:70:kick3.wav
109,192,38186,1,0,0:0:0:0:
329,192,38386,1,0,0:0:0:0:
475,192,38386,1,0,0:0:0:70:kick3.wav
109,192,38586,1,0,0:0:0:0:
36,192,38786,1,0,0:0:0:70:kick3.wav
256,192,38786,1,0,0:0:0:70:crash.wav
475,192,38786,128,0,39086:0:0:0:0:
475,192,39186,128,0,39486:0:0:0:0:
36,192,39186,1,0,0:0:0:70:kick3.wav
256,192,39186,1,0,0:0:0:70:crash.wav
475,192,39586,128,0,39986:0:0:0:0:
36,192,39586,1,0,0:0:0:70:kick3.wav
256,192,39586,1,0,0:0:0:70:crash.wav
36,192,39986,1,0,0:0:0:70:kick3.wav
109,192,40186,1,0,0:0:0:0:
182,192,40386,1,0,0:0:0:70:crash.wav
402,192,40386,1,0,0:0:0:70:kick3.wav
109,192,40586,1,0,0:0:0:0:
256,192,40786,1,0,0:0:0:0:
475,192,40786,1,0,0:0:0:70:kick3.wav
402,192,40986,1,0,0:0:0:0:
256,192,41186,1,0,0:0:0:70:kick3.wav
109,192,41186,1,0,0:0:0:0:
329,192,41386,1,0,0:0:0:0:
256,192,41586,1,0,0:0:0:0:
36,192,41586,1,0,0:0:0:70:kick3.wav
402,192,41786,1,0,0:0:0:0:
36,192,41986,1,0,0:0:0:70:kick3.wav
182,192,41986,128,0,42186:0:0:0:70:crash.wav
329,192,42186,128,0,42386:0:0:0:0:
182,192,42386,128,0,42586:0:0:0:70:crash.wav
36,192,42386,1,0,0:0:0:70:kick3.wav
402,192,42586,128,0,42786:0:0:0:0:
109,192,42786,1,0,0:0:0:70:kick3.wav
256,192,42886,1,0,0:0:0:0:
402,192,42986,1,0,0:0:0:0:
256,192,43186,128,0,43586:0:0:0:0:
475,192,43586,1,0,0:0:0:70:kick3.wav
36,192,43586,1,0,0:0:0:70:crash.wav
109,192,43786,1,0,0:0:0:0:
182,192,43986,1,0,0:0:0:0:
402,192,43986,1,0,0:0:0:70:kick3.wav
36,192,44186,1,0,0:0:0:0:
182,192,44386,1,0,0:0:0:0:
475,192,44386,1,0,0:0:0:70:kick3.wav
109,192,44586,1,0,0:0:0:0:
36,192,44786,1,0,0:0:0:0:
402,192,44786,1,0,0:0:0:70:kick3.wav
182,192,44986,1,0,0:0:0:0:
329,192,45186,1,0,0:0:0:0:
475,192,45186,1,0,0:0:0:70:kick3.wav
402,192,45386,1,0,0:0:0:0:
329,192,45586,1,0,0:0:0:0:
109,192,45586,1,0,0:0:0:70:kick3.wav
475,192,45786,1,0,0:0:0:0:
329,192,45986,1,0,0:0:0:70:kick3.wav
36,192,45986,1,0,0:0:0:0:
109,192,46086,1,0,0:0:0:0:
182,192,46186,1,0,0:0:0:0:
36,192,46386,1,0,0:0:0:0:
475,192,46386,1,0,0:0:0:70:kick3.wav
182,192,46486,1,0,0:0:0:0:
329,192,46586,1,0,0:0:0:0:
475,192,46586,1,0,0:0:0:70:kick3.wav
475,192,46786,1,0,0:0:0:70:kick3.wav
182,192,46786,128,0,47186:0:0:0:0:
329,192,47186,1,0,0:0:0:70:kick3.wav
36,192,47186,128,0,47586:0:0:0:0:
182,192,47586,128,0,47986:0:0:0:0:
402,192,47586,1,0,0:0:0:70:kick3.wav
475,192,47986,1,0,0:0:0:70:kick3.wav
329,192,47986,128,0,48386:0:0:0:0:
182,192,48386,1,0,0:0:0:0:
36,192,48386,1,0,0:0:0:70:kick3.wav
402,192,48586,1,0,0:0:0:0:
182,192,48786,1,0,0:0:0:70:kick3.wav
329,192,48886,1,0,0:0:0:0:
182,192,48986,1,0,0:0:0:0:
475,192,49086,1,0,0:0:0:0:
36,192,49186,1,0,0:0:0:70:kick3.wav
329,192,49186,1,0,0:0:0:0:
182,192,49286,1,0,0:0:0:0:
329,192,49386,1,0,0:0:0:0:
182,192,49586,1,0,0:0:0:0:
36,192,49586,1,0,0:0:0:70:kick3.wav
182,192,49786,1,0,0:0:0:0:
36,192,49986,1,0,0:0:0:70:kick3.wav
256,192,49986,1,0,0:0:0:70:crash.wav
475,192,49986,1,0,0:0:0:0:
402,192,50186,1,0,0:0:0:0:
329,192,50386,1,0,0:0:0:0:
109,192,50386,1,0,0:0:0:70:kick3.wav
475,192,50586,1,0,0:0:0:0:
329,192,50786,1,0,0:0:0:0:
182,192,50786,1,0,0:0:0:70:kick3.wav
402,192,50986,1,0,0:0:0:0:
475,192,51186,1,0,0:0:0:0:
109,192,51186,1,0,0:0:0:70:kick3.wav
329,192,51386,1,0,0:0:0:0:
256,192,51586,1,0,0:0:0:70:crash.wav
475,192,51586,1,0,0:0:0:70:kick3.wav
36,192,51586,128,0,51986:0:0:0:0:
182,192,51986,128,0,52386:0:0:0:70:crash.wav
329,192,51986,1,0,0:0:0:70:kick3.wav
329,192,52386,128,0,52786:0:0:0:0:
475,192,52386,1,0,0:0:0:70:kick3.wav
36,192,52386,1,0,0:0:0:70:crash.wav
36,192,52786,1,0,0:0:0:70:kick3.wav
36,192,52986,1,0,0:0:0:70:kick3.wav
182,192,52986,1,0,0:0:0:0:
36,192,53186,1,0,0:0:0:70:kick3.wav
329,192,53186,1,0,0:0:0:70:crash.wav
475,192,53186,128,0,53586:0:0:0:0:
256,192,53586,1,0,0:0:0:70:kick3.wav
109,192,53586,128,0,53986:0:0:0:0:
475,192,53986,128,0,54386:0:0:0:70:crash.wav
329,192,53986,1,0,0:0:0:70:kick3.wav
182,192,54186,1,0,0:0:0:0:
329,192,54386,1,0,0:0:0:70:kick3.wav
109,192,54386,128,0,54786:0:0:0:0:
182,192,54486,1,0,0:0:0:0:
329,192,54586,1,0,0:0:0:0:
182,192,54686,1,0,0:0:0:0:
329,192,54786,1,0,0:0:0:0:
475,192,54786,1,0,0:0:0:0:
36,192,54786,1,0,0:0:0:70:crash.wav
36,192,55186,1,0,0:0:0:70:crash.wav
329,192,55186,1,0,0:0:0:0:
475,192,55186,1,0,0:0:0:0:
475,192,55586,1,0,0:0:0:0:
402,192,55652,1,0,0:0:0:0:
329,192,55719,1,0,0:0:0:0:
256,192,55786,1,0,0:0:0:0:
182,192,55852,1,0,0:0:0:0:
109,192,55919,1,0,0:0:0:0:
36,192,55986,1,0,0:0:0:0:
109,192,56052,1,0,0:0:0:0:
182,192,56119,1,0,0:0:0:0:
256,192,56186,1,0,0:0:0:0:
329,192,56252,1,0,0:0:0:0:
402,192,56319,1,0,0:0:0:0:
475,192,56386,1,0,0:0:0:70:crash.wav
36,192,56386,1,0,0:0:0:70:kick3.wav
256,192,56586,1,0,0:0:0:0:
402,192,56686,1,0,0:0:0:0:
182,192,56786,1,0,0:0:0:70:kick3.wav
256,192,56986,1,0,0:0:0:0:
329,192,57186,1,0,0:0:0:70:kick3.wav
36,192,57186,128,0,57386:0:0:0:0:
402,192,57386,1,0,0:0:0:0:
182,192,57386,128,0,57586:0:0:0:0:
329,192,57586,1,0,0:0:0:70:kick3.wav
36,192,57586,128,0,57986:0:0:0:0:
182,192,57786,1,0,0:0:0:0:
329,192,57986,1,0,0:0:0:0:
475,192,57986,1,0,0:0:0:70:kick3.wav
109,192,58186,1,0,0:0:0:0:
256,192,58286,1,0,0:0:0:0:
329,192,58386,1,0,0:0:0:0:
475,192,58386,1,0,0:0:0:70:kick3.wav
109,192,58486,1,0,0:0:0:0:
256,192,58586,1,0,0:0:0:0:
182,192,58786,1,0,0:0:0:70:kick3.wav
402,192,58786,128,0,58986:0:0:0:0:
109,192,58986,128,0,59186:0:0:0:0:
256,192,59186,1,0,0:0:0:70:kick3.wav
402,192,59186,1,0,0:0:0:0:
329,192,59386,1,0,0:0:0:0:
256,192,59586,1,0,0:0:0:70:kick3.wav
475,192,59586,1,0,0:0:0:0:
182,192,59786,1,0,0:0:0:0:
329,192,59786,1,0,0:0:0:0:
36,192,59886,1,0,0:0:0:0:
402,192,59986,1,0,0:0:0:70:kick3.wav
182,192,60086,1,0,0:0:0:0:
36,192,60186,1,0,0:0:0:0:
475,192,60186,1,0,0:0:0:0:
182,192,60386,1,0,0:0:0:70:kick3.wav
329,192,60386,128,0,60586:0:0:0:0:
475,192,60586,128,0,60786:0:0:0:0:
36,192,60586,1,0,0:0:0:0:
329,192,60786,128,0,61186:0:0:0:0:
109,192,60786,1,0,0:0:0:70:kick3.wav
182,192,60986,1,0,0:0:0:0:
256,192,61186,1,0,0:0:0:70:kick3.wav
475,192,61186,1,0,0:0:0:0:
36,192,61186,128,0,61386:0:0:0:0:
182,192,61386,128,0,61586:0:0:0:0:
402,192,61386,1,0,0:0:0:0:
109,192,61586,128,0,61786:0:0:0:0:
329,192,61586,1,0,0:0:0:70:kick3.wav
182,192,61786,128,0,61986:0:0:0:0:
402,192,61786,1,0,0:0:0:0:
256,192,61986,128,0,62786:0:0:0:0:
475,192,61986,1,0,0:0:0:70:kick3.wav
36,192,62086,1,0,0:0:0:0:
475,192,62186,1,0,0:0:0:0:
36,192,62286,1,0,0:0:0:0:
402,192,62386,1,0,0:0:0:70:kick3.wav
109,192,62486,1,0,0:0:0:0:
402,192,62586,1,0,0:0:0:70:kick3.wav
109,192,62686,1,0,0:0:0:0:
402,192,62786,1,0,0:0:0:70:kick3.wav
329,192,62986,1,0,0:0:0:0:
182,192,63086,1,0,0:0:0:0:
36,192,63186,1,0,0:0:0:70:kick3.wav
256,192,63386,1,0,0:0:0:0:
329,192,63586,1,0,0:0:0:70:kick3.wav
36,192,63586,128,0,63786:0:0:0:0:
182,192,63786,128,0,63986:0:0:0:0:
402,192,63786,1,0,0:0:0:0:
329,192,63986,128,0,64386:0:0:0:0:
475,192,63986,1,0,0:0:0:70:kick3.wav
109,192,64186,1,0,0:0:0:0:
36,192,64386,1,0,0:0:0:70:kick3.wav
182,192,64386,1,0,0:0:0:0:
256,192,64586,1,0,0:0:0:0:
402,192,64686,1,0,0:0:0:0:
182,192,64786,1,0,0:0:0:0:
36,192,64786,1,0,0:0:0:70:kick3.wav
329,192,64886,1,0,0:0:0:0:
475,192,64986,1,0,0:0:0:0:
329,192,65186,1,0,0:0:0:70:kick3.wav
36,192,65186,128,0,65386:0:0:0:0:
182,192,65386,128,0,65586:0:0:0:0:
402,192,65386,1,0,0:0:0:0:
475,192,65586,1,0,0:0:0:70:kick3.wav
475,192,65786,1,0,0:0:0:70:kick3.wav
475,192,65986,1,0,0:0:0:70:kick3.wav
36,192,65986,1,0,0:0:0:70:crash.wav
256,192,66186,1,0,0:0:0:0:
402,192,66286,1,0,0:0:0:0:
109,192,66386,1,0,0:0:0:70:kick3.wav
256,192,66486,1,0,0:0:0:0:
402,192,66586,1,0,0:0:0:0:
182,192,66786,1,0,0:0:0:70:crash.wav
36,192,66786,1,0,0:0:0:70:kick3.wav
475,192,66786,128,0,66986:0:0:0:0:
329,192,66986,128,0,67186:0:0:0:0:
109,192,66986,1,0,0:0:0:0:
182,192,67186,128,0,67586:0:0:0:0:
475,192,67186,1,0,0:0:0:70:kick3.wav
402,192,67386,1,0,0:0:0:0:
329,192,67586,1,0,0:0:0:70:kick3.wav
36,192,67586,1,0,0:0:0:70:crash.wav
256,192,67786,1,0,0:0:0:0:
109,192,67886,1,0,0:0:0:0:
402,192,67986,1,0,0:0:0:70:kick3.wav
256,192,68086,1,0,0:0:0:0:
109,192,68186,1,0,0:0:0:0:
329,192,68386,1,0,0:0:0:70:kick3.wav
182,192,68486,1,0,0:0:0:0:
329,192,68586,1,0,0:0:0:0:
182,192,68686,1,0,0:0:0:0:
402,192,68786,1,0,0:0:0:70:kick3.wav
109,192,68886,1,0,0:0:0:0:
402,192,68986,1,0,0:0:0:0:
109,192,69086,1,0,0:0:0:0:
256,192,69186,1,0,0:0:0:70:crash.wav
475,192,69186,1,0,0:0:0:70:kick3.wav
329,192,69386,1,0,0:0:0:0:
182,192,69486,1,0,0:0:0:0:
402,192,69686,1,0,0:0:0:0:
109,192,69786,1,0,0:0:0:0:
402,192,69886,1,0,0:0:0:0:
36,192,69986,1,0,0:0:0:70:kick3.wav
182,192,69986,128,0,70186:0:0:0:0:
329,192,70186,128,0,70386:0:0:0:0:
182,192,70386,128,0,70786:0:0:0:0:
36,192,70386,1,0,0:0:0:70:kick3.wav
402,192,70786,1,0,0:0:0:70:kick3.wav
402,192,70986,1,0,0:0:0:0:
109,192,71186,1,0,0:0:0:70:kick3.wav
402,192,71386,1,0,0:0:0:0:
182,192,71586,1,0,0:0:0:70:kick3.wav
329,192,71786,1,0,0:0:0:0:
182,192,71986,128,0,72386:0:0:0:70:kick3.wav
475,192,72386,1,0,0:0:0:70:kick3.wav
329,192,72586,1,0,0:0:0:0:
182,192,72686,1,0,0:0:0:0:
109,192,72886,1,0,0:0:0:0:
402,192,72986,1,0,0:0:0:0:
109,192,73086,1,0,0:0:0:0:
475,192,73186,1,0,0:0:0:70:kick3.wav
329,192,73186,128,0,73386:0:0:0:0:
182,192,73386,128,0,73586:0:0:0:0:
329,192,73586,128,0,73986:0:0:0:70:kick3.wav
36,192,73986,1,0,0:0:0:70:kick3.wav
182,192,74186,1,0,0:0:0:0:
329,192,74386,1,0,0:0:0:70:kick3.wav
182,192,74586,1,0,0:0:0:0:
256,192,74786,1,0,0:0:0:0:
36,192,74786,1,0,0:0:0:70:kick3.wav
329,192,74886,1,0,0:0:0:0:
402,192,74936,1,0,0:0:0:0:
475,192,74986,1,0,0:0:0:0:
329,192,75086,1,0,0:0:0:0:
182,192,75186,1,0,0:0:0:70:kick3.wav
329,192,75286,1,0,0:0:0:0:
182,192,75386,1,0,0:0:0:0:
329,192,75486,1,0,0:0:0:0:
36,192,75586,1,0,0:0:0:70:kick3.wav
475,192,75586,1,0,0:0:0:70:crash.wav
329,192,75686,1,0,0:0:0:0:
182,192,75786,1,0,0:0:0:0:
329,192,75886,1,0,0:0:0:0:
475,192,75986,1,0,0:0:0:70:kick3.wav
109,192,76086,1,0,0:0:0:0:
256,192,76186,1,0,0:0:0:0:
109,192,76286,1,0,0:0:0:0:
475,192,76386,1,0,0:0:0:70:kick3.wav
329,192,76386,128,0,76586:0:0:0:0:
182,192,76586,128,0,76786:0:0:0:0:
329,192,76786,128,0,77186:0:0:0:70:kick3.wav
36,192,77186,1,0,0:0:0:70:kick3.wav
329,192,77286,1,0,0:0:0:0:
182,192,77386,1,0,0:0:0:0:
329,192,77486,1,0,0:0:0:0:
182,192,77586,1,0,0:0:0:70:kick3.wav
402,192,77686,1,0,0:0:0:0:
256,192,77786,1,0,0:0:0:0:
402,192,77886,1,0,0:0:0:0:
36,192,77986,1,0,0:0:0:70:kick3.wav
182,192,77986,128,0,78186:0:0:0:0:
329,192,78186,128,0,78386:0:0:0:0:
182,192,78386,128,0,78786:0:0:0:0:
36,192,78386,1,0,0:0:0:70:kick3.wav
36,192,78786,1,0,0:0:0:70:kick3.wav
475,192,78786,1,0,0:0:0:70:crash.wav
402,192,78886,1,0,0:0:0:0:
329,192,78986,1,0,0:0:0:0:
256,192,79086,1,0,0:0:0:0:
36,192,79186,1,0,0:0:0:70:kick3.wav
109,192,79286,1,0,0:0:0:0:
182,192,79386,1,0,0:0:0:0:
256,192,79486,1,0,0:0:0:0:
36,192,79586,1,0,0:0:0:70:kick3.wav
475,192,79586,1,0,0:0:0:70:crash.wav
402,192,79686,1,0,0:0:0:0:
329,192,79786,1,0,0:0:0:0:
402,192,79886,1,0,0:0:0:0:
36,192,79986,1,0,0:0:0:70:kick3.wav
109,192,80086,1,0,0:0:0:0:
182,192,80186,1,0,0:0:0:0:
109,192,80286,1,0,0:0:0:0:
36,192,80386,1,0,0:0:0:70:crash.wav
475,192,80386,1,0,0:0:0:70:kick3.wav
36,192,80686,128,0,80986:0:0:0:0:
475,192,80686,128,0,80986:0:0:0:0:
109,192,80986,1,0,0:0:0:0:
402,192,80986,1,0,0:0:0:0:
182,192,81186,1,0,0:0:0:70:kick3.wav
329,192,81286,1,0,0:0:0:0:
182,192,81386,1,0,0:0:0:0:
329,192,81486,1,0,0:0:0:0:
109,192,81586,1,0,0:0:0:70:kick3.wav
402,192,81686,1,0,0:0:0:0:
109,192,81786,1,0,0:0:0:0:
402,192,81886,1,0,0:0:0:0:
256,192,81986,1,0,0:0:0:70:crash.wav
475,192,86786,5,0,0:0:0:0:
402,192,86986,1,0,0:0:0:0:
329,192,87186,1,0,0:0:0:0:
402,192,87386,1,0,0:0:0:0:
329,192,87586,1,0,0:0:0:0:
475,192,87786,1,0,0:0:0:0:
402,192,87986,1,0,0:0:0:0:
329,192,88186,1,0,0:0:0:0:
36,192,88186,1,0,0:0:0:0:
182,192,88286,1,0,0:0:0:0:
329,192,88386,1,0,0:0:0:0:
475,192,88386,1,0,0:0:0:70:kick3.wav
182,192,88786,1,0,0:0:0:0:
36,192,88786,1,0,0:0:0:70:kick3.wav
329,192,89186,1,0,0:0:0:0:
475,192,89186,1,0,0:0:0:70:kick3.wav
182,192,89586,1,0,0:0:0:0:
36,192,89586,1,0,0:0:0:70:kick3.wav
329,192,89786,1,0,0:0:0:0:
475,192,89986,128,0,90386:0:0:0:70:kick3.wav
329,192,90386,128,0,90786:0:0:0:70:kick3.wav
182,192,90786,128,0,91186:0:0:0:70:kick3.wav
475,192,91386,1,0,0:0:0:0:
329,192,91486,1,0,0:0:0:0:
182,192,91586,1,0,0:0:0:70:kick3.wav
36,192,91586,128,0,91986:0:0:0:0:
182,192,91986,128,0,92386:0:0:0:0:
475,192,91986,1,0,0:0:0:70:kick3.wav
475,192,92386,1,0,0:0:0:70:kick3.wav
329,192,92386,128,0,92786:0:0:0:70:crash.wav
36,192,92486,1,0,0:0:0:0:
475,192,92586,1,0,0:0:0:0:
36,192,92686,1,0,0:0:0:0:
475,192,92786,1,0,0:0:0:70:kick3.wav
182,192,92786,128,0,93186:0:0:0:0:
329,192,92886,1,0,0:0:0:0:
475,192,92986,1,0,0:0:0:0:
329,192,93086,1,0,0:0:0:0:
475,192,93186,1,0,0:0:0:70:kick3.wav
256,192,93186,1,0,0:0:0:70:crash.wav
36,192,93186,128,0,93986:0:0:0:0:
256,192,93586,1,0,0:0:0:70:crash.wav
475,192,93586,1,0,0:0:0:70:kick3.wav
475,192,93986,1,0,0:0:0:70:crash.wav
402,192,94052,1,0,0:0:0:0:
329,192,94119,1,0,0:0:0:0:
256,192,94186,1,0,0:0:0:0:
182,192,94252,1,0,0:0:0:0:
109,192,94319,1,0,0:0:0:0:
36,192,94386,1,0,0:0:0:0:
109,192,94452,1,0,0:0:0:0:
182,192,94519,1,0,0:0:0:0:
256,192,94586,1,0,0:0:0:0:
329,192,94652,1,0,0:0:0:0:
402,192,94719,1,0,0:0:0:0:
475,192,94786,1,0,0:0:0:0:
109,192,94986,1,0,0:0:0:0:
402,192,95086,1,0,0:0:0:0:
182,192,95286,1,0,0:0:0:0:
329,192,95386,1,0,0:0:0:0:
182,192,95486,1,0,0:0:0:0:
475,192,95586,1,0,0:0:0:0:
329,192,95786,1,0,0:0:0:0:
182,192,95986,128,0,96386:0:0:0:0:
36,192,96386,1,0,0:0:0:70:kick3.wav
475,192,96386,1,0,0:0:0:0:
256,192,96586,1,0,0:0:0:0:
402,192,96686,1,0,0:0:0:0:
182,192,96786,1,0,0:0:0:70:kick3.wav
256,192,96986,1,0,0:0:0:0:
329,192,97186,1,0,0:0:0:70:kick3.wav
36,192,97186,128,0,97386:0:0:0:0:
182,192,97386,128,0,97586:0:0:0:0:
402,192,97386,1,0,0:0:0:0:
36,192,97586,128,0,97986:0:0:0:0:
329,192,97586,1,0,0:0:0:70:kick3.wav
182,192,97786,1,0,0:0:0:0:
329,192,97986,1,0,0:0:0:0:
475,192,97986,1,0,0:0:0:70:kick3.wav
109,192,98186,1,0,0:0:0:0:
256,192,98286,1,0,0:0:0:0:
329,192,98386,1,0,0:0:0:0:
475,192,98386,1,0,0:0:0:70:kick3.wav
109,192,98486,1,0,0:0:0:0:
256,192,98586,1,0,0:0:0:0:
182,192,98786,1,0,0:0:0:70:kick3.wav
402,192,98786,128,0,98986:0:0:0:0:
109,192,98986,128,0,99186:0:0:0:0:
256,192,99186,1,0,0:0:0:70:kick3.wav
402,192,99186,1,0,0:0:0:0:
329,192,99386,1,0,0:0:0:0:
256,192,99586,1,0,0:0:0:0:
475,192,99586,1,0,0:0:0:70:kick3.wav
182,192,99786,1,0,0:0:0:0:
329,192,99786,1,0,0:0:0:0:
36,192,99886,1,0,0:0:0:0:
402,192,99986,1,0,0:0:0:70:kick3.wav
182,192,100086,1,0,0:0:0:0:
475,192,100186,1,0,0:0:0:0:
36,192,100186,1,0,0:0:0:0:
182,192,100386,1,0,0:0:0:70:kick3.wav
329,192,100386,128,0,100586:0:0:0:0:
475,192,100586,128,0,100786:0:0:0:0:
329,192,100786,128,0,101186:0:0:0:70:kick3.wav
256,192,101186,1,0,0:0:0:70:kick3.wav
475,192,101186,1,0,0:0:0:0:
36,192,101186,128,0,101386:0:0:0:0:
182,192,101386,128,0,101586:0:0:0:0:
402,192,101386,1,0,0:0:0:0:
109,192,101586,128,0,101786:0:0:0:0:
329,192,101586,1,0,0:0:0:70:kick3.wav
182,192,101786,128,0,101986:0:0:0:0:
402,192,101786,1,0,0:0:0:0:
256,192,101986,128,0,102786:0:0:0:0:
475,192,101986,1,0,0:0:0:70:kick3.wav
36,192,102086,1,0,0:0:0:0:
475,192,102186,1,0,0:0:0:0:
36,192,102286,1,0,0:0:0:0:
402,192,102386,1,0,0:0:0:70:kick3.wav
109,192,102486,1,0,0:0:0:0:
402,192,102586,1,0,0:0:0:0:
109,192,102686,1,0,0:0:0:0:
402,192,102786,1,0,0:0:0:70:kick3.wav
329,192,102986,1,0,0:0:0:0:
182,192,103086,1,0,0:0:0:0:
36,192,103186,1,0,0:0:0:70:kick3.wav
256,192,103386,1,0,0:0:0:0:
329,192,103586,1,0,0:0:0:70:kick3.wav
36,192,103586,128,0,103786:0:0:0:0:
182,192,103786,128,0,103986:0:0:0:0:
402,192,103786,1,0,0:0:0:0:
329,192,103986,128,0,104386:0:0:0:0:
475,192,103986,1,0,0:0:0:70:kick3.wav
109,192,104186,1,0,0:0:0:0:
36,192,104386,1,0,0:0:0:70:kick3.wav
182,192,104386,1,0,0:0:0:0:
256,192,104586,1,0,0:0:0:0:
402,192,104686,1,0,0:0:0:0:
182,192,104786,1,0,0:0:0:0:
36,192,104786,1,0,0:0:0:70:kick3.wav
329,192,104886,1,0,0:0:0:0:
475,192,104986,1,0,0:0:0:0:
329,192,105186,1,0,0:0:0:70:kick3.wav
36,192,105186,128,0,105386:0:0:0:0:
182,192,105386,128,0,105586:0:0:0:0:
402,192,105386,1,0,0:0:0:0:
475,192,105586,1,0,0:0:0:70:kick3.wav
475,192,105786,1,0,0:0:0:70:kick3.wav
475,192,105986,1,0,0:0:0:70:kick3.wav
36,192,105986,1,0,0:0:0:70:crash.wav
256,192,106186,1,0,0:0:0:0:
402,192,106286,1,0,0:0:0:0:
109,192,106386,1,0,0:0:0:70:kick3.wav
256,192,106486,1,0,0:0:0:0:
402,192,106586,1,0,0:0:0:0:
182,192,106786,1,0,0:0:0:0:
36,192,106786,1,0,0:0:0:70:kick3.wav
475,192,106786,128,0,106986:0:0:0:0:
329,192,106986,128,0,107186:0:0:0:0:
109,192,106986,1,0,0:0:0:0:
182,192,107186,128,0,107586:0:0:0:0:
475,192,107186,1,0,0:0:0:70:kick3.wav
402,192,107386,1,0,0:0:0:0:
329,192,107586,1,0,0:0:0:70:kick3.wav
36,192,107586,1,0,0:0:0:70:crash.wav
256,192,107786,1,0,0:0:0:0:
109,192,107886,1,0,0:0:0:0:
402,192,107986,1,0,0:0:0:70:kick3.wav
256,192,108086,1,0,0:0:0:0:
109,192,108186,1,0,0:0:0:0:
329,192,108386,1,0,0:0:0:70:kick3.wav
182,192,108486,1,0,0:0:0:0:
329,192,108586,1,0,0:0:0:0:
182,192,108686,1,0,0:0:0:0:
402,192,108786,1,0,0:0:0:70:kick3.wav
109,192,108886,1,0,0:0:0:0:
402,192,108986,1,0,0:0:0:0:
109,192,109086,1,0,0:0:0:0:
256,192,109186,1,0,0:0:0:70:crash.wav
475,192,109186,1,0,0:0:0:70:kick3.wav
329,192,109386,1,0,0:0:0:0:
182,192,109486,1,0,0:0:0:0:
402,192,109686,1,0,0:0:0:0:
109,192,109786,1,0,0:0:0:0:
402,192,109886,1,0,0:0:0:0:
36,192,109986,1,0,0:0:0:70:kick3.wav
182,192,109986,128,0,110186:0:0:0:0:
329,192,110186,128,0,110386:0:0:0:0:
182,192,110386,128,0,110786:0:0:0:0:
36,192,110386,1,0,0:0:0:70:kick3.wav
475,192,110786,1,0,0:0:0:70:kick3.wav
402,192,110886,1,0,0:0:0:0:
329,192,110986,1,0,0:0:0:0:
402,192,111086,1,0,0:0:0:0:
475,192,111186,1,0,0:0:0:70:kick3.wav
182,192,111286,1,0,0:0:0:0:
329,192,111386,1,0,0:0:0:0:
182,192,111486,1,0,0:0:0:0:
475,192,111586,1,0,0:0:0:70:kick3.wav
36,192,111586,128,0,111786:0:0:0:0:
109,192,111786,128,0,111986:0:0:0:0:
329,192,111786,1,0,0:0:0:0:
182,192,111986,128,0,112386:0:0:0:0:
475,192,111986,1,0,0:0:0:70:kick3.wav
402,192,112386,1,0,0:0:0:70:kick3.wav
256,192,112586,1,0,0:0:0:0:
402,192,112686,1,0,0:0:0:0:
182,192,112886,1,0,0:0:0:0:
329,192,112986,1,0,0:0:0:0:
182,192,113086,1,0,0:0:0:0:
36,192,113186,1,0,0:0:0:70:kick3.wav
475,192,113186,128,0,113386:0:0:0:0:
182,192,113386,1,0,0:0:0:0:
402,192,113386,128,0,113586:0:0:0:0:
36,192,113586,1,0,0:0:0:70:kick3.wav
329,192,113586,128,0,113986:0:0:0:0:
36,192,113986,1,0,0:0:0:70:kick3.wav
182,192,113986,1,0,0:0:0:0:
36,192,114286,1,0,0:0:0:0:
182,192,114286,1,0,0:0:0:0:
109,192,114586,1,0,0:0:0:0:
256,192,114586,1,0,0:0:0:0:
402,192,114786,1,0,0:0:0:70:kick3.wav
182,192,114886,1,0,0:0:0:0:
402,192,114986,1,0,0:0:0:0:
182,192,115086,1,0,0:0:0:0:
475,192,115186,1,0,0:0:0:70:kick3.wav
329,192,115286,1,0,0:0:0:0:
475,192,115386,1,0,0:0:0:0:
329,192,115486,1,0,0:0:0:0:
182,192,115586,1,0,0:0:0:70:kick3.wav
109,192,115686,1,0,0:0:0:0:
36,192,115786,1,0,0:0:0:0:
109,192,115886,1,0,0:0:0:0:
182,192,115986,1,0,0:0:0:70:kick3.wav
329,192,116086,1,0,0:0:0:0:
182,192,116186,1,0,0:0:0:0:
329,192,116286,1,0,0:0:0:0:
475,192,116386,1,0,0:0:0:70:kick3.wav
36,192,116386,128,0,116586:0:0:0:0:
109,192,116586,128,0,116786:0:0:0:0:
329,192,116586,1,0,0:0:0:0:
182,192,116786,128,0,117186:0:0:0:0:
475,192,116786,1,0,0:0:0:70:kick3.wav
475,192,117186,1,0,0:0:0:70:kick3.wav
402,192,117286,1,0,0:0:0:0:
329,192,117386,1,0,0:0:0:0:
402,192,117486,1,0,0:0:0:0:
475,192,117586,1,0,0:0:0:70:kick3.wav
182,192,117686,1,0,0:0:0:0:
329,192,117786,1,0,0:0:0:0:
182,192,117886,1,0,0:0:0:0:
36,192,117986,1,0,0:0:0:70:kick3.wav
475,192,117986,128,0,118186:0:0:0:0:
402,192,118186,128,0,118386:0:0:0:0:
182,192,118186,1,0,0:0:0:0:
329,192,118386,128,0,118786:0:0:0:0:
36,192,118386,1,0,0:0:0:70:kick3.wav
109,192,118786,1,0,0:0:0:70:crash.wav
475,192,118786,1,0,0:0:0:70:kick3.wav
182,192,118886,1,0,0:0:0:0:
109,192,118986,1,0,0:0:0:0:
36,192,119086,1,0,0:0:0:0:
402,192,119186,1,0,0:0:0:70:kick3.wav
329,192,119286,1,0,0:0:0:0:
402,192,119386,1,0,0:0:0:0:
475,192,119486,1,0,0:0:0:0:
256,192,119586,1,0,0:0:0:70:kick3.wav
109,192,119586,1,0,0:0:0:70:crash.wav
402,192,119686,1,0,0:0:0:0:
109,192,119786,1,0,0:0:0:0:
402,192,119886,1,0,0:0:0:0:
182,192,119986,1,0,0:0:0:70:kick3.wav
329,192,120086,1,0,0:0:0:0:
182,192,120186,1,0,0:0:0:0:
329,192,120286,1,0,0:0:0:0:
475,192,120386,1,0,0:0:0:70:crash.wav
36,192,120386,1,0,0:0:0:70:kick3.wav
36,192,120686,128,0,120986:0:0:0:0:
475,192,120686,128,0,120986:0:0:0:0:
329,192,120986,1,0,0:0:0:0:
182,192,120986,1,0,0:0:0:0:
36,192,121186,128,0,121386:0:0:0:70:kick3.wav
475,192,121186,128,0,121386:0:0:0:70:crash.wav
402,192,121386,128,0,121586:0:0:0:0:
109,192,121386,128,0,121586:0:0:0:70:kick3.wav
182,192,121586,128,0,121986:0:0:0:70:kick3.wav
329,192,121586,128,0,121986:0:0:0:0:
256,192,121986,1,0,0:0:0:70:crash.wav
