osu file format v14

[General]
AudioFilename: KISS KISS KISS MIX.mp3
AudioLeadIn: 0
PreviewTime: 48320
Countdown: 0
SampleSet: Soft
StackLeniency: 0.7
Mode: 3
LetterboxInBreaks: 0
SpecialStyle: 0
WidescreenStoryboard: 1

[Editor]
Bookmarks: 1844,13844,25820,37820,49820,61820,67820,73820,85820
DistanceSpacing: 0.8
BeatDivisor: 4
GridSize: 8
TimelineZoom: 1.4

[Metadata]
Title:KISS KISS KISS Akiba Koubou MIX
TitleUnicode:KISS KISS KISS 秋葉工房 MIX
Artist:Remixed by DJ Command
ArtistUnicode:Remixed by DJ Command
Creator:Sky_Demon
Version:EZ
Source:DanceDanceRevolution X2
Tags:DanceDanceRevolution II NAOKI MAEDA icing_wind [ S a k u r a ]
BeatmapID:643793
BeatmapSetID:284973

[Difficulty]
HPDrainRate:7
CircleSize:4
OverallDifficulty:6
ApproachRate:5
SliderMultiplier:1.4
SliderTickRate:1

[Events]
//Background and Video events
0,0,"564854.jpg",0,0
//Break Periods
//Storyboard Layer 0 (Background)
//Storyboard Layer 1 (Fail)
//Storyboard Layer 2 (Pass)
//Storyboard Layer 3 (Foreground)
//Storyboard Sound Samples

[TimingPoints]
1820,375,4,2,1,20,1,0
49820,-100,4,2,1,20,0,1
61820,-100,4,2,1,20,0,0
85820,-100,4,2,1,20,0,1
106820,-100,4,2,1,20,0,0

[HitObjects]
64,192,320,128,0,1820:2:0:0:0:
448,192,1820,1,0,2:0:0:0:
320,192,2195,1,0,2:0:0:0:
64,192,2570,1,0,2:0:0:0:
192,192,2945,1,0,2:0:0:0:
448,192,3320,1,0,2:0:0:0:
320,192,3695,1,0,2:0:0:0:
64,192,4070,1,0,2:0:0:0:
192,192,4445,1,0,2:0:0:0:
64,192,4820,1,0,2:0:0:0:
448,192,5195,1,0,2:0:0:0:
192,192,5570,1,0,2:0:0:0:
320,192,5945,1,0,2:0:0:0:
448,192,6320,1,0,2:0:0:0:
320,192,6695,1,0,2:0:0:0:
64,192,7070,128,0,7820:2:0:0:0:
320,192,7820,1,4,2:0:0:0:
192,192,8195,1,0,2:0:0:0:
64,192,8570,1,0,2:0:0:0:
192,192,8945,1,0,2:0:0:0:
448,192,9320,1,0,2:0:0:0:
320,192,9695,1,0,2:0:0:0:
64,192,10070,1,0,2:0:0:0:
192,192,10445,1,0,2:0:0:0:
320,192,10820,1,4,2:0:0:0:
448,192,10820,1,4,2:0:0:0:
192,192,11195,1,0,2:0:0:0:
64,192,11570,1,0,0:0:0:0:
320,192,11945,1,0,0:0:0:0:
448,192,12132,1,4,2:0:0:0:
192,192,13445,128,0,13820:2:0:0:0:
448,192,13820,1,0,2:0:0:0:
320,192,14195,1,0,2:0:0:0:
64,192,14570,1,0,2:0:0:0:
192,192,14945,1,0,2:0:0:0:
448,192,15320,1,0,2:0:0:0:
64,192,15695,1,0,2:0:0:0:
320,192,16070,1,0,2:0:0:0:
64,192,16445,1,0,2:0:0:0:
192,192,16820,1,0,2:0:0:0:
448,192,17195,1,0,2:0:0:0:
320,192,17570,1,0,2:0:0:0:
64,192,17945,1,0,2:0:0:0:
192,192,18320,128,0,19445:2:0:0:0:
320,192,19445,128,0,19820:2:0:0:0:
64,192,19820,1,4,2:0:0:0:
192,192,20195,1,0,2:0:0:0:
320,192,20570,1,0,2:0:0:0:
448,192,20945,1,0,2:0:0:0:
192,192,21320,1,0,2:0:0:0:
320,192,21695,1,0,2:0:0:0:
192,192,22070,1,0,2:0:0:0:
320,192,22445,1,0,2:0:0:0:
448,192,22820,128,0,23195:0:0:0:0:
192,192,23382,1,0,0:0:0:0:
320,192,23570,128,0,24132:2:0:0:0:
192,192,24132,1,4,2:0:0:0:
448,192,24507,1,4,2:0:0:0:
64,192,24695,1,4,2:0:0:0:
192,192,24882,1,0,0:0:0:0:
320,192,25070,128,0,25820:2:0:0:0:
192,192,25820,1,4,2:0:0:0:
448,192,26195,1,0,2:0:0:0:
64,192,26570,1,0,2:0:0:0:
448,192,26945,1,0,2:0:0:0:
192,192,27320,1,0,2:0:0:0:
320,192,27695,1,0,2:0:0:0:
64,192,28070,1,0,2:0:0:0:
448,192,28445,1,0,2:0:0:0:
320,192,28820,1,0,2:0:0:0:
192,192,29195,1,0,2:0:0:0:
64,192,29570,1,0,2:0:0:0:
192,192,29945,1,0,2:0:0:0:
448,192,30320,1,0,2:0:0:0:
64,192,30695,1,0,2:0:0:0:
448,192,31070,1,0,2:0:0:0:
320,192,31445,1,0,2:0:0:0:
192,192,31820,1,0,2:0:0:0:
64,192,32195,1,0,2:0:0:0:
320,192,32570,1,0,2:0:0:0:
192,192,32945,1,0,2:0:0:0:
448,192,33320,1,0,2:0:0:0:
192,192,33695,1,0,2:0:0:0:
320,192,34070,1,0,0:0:0:0:
192,192,34445,1,0,2:0:0:0:
448,192,34820,1,0,2:0:0:0:
64,192,35195,1,0,2:0:0:0:
320,192,35570,1,0,2:0:0:0:
192,192,35945,1,0,2:0:0:0:
320,192,36320,1,4,2:0:0:0:
448,192,36320,1,4,2:0:0:0:
64,192,36695,1,0,2:0:0:0:
192,192,37070,1,0,0:0:0:0:
192,192,37351,1,0,0:0:0:0:
192,192,37632,1,0,0:0:0:0:
64,192,37820,1,4,2:0:0:0:
320,192,38195,1,0,2:0:0:0:
192,192,38570,1,0,2:0:0:0:
64,192,38945,1,0,2:0:0:0:
448,192,39320,1,0,2:0:0:0:
320,192,39695,1,0,2:0:0:0:
192,192,40070,1,0,2:0:0:0:
320,192,40445,1,0,2:0:0:0:
448,192,40820,1,0,2:0:0:0:
320,192,41195,1,0,2:0:0:0:
192,192,41570,1,0,2:0:0:0:
448,192,41945,1,0,2:0:0:0:
64,192,42320,1,0,2:0:0:0:
192,192,42695,1,0,2:0:0:0:
320,192,43070,1,0,2:0:0:0:
448,192,43445,1,0,2:0:0:0:
448,192,43632,1,0,2:0:0:0:
448,192,43820,1,0,2:0:0:0:
64,192,44195,1,0,2:0:0:0:
192,192,44570,1,0,2:0:0:0:
320,192,44945,1,0,2:0:0:0:
192,192,45320,1,0,2:0:0:0:
448,192,45695,1,0,2:0:0:0:
320,192,46070,1,0,2:0:0:0:
192,192,46445,1,0,2:0:0:0:
320,192,46820,1,4,2:0:0:0:
448,192,46820,1,4,2:0:0:0:
64,192,47195,1,0,2:0:0:0:
192,192,47570,1,0,2:0:0:0:
448,192,47945,1,0,2:0:0:0:
64,192,48132,1,4,2:0:0:0:
192,192,48132,1,4,2:0:0:0:
320,192,49445,128,0,49820:2:0:0:0:
64,192,49820,1,4,2:0:0:0:
192,192,50195,1,0,2:0:0:0:
192,192,50570,1,0,2:0:0:0:
64,192,50945,1,0,2:0:0:0:
448,192,51320,1,0,2:0:0:0:
320,192,51695,1,0,2:0:0:0:
320,192,52070,1,0,2:0:0:0:
64,192,52445,1,0,2:0:0:0:
320,192,52820,1,0,2:0:0:0:
192,192,53195,1,0,2:0:0:0:
320,192,53570,1,0,2:0:0:0:
448,192,53945,1,0,2:0:0:0:
320,192,54320,128,0,55070:0:0:0:0:
448,192,55070,128,0,55820:0:0:0:0:
64,192,55820,1,4,2:0:0:0:
320,192,56195,1,0,2:0:0:0:
192,192,56570,1,0,2:0:0:0:
320,192,56945,1,0,2:0:0:0:
448,192,57320,1,0,2:0:0:0:
320,192,57695,1,0,2:0:0:0:
192,192,58070,1,0,2:0:0:0:
192,192,58445,1,0,2:0:0:0:
64,192,58820,1,0,2:0:0:0:
448,192,59195,1,0,2:0:0:0:
320,192,59570,1,0,2:0:0:0:
320,192,59945,1,0,2:0:0:0:
192,192,60320,1,0,2:0:0:0:
320,192,60695,1,0,2:0:0:0:
64,192,61070,128,0,61820:2:0:0:0:
448,192,61820,1,4,2:0:0:0:
320,192,62195,1,0,2:0:0:0:
192,192,62382,1,0,2:0:0:0:
192,192,62757,1,0,2:0:0:0:
64,192,63132,1,0,2:0:0:0:
448,192,63507,1,0,2:0:0:0:
448,192,63882,1,0,2:0:0:0:
320,192,64257,1,0,2:0:0:0:
448,192,64632,1,0,2:0:0:0:
192,192,64820,128,0,67070:2:0:0:0:
448,192,67070,1,4,2:0:0:0:
64,192,67820,128,0,68382:2:0:0:0:
320,192,68382,128,0,68945:2:0:0:0:
192,192,68945,128,0,69507:2:0:0:0:
448,192,69507,1,0,2:0:0:0:
320,192,69788,1,0,2:0:0:0:
192,192,70070,1,0,2:0:0:0:
64,192,70351,1,0,2:0:0:0:
320,192,70632,1,0,2:0:0:0:
64,192,70820,1,4,2:0:0:0:
192,192,70820,1,4,2:0:0:0:
448,192,71101,1,0,2:0:0:0:
320,192,71382,1,0,2:0:0:0:
448,192,71663,1,0,2:0:0:0:
320,192,71945,1,0,2:0:0:0:
192,192,72132,1,0,2:0:0:0:
64,192,72320,1,4,2:0:0:0:
192,192,72695,1,0,2:0:0:0:
320,192,73070,128,0,73445:0:0:0:0:
192,192,73445,128,0,73820:0:0:0:0:
64,192,73820,1,4,2:0:0:0:
448,192,74195,1,0,2:0:0:0:
192,192,74570,1,0,2:0:0:0:
320,192,74945,1,0,2:0:0:0:
64,192,75320,1,0,2:0:0:0:
448,192,75695,1,0,2:0:0:0:
192,192,76070,1,0,2:0:0:0:
320,192,76445,1,0,2:0:0:0:
448,192,76820,1,0,2:0:0:0:
64,192,77195,1,0,2:0:0:0:
320,192,77570,1,0,2:0:0:0:
192,192,77945,1,0,2:0:0:0:
448,192,78320,1,0,2:0:0:0:
320,192,78695,1,0,2:0:0:0:
192,192,79070,1,0,2:0:0:0:
320,192,79445,1,0,2:0:0:0:
320,192,79632,1,0,2:0:0:0:
320,192,79820,1,0,2:0:0:0:
64,192,80195,1,0,2:0:0:0:
192,192,80570,1,0,2:0:0:0:
448,192,80945,1,0,2:0:0:0:
320,192,81320,1,0,2:0:0:0:
64,192,81695,1,0,2:0:0:0:
192,192,82070,1,0,2:0:0:0:
320,192,82445,1,0,2:0:0:0:
64,192,82820,1,4,2:0:0:0:
320,192,83195,1,0,0:0:0:0:
192,192,83570,1,0,0:0:0:0:
320,192,83757,1,0,0:0:0:0:
64,192,84132,1,0,2:0:0:0:
448,192,84132,1,0,0:0:0:0:
192,192,85445,128,0,85820:2:0:0:0:
448,192,85820,1,4,2:0:0:0:
320,192,86195,1,0,2:0:0:0:
64,192,86570,1,0,2:0:0:0:
192,192,86945,1,0,2:0:0:0:
320,192,87320,1,0,2:0:0:0:
448,192,87695,1,0,2:0:0:0:
64,192,88070,1,0,2:0:0:0:
448,192,88445,1,0,2:0:0:0:
320,192,88820,1,0,2:0:0:0:
192,192,89195,1,0,2:0:0:0:
64,192,89570,1,0,2:0:0:0:
448,192,89945,1,0,2:0:0:0:
192,192,90320,128,0,91820:2:0:0:0:
448,192,91820,1,4,2:0:0:0:
64,192,92195,1,0,2:0:0:0:
192,192,92570,1,0,2:0:0:0:
320,192,92945,1,0,2:0:0:0:
448,192,93320,1,0,2:0:0:0:
448,192,93695,1,0,2:0:0:0:
320,192,94070,1,0,2:0:0:0:
192,192,94445,1,0,2:0:0:0:
64,192,94820,1,0,2:0:0:0:
64,192,95195,1,0,2:0:0:0:
192,192,95570,1,0,2:0:0:0:
320,192,95945,1,0,2:0:0:0:
448,192,96320,1,0,2:0:0:0:
320,192,96695,1,0,2:0:0:0:
64,192,97070,128,0,97820:2:0:0:0:
448,192,97820,1,4,2:0:0:0:
320,192,98195,1,0,2:0:0:0:
192,192,98570,1,0,2:0:0:0:
64,192,98945,1,0,2:0:0:0:
448,192,99320,1,0,2:0:0:0:
320,192,99695,1,0,2:0:0:0:
448,192,100070,1,0,2:0:0:0:
320,192,100445,1,0,2:0:0:0:
64,192,100820,1,0,2:0:0:0:
192,192,101195,1,0,2:0:0:0:
64,192,101570,1,0,2:0:0:0:
192,192,101945,1,0,2:0:0:0:
448,192,102320,1,0,2:0:0:0:
320,192,102695,1,0,2:0:0:0:
192,192,103070,1,0,2:0:0:0:
320,192,103445,1,0,2:0:0:0:
320,192,103632,1,0,2:0:0:0:
64,192,103820,1,4,2:0:0:0:
192,192,104195,1,0,2:0:0:0:
320,192,104570,1,0,2:0:0:0:
192,192,104945,1,0,2:0:0:0:
64,192,105320,1,0,0:0:0:0:
448,192,105695,1,0,0:0:0:0:
192,192,106070,1,0,2:0:0:0:
192,192,106257,1,0,2:0:0:0:
320,192,106445,1,0,2:0:0:0:
320,192,106632,1,0,2:0:0:0:
