osu file format v14

[General]
AudioFilename: Jingle Bells (Trance Mix).mp3
AudioLeadIn: 1500
PreviewTime: 49387
Countdown: 0
SampleSet: Normal
StackLeniency: 0.7
Mode: 0
LetterboxInBreaks: 0
WidescreenStoryboard: 0

[Editor]
DistanceSpacing: 1
BeatDivisor: 4
GridSize: 4
TimelineZoom: 1

[Metadata]
Title:Jingle Bells -Trance Mix-
TitleUnicode:Jingle Bells -Trance Mix-
Artist:Remix by COSIO
ArtistUnicode:Remix by COSIO
Creator:Flower
Version:Normal
Source:Groove Coaster
Tags:Merry Christmas グルーヴコースター ZUNTATA
BeatmapID:547787
BeatmapSetID:236502

[Difficulty]
HPDrainRate:4
CircleSize:3.5
OverallDifficulty:5
ApproachRate:6
SliderMultiplier:1.2
SliderTickRate:1

[Events]
//Background and Video events
0,0,"bgpic.jpg",0,0
//Break Periods
//Storyboard Layer 0 (Background)
//Storyboard Layer 1 (Fail)
//Storyboard Layer 2 (Pass)
//Storyboard Layer 3 (Foreground)
//Storyboard Sound Samples

[TimingPoints]
175,410.958904109589,4,2,1,30,1,0
13325,-100,4,1,1,50,0,0
26476,-100,4,2,1,50,0,0
36339,-100,4,1,1,40,0,0
49490,-100,4,1,1,50,0,1
62640,-100,4,2,1,40,0,0
79079,-100,4,1,1,50,0,1
92229,-100,4,1,1,40,0,0
98805,-100,4,2,1,40,0,0
102092,-100,4,2,1,50,0,0

[Colours]
Combo1 : 15,237,255
Combo2 : 255,255,53
Combo3 : 220,31,116
Combo4 : 18,154,254

[HitObjects]
16,276,175,6,0,P|60:292|144:268,1,120,4|8,0:0|0:1,0:0:0:0:
248,300,996,2,0,P|300:284|380:304,1,120,0|8,0:0|0:1,0:0:0:0:
472,344,1818,6,0,P|444:304|464:224,1,120,0|8,0:0|0:1,0:0:0:0:
340,192,2640,2,0,L|268:192,2,60,0|0|8,0:0|0:0|0:1,0:0:0:0:
453,147,3462,6,0,P|441:90|472:39,1,120,0|8,0:0|0:1,0:0:0:0:
352,60,4284,2,0,L|216:48,1,120,0|8,0:0|0:1,0:0:0:0:
112,52,5106,6,2,P|56:76|208:136,1,420,0|0,0:0|0:0,0:0:0:0:
256,104,6750,5,4,1:2:0:0:
376,92,7161,2,0,B|432:100|468:48|468:48|444:196,1,240,8|8,0:0|0:0,0:0:0:0:
488,292,8394,5,4,1:2:0:0:
376,332,8805,2,0,B|260:304|260:304|196:332,1,180,8|0,0:0|1:0,0:0:0:0:
148,352,9627,1,8,1:2:0:0:
36,312,10038,5,4,1:2:0:0:
36,72,10859,1,4,1:2:0:0:
244,192,11681,5,4,1:2:0:0:
124,192,12092,1,12,1:2:0:0:
184,296,12503,2,0,L|252:296,1,60,12|12,1:2|1:2,0:0:0:0:
304,296,12914,2,0,L|372:296,1,60,12|8,1:2|1:2,0:0:0:0:
424,296,13325,6,0,P|448:268|448:176,1,120,4|2,0:0|0:0,0:0:0:0:
412,144,13942,2,0,P|360:128|288:164,1,120,2|0,0:0|0:0,0:0:0:0:
260,196,14558,1,2,0:0:0:0:
204,216,14764,1,0,0:0:0:0:
144,212,14969,6,0,P|92:176|88:116,1,120,0|2,0:0|0:0,0:0:0:0:
108,68,15585,2,0,P|156:48|232:64,1,120,2|0,0:0|0:0,0:0:0:0:
264,100,16202,2,0,L|332:92,1,60,0|2,0:0|0:0,0:0:0:0:
384,84,16613,6,0,P|416:112|412:200,1,120,0|2,0:0|0:0,0:0:0:0:
368,216,17229,2,0,P|356:268|396:328,1,120,2|0,0:0|0:0,0:0:0:0:
444,348,17846,1,2,0:0:0:0:
492,316,18051,1,0,0:0:0:0:
500,256,18257,6,0,L|480:128,1,120,0|2,0:0|0:0,0:0:0:0:
432,104,18873,2,0,B|396:92|396:92|304:112,1,120,2|0,0:0|0:0,0:0:0:0:
256,124,19490,2,0,L|176:116,1,60,0|2,0:0|0:0,0:0:0:0:
136,104,19901,6,0,P|96:128|96:208,1,120,0|2,0:0|0:0,0:0:0:0:
128,240,20517,2,0,L|248:228,1,120,2|0,0:0|0:0,0:0:0:0:
308,236,21133,1,2,0:0:0:0:
356,272,21339,1,0,0:0:0:0:
386,323,21544,6,0,B|411:342|441:345|441:345|466:327|477:293,1,120,0|2,0:0|0:0,0:0:0:0:
469,237,22161,2,0,L|437:121,1,120,2|0,0:0|0:0,0:0:0:0:
384,92,22777,2,0,P|340:84|316:88,1,60,0|2,0:0|0:0,0:0:0:0:
280,124,23188,6,0,P|236:140|152:100,1,120,0|2,0:0|0:0,0:0:0:0:
124,76,23805,2,0,P|144:136|120:196,1,120,2|0,0:0|0:0,0:0:0:0:
88,232,24421,1,2,0:0:0:0:
84,292,24627,1,0,0:0:0:0:
132,328,24832,6,0,P|180:344|256:320,1,120,0|2,0:0|0:0,0:0:0:0:
300,300,25448,2,0,P|337:287|427:315,1,120,2|0,0:0|0:0,0:0:0:0:
460,340,26065,2,0,L|476:268,1,60,0|2,0:0|0:0,0:0:0:0:
448,228,26476,6,0,L|424:164,2,60,4|2|0,1:2|0:0|0:0,0:0:0:0:
336,180,27298,2,0,L|360:116,2,60,4|2|0,1:2|0:0|0:0,0:0:0:0:
280,288,28120,2,0,L|256:224,2,60,4|2|0,1:2|0:0|0:0,0:0:0:0:
168,240,28942,2,0,L|192:176,2,60,4|2|0,1:2|0:0|0:0,0:0:0:0:
92,332,29764,6,0,L|52:272,1,60,4|0,1:2|0:0,0:0:0:0:
16,240,30174,2,0,L|40:172,1,60,4|0,1:2|0:0,0:0:0:0:
52,124,30585,6,0,L|128:112,1,60,4|0,1:2|0:0,0:0:0:0:
172,104,30996,2,0,L|232:120,1,60,4|0,1:2|0:0,0:0:0:0:
268,164,31407,6,0,L|328:160,1,60,4|0,1:2|1:0,0:0:0:0:
388,164,31818,2,0,L|444:108,1,60,4|0,1:2|1:0,0:0:0:0:
432,60,32229,5,0,1:0:0:0:
312,48,32640,1,0,1:0:0:0:
192,60,33051,1,0,1:0:0:0:
344,320,34695,5,4,3:2:0:0:
344,320,35106,1,4,3:2:0:0:
256,236,35517,1,4,3:2:0:0:
256,236,35928,1,4,1:2:0:0:
168,320,36339,6,0,P|100:336|48:312,1,120,4|8,0:0|0:0,0:0:0:0:
28,200,37161,2,0,P|96:184|148:208,1,120,0|4,0:0|0:3,0:0:0:0:
256,236,37983,2,0,P|324:252|376:228,1,120,0|12,0:0|0:3,0:0:0:0:
436,132,38805,2,0,L|488:184,2,60,8|8|4,0:0|0:0|0:3,0:0:0:0:
336,64,39627,6,0,P|292:48|204:64,1,120,0|8,0:0|0:0,0:0:0:0:
120,120,40448,2,0,P|104:164|120:252,1,120,0|4,0:0|0:3,0:0:0:0:
188,328,41270,2,0,P|232:344|320:328,1,120,0|12,0:0|0:3,0:0:0:0:
412,280,42092,1,8,0:0:0:0:
440,228,42298,1,8,0:0:0:0:
436,168,42503,1,4,0:3:0:0:
320,136,42914,6,0,B|280:120|280:120|264:158|225:170,1,120,4|8,0:0|0:0,0:0:0:0:
120,232,43736,2,0,P|56:220|28:168,1,120,0|8,0:0|0:3,0:0:0:0:
76,64,44558,2,0,B|128:48|128:48|164:68|200:68,1,120,0|12,0:0|0:3,0:0:0:0:
308,56,45380,2,0,L|372:48,2,60,8|8|4,0:0|0:0|0:3,0:0:0:0:
240,156,46202,6,0,P|220:204|252:272,1,120,0|8,0:0|0:0,0:0:0:0:
340,336,47024,2,0,P|400:336|448:292,1,120,0|4,0:0|0:3,0:0:0:0:
488,188,47846,2,0,B|468:156|468:156|376:148,1,120,0|12,0:0|0:3,0:0:0:0:
268,172,48668,1,8,0:0:0:0:
208,184,48873,1,8,0:0:0:0:
148,168,49079,1,4,0:3:0:0:
108,124,49284,1,4,0:3:0:0:
80,72,49490,6,0,L|56:128,1,60,4|0,0:0|0:0,0:0:0:0:
28,180,49901,2,0,P|56:200|80:288,1,120,2|0,0:0|0:0,0:0:0:0:
36,316,50517,1,0,0:0:0:0:
80,356,50722,1,2,0:0:0:0:
188,308,51133,6,0,P|220:296|264:304,1,60,0|2,0:0|0:0,0:0:0:0:
292,336,51544,2,0,P|332:352|416:328,1,120,0|2,0:0|0:0,0:0:0:0:
448,296,52161,2,0,P|460:264|444:196,1,90,0|2,0:0|0:0,0:0:0:0:
372,172,52777,6,0,L|292:151,1,60,0|0,0:0|0:0,0:0:0:0:
255,142,53188,1,2,0:0:0:0:
144,184,53599,2,0,P|128:212|132:252,1,60,0|0,0:0|0:0,0:0:0:0:
148,296,54010,1,2,0:0:0:0:
256,348,54421,6,0,L|332:340,1,60,0|0,0:0|0:0,0:0:0:0:
372,324,54832,2,0,P|384:284|376:252,1,60,2|0,0:0|0:0,0:0:0:0:
336,224,55243,2,0,P|316:188|324:128,1,90,2|2,0:0|0:0,0:0:0:0:
364,100,55757,2,0,L|264:80,1,90,2|4,0:0|0:0,0:0:0:0:
216,96,56270,5,0,0:0:0:0:
156,84,56476,2,0,P|112:108|116:176,1,120,2|0,0:0|0:0,0:0:0:0:
160,212,57092,1,0,0:0:0:0:
220,208,57298,1,2,0:0:0:0:
340,192,57709,6,0,L|416:196,1,60,0|2,0:0|0:0,0:0:0:0:
452,224,58120,2,0,P|464:264|460:288,1,60,0|0,0:0|0:0,0:0:0:0:
428,332,58531,1,2,0:0:0:0:
372,356,58736,2,0,B|300:368|300:368|280:352,1,90,0|2,0:0|0:0,0:0:0:0:
204,320,59353,6,0,L|132:328,1,60,0|0,0:0|0:0,0:0:0:0:
84,336,59764,1,2,0:0:0:0:
20,232,60174,2,0,L|88:240,1,60,0|0,0:0|0:0,0:0:0:0:
140,248,60585,1,2,0:0:0:0:
244,192,60996,5,2,0:0:0:0:
300,168,61202,1,2,0:0:0:0:
296,108,61407,1,0,0:0:0:0:
240,92,61613,1,0,0:0:0:0:
204,140,61818,2,0,P|156:156|88:132,1,120,2|0,0:0|0:0,0:0:0:0:
32,32,62640,5,6,0:0:0:0:
1,147,63051,1,2,0:0:0:0:
25,265,63462,1,2,0:0:0:0:
248,344,64284,1,2,0:0:0:0:
348,280,64695,1,2,0:0:0:0:
452,340,65106,1,2,0:0:0:0:
512,108,65928,5,2,0:0:0:0:
396,140,66339,1,2,0:0:0:0:
300,68,66750,1,2,0:0:0:0:
64,104,67572,1,2,0:0:0:0:
136,200,67983,1,2,0:0:0:0:
44,276,68394,1,2,0:0:0:0:
276,336,69216,6,0,B|328:320|340:356|404:336,2,120,6|2|2,1:2|0:0|0:0,0:0:0:0:
120,248,70654,1,0,0:0:0:0:
120,248,70859,2,0,B|172:232|184:268|248:248,2,120,6|2|2,1:2|0:0|0:0,0:0:0:0:
32,168,72092,1,0,0:0:0:0:
148,132,72503,6,0,B|172:88|144:48|144:48|152:16,2,120,6|2|4,1:2|0:0|1:2,0:0:0:0:
328,144,73942,1,0,0:0:0:0:
328,144,74147,2,0,L|340:76,1,60,6|0,1:2|1:2,0:0:0:0:
396,64,74558,2,0,L|444:104,1,60,6|0,1:2|1:2,0:0:0:0:
476,152,74969,2,0,P|480:204|328:224,1,240,6|4,1:2|0:3,0:0:0:0:
88,336,77435,5,4,0:0:0:0:
204,360,77846,1,4,0:0:0:0:
236,244,78257,1,4,0:0:0:0:
120,220,78668,1,4,1:2:0:0:
56,120,79079,6,0,L|76:60,1,60,4|0,0:0|0:0,0:0:0:0:
128,32,79490,2,0,P|160:56|240:48,1,120,2|0,0:0|0:0,0:0:0:0:
292,28,80106,1,0,0:0:0:0:
352,32,80311,2,0,P|388:56|400:144,1,120,2|0,0:0|0:0,0:0:0:0:
360,168,80928,5,2,0:0:0:0:
308,196,81133,2,0,L|172:184,1,120,0|2,0:0|0:0,0:0:0:0:
128,196,81750,2,0,P|96:240|100:276,1,90,0|2,0:0|0:0,0:0:0:0:
168,332,82366,6,0,L|236:324,1,60,0|0,0:0|0:0,0:0:0:0:
288,316,82777,1,2,0:0:0:0:
396,368,83188,2,0,L|404:304,1,60,0|0,0:0|0:0,0:0:0:0:
412,248,83599,1,2,0:0:0:0:
344,148,84010,6,0,L|280:140,1,60,0|0,0:0|0:0,0:0:0:0:
240,180,84421,2,0,L|168:192,1,60,2|0,0:0|0:0,0:0:0:0:
128,216,84832,2,0,P|84:192|68:156,1,90,2|2,0:0|0:0,0:0:0:0:
88,100,85346,2,0,L|188:84,1,90,2|4,0:0|0:0,0:0:0:0:
236,72,85859,5,0,0:0:0:0:
296,64,86065,2,0,B|380:76|380:76|400:108,1,120,2|0,0:0|0:0,0:0:0:0:
416,164,86681,1,0,0:0:0:0:
472,140,86887,1,2,0:0:0:0:
496,256,87298,6,0,L|484:316,1,60,0|2,0:0|0:0,0:0:0:0:
436,352,87709,2,0,P|380:352|336:300,1,120,0|2,0:0|0:0,0:0:0:0:
304,260,88325,2,0,B|231:271|231:271|220:288,1,90,0|2,0:0|0:0,0:0:0:0:
156,348,88942,5,0,0:0:0:0:
100,368,89147,1,0,0:0:0:0:
52,332,89353,2,0,P|28:260|56:208,1,120,2|0,0:0|0:0,0:0:0:0:
100,204,89969,1,0,0:0:0:0:
156,184,90175,2,0,B|216:164|216:164|280:180,1,120,2|2,0:0|0:0,0:0:0:0:
304,228,90791,5,2,0:0:0:0:
364,232,90996,1,2,0:0:0:0:
404,188,91202,1,0,0:0:0:0:
388,132,91407,1,0,0:0:0:0:
160,56,92229,6,0,B|136:104|180:120|156:176,1,120,4|8,0:0|0:3,0:0:0:0:
76,260,93051,2,0,B|100:212|56:196|80:140,1,120,0|4,0:0|0:3,0:0:0:0:
160,56,93873,2,0,L|280:56,1,120,0|8,0:0|0:3,0:0:0:0:
400,56,94695,2,0,L|464:56,2,60,8|8|4,0:3|0:3|0:3,0:0:0:0:
324,148,95517,6,0,B|319:188|319:188|357:205|373:260,1,120,0|8,0:0|0:0,0:0:0:0:
272,316,96339,2,0,B|276:275|276:275|238:258|222:203,1,120,0|4,0:0|0:3,0:0:0:0:
212,96,97161,2,0,P|148:76|92:104,1,120,0|12,0:0|0:3,0:0:0:0:
32,192,97983,1,8,0:0:0:0:
16,248,98188,1,8,0:0:0:0:
32,304,98394,1,4,0:3:0:0:
144,344,98805,5,4,1:2:0:0:
144,344,99216,1,4,0:3:0:0:
264,344,99627,1,4,1:2:0:0:
264,344,100038,1,4,0:3:0:0:
344,252,100448,5,4,1:2:0:0:
344,252,100859,1,4,0:3:0:0:
344,132,101270,1,4,1:2:0:0:
344,132,101681,1,4,1:3:0:0:
256,52,102092,6,0,L|192:52,1,60,4|0,1:3|1:0,0:0:0:0:
136,68,102503,2,0,L|96:112,1,60,4|0,1:3|1:0,0:0:0:0:
88,172,102914,6,0,L|100:244,1,60,4|0,1:3|1:0,0:0:0:0:
144,268,103325,2,0,L|216:260,1,60,4|0,1:3|1:0,0:0:0:0:
264,248,103736,6,0,L|332:264,1,60,4|0,1:3|1:0,0:0:0:0:
364,304,104147,2,0,L|432:296,1,60,4|0,1:3|1:0,0:0:0:0:
484,292,104558,5,2,1:3:0:0:
504,172,104969,1,2,1:3:0:0:
432,76,105380,1,2,1:0:0:0:
