osu file format v13

[General]
AudioFilename: Jingle Bells (Trance Mix).mp3
AudioLeadIn: 1500
PreviewTime: 49387
Countdown: 0
SampleSet: Soft
StackLeniency: 0.7
Mode: 0
LetterboxInBreaks: 0
WidescreenStoryboard: 0

[Editor]
DistanceSpacing: 1
BeatDivisor: 4
GridSize: 4
TimelineZoom: 1

[Metadata]
Title:Jingle Bells -Trance Mix-
TitleUnicode:Jingle Bells -Trance Mix-
Artist:Remix by COSIO
ArtistUnicode:Remix by COSIO
Creator:Flower
Version:Easy
Source:Groove Coaster
Tags:Merry Christmas グルーヴコースター ZUNTATA
BeatmapID:547786
BeatmapSetID:236502

[Difficulty]
HPDrainRate:2
CircleSize:3
OverallDifficulty:3
ApproachRate:4
SliderMultiplier:0.8
SliderTickRate:1

[Events]
//Background and Video events
0,0,"bgpic.jpg",0,0
//Break Periods
//Storyboard Layer 0 (Background)
//Storyboard Layer 1 (Fail)
//Storyboard Layer 2 (Pass)
//Storyboard Layer 3 (Foreground)
//Storyboard Sound Samples

[TimingPoints]
175,410.958904109589,4,2,1,30,1,0
13325,-100,4,1,1,50,0,0
26476,-100,4,2,1,50,0,0
36339,-100,4,1,1,40,0,0
49490,-100,4,1,1,50,0,1
62640,-100,4,2,1,40,0,0
79079,-100,4,1,1,50,0,1
92229,-100,4,1,1,40,0,0
98805,-100,4,2,1,40,0,0
102092,-100,4,2,1,50,0,0

[Colours]
Combo1 : 15,237,255
Combo2 : 255,255,53
Combo3 : 220,31,116
Combo4 : 18,154,254

[HitObjects]
60,324,175,6,0,B|168:348|168:348|216:316,1,160,4|0,0:0|0:0,0:0:0:0:
256,256,1407,1,8,0:1:0:0:
302,320,1818,2,0,B|344:348|344:348|452:324,1,160,0|0,0:0|0:0,0:0:0:0:
492,256,3051,1,8,0:1:0:0:
452,188,3462,6,0,B|436:172|436:172|320:200|320:200|300:184,1,160,0|0,0:0|0:0,0:0:0:0:
256,124,4695,1,8,0:1:0:0:
284,48,5106,6,2,P|217:53|215:194,1,240,0|0,0:0|0:0,0:0:0:0:
256,264,6750,5,4,1:2:0:0:
256,344,7161,1,8,0:0:0:0:
20,296,8394,5,4,1:2:0:0:
20,216,8805,1,8,0:0:0:0:
256,176,10038,5,4,1:2:0:0:
408,224,10859,1,4,1:2:0:0:
296,340,11681,1,4,1:2:0:0:
256,272,12092,1,12,1:2:0:0:
216,340,12503,2,0,L|136:340,1,80,12|12,1:2|1:2,0:0:0:0:
64,308,13325,5,4,0:0:0:0:
28,236,13736,2,0,P|25:204|114:120,1,160,2|0,0:0|0:0,0:0:0:0:
188,108,14969,1,0,0:0:0:0:
256,152,15380,2,0,B|280:232|232:224|256:312,1,160,2|0,0:0|0:0,0:0:0:0:
324,348,16613,5,0,0:0:0:0:
404,336,17024,2,0,P|448:304|436:200,1,160,2|0,0:0|0:0,0:0:0:0:
372,168,18257,1,0,0:0:0:0:
300,204,18668,2,0,B|236:224|208:160|140:184,1,160,2|0,0:0|0:0,0:0:0:0:
84,232,19901,5,0,0:0:0:0:
132,296,20311,2,0,B|194:273|222:337|286:317,1,160,2|0,0:0|0:0,0:0:0:0:
360,292,21544,1,0,0:0:0:0:
424,244,21955,2,0,P|448:176|400:96,1,160,2|0,0:0|0:0,0:0:0:0:
332,80,23188,5,0,0:0:0:0:
256,108,23599,2,0,B|140:88|140:88|100:128,1,160,2|0,0:0|0:0,0:0:0:0:
48,168,24832,2,0,L|64:252,1,80,0|2,0:0|0:0,0:0:0:0:
120,304,25654,2,0,P|164:316|200:304,1,80,0|0,0:0|0:0,0:0:0:0:
256,252,26476,5,4,1:2:0:0:
256,92,27298,1,4,1:2:0:0:
416,92,28120,1,4,1:2:0:0:
416,252,28942,1,4,1:2:0:0:
284,344,29764,6,0,L|196:344,1,80,4|4,1:2|1:2,0:0:0:0:
124,336,30585,2,0,P|92:300|88:264,1,80,4|4,1:2|1:2,0:0:0:0:
148,216,31407,2,0,L|240:216,1,80,4|4,1:2|1:2,0:0:0:0:
304,196,32229,2,0,P|336:176|316:68,1,160,0|0,1:0|0:0,0:0:0:0:
40,224,34695,6,0,B|52:264|32:272|44:312,2,80,4|4|4,3:2|3:2|3:2,0:0:0:0:
64,148,35928,1,4,1:2:0:0:
124,96,36339,6,0,B|196:72|212:120|280:96,1,160,4|0,0:0|0:0,0:0:0:0:
356,64,37572,1,4,0:3:0:0:
428,96,37983,2,0,P|444:128|436:184,1,80,0|12,0:0|0:3,0:0:0:0:
372,212,38805,2,0,L|328:212,2,40,8|8|4,0:0|0:0|0:3,0:0:0:0:
432,268,39627,6,0,P|436:316|344:356,1,160,0|0,0:0|0:0,0:0:0:0:
292,300,40859,1,4,0:3:0:0:
224,340,41270,2,0,L|144:340,1,80,0|12,0:0|0:3,0:0:0:0:
88,280,42092,2,0,L|40:296,2,40,8|8|4,0:0|0:0|0:3,0:0:0:0:
164,256,42914,6,0,P|184:212|132:120,1,160,4|0,0:0|0:0,0:0:0:0:
60,92,44147,1,8,0:3:0:0:
120,40,44558,2,0,P|176:28|212:40,1,80,0|12,0:0|0:3,0:0:0:0:
256,88,45380,2,0,L|256:132,2,40,8|8|4,0:0|0:0|0:3,0:0:0:0:
314,32,46202,6,0,P|364:28|432:104,1,160,0|0,0:0|0:0,0:0:0:0:
372,157,47435,1,4,0:3:0:0:
447,184,47846,2,0,L|447:280,1,80,0|12,0:0|0:3,0:0:0:0:
380,309,48668,2,0,L|380:361,2,40,8|8|4,0:0|0:0|0:3,0:0:0:0:
304,280,49490,6,0,P|264:268|224:280,1,80,4|2,0:0|0:0,0:0:0:0:
180,340,50311,2,0,P|144:360|104:356,1,80,0|2,0:0|0:0,0:0:0:0:
40,312,51133,1,0,0:0:0:0:
40,232,51544,2,0,P|60:196|180:192,1,160,0|2,0:0|0:0,0:0:0:0:
232,232,52777,6,0,L|312:232,1,80,0|2,0:0|0:0,0:0:0:0:
384,200,53599,2,0,P|400:172|384:116,1,80,0|2,0:0|0:0,0:0:0:0:
332,76,54421,2,0,B|296:64|288:88|248:76,2,80,0|2|2,0:0|0:0|0:0,0:0:0:0:
184,136,56065,6,0,L|100:120,1,80,4|2,0:0|0:0,0:0:0:0:
28,144,56887,2,0,P|12:180|24:228,1,80,0|2,0:0|0:0,0:0:0:0:
80,272,57709,1,0,0:0:0:0:
160,276,58120,2,0,B|272:244|272:244|316:272,1,160,0|2,0:0|0:0,0:0:0:0:
344,340,59353,6,0,L|428:340,1,80,0|2,0:0|0:0,0:0:0:0:
488,292,60174,2,0,P|500:264|488:208,1,80,0|2,0:0|0:0,0:0:0:0:
420,184,60996,2,0,L|340:176,1,80,2|2,0:0|0:0,0:0:0:0:
261,164,61818,2,0,L|169:184,1,80,0|0,0:0|0:0,0:0:0:0:
104,196,62640,5,6,0:0:0:0:
104,356,63462,1,2,0:0:0:0:
264,356,64284,2,0,B|296:344|312:360|344:352,2,80,2|2|2,0:0|0:0|0:0,0:0:0:0:
148,244,65928,5,2,0:0:0:0:
256,128,66750,1,2,0:0:0:0:
364,244,67572,2,0,B|356:284|372:288|364:324,2,80,2|2|0,0:0|0:0|0:0,0:0:0:0:
216,308,69216,6,0,P|172:320|136:312,1,80,6|2,1:2|0:0,0:0:0:0:
72,268,70038,2,0,P|48:228|72:164,1,120,2|0,0:0|0:0,0:0:0:0:
112,152,70859,2,0,B|140:140|160:160|192:148,2,80,6|2|2,1:2|0:0|0:0,0:0:0:0:
240,60,72503,6,0,L|328:60,1,80,6|2,1:2|0:0,0:0:0:0:
396,88,73325,2,0,P|424:128|412:204,1,120,4|0,1:2|0:0,0:0:0:0:
380,216,74147,6,0,B|336:204|340:224|300:212,2,80,6|6|6,1:2|1:2|1:2,0:0:0:0:
428,280,75380,1,6,1:2:0:0:
380,344,75791,1,4,0:3:0:0:
60,336,77435,6,0,B|48:304|68:288|60:256,1,80,4|4,0:0|0:0,0:0:0:0:
104,192,78257,2,0,B|92:160|112:144|104:112,1,80,4|4,0:0|1:2,0:0:0:0:
180,84,79079,6,0,P|220:96|260:84,1,80,4|2,0:0|0:0,0:0:0:0:
332,60,79901,2,0,P|368:40|408:44,1,80,0|2,0:0|0:0,0:0:0:0:
472,88,80722,1,0,0:0:0:0:
472,168,81133,2,0,B|448:196|448:196|320:176,1,160,0|2,0:0|0:0,0:0:0:0:
248,156,82366,6,0,P|202:145|168:156,1,80,0|2,0:0|0:0,0:0:0:0:
100,192,83188,2,0,P|88:240|108:280,1,80,0|2,0:0|0:0,0:0:0:0:
168,308,84010,2,0,B|204:320|212:296|252:308,2,80,0|2|2,0:0|0:0|0:0,0:0:0:0:
268,180,85654,6,0,L|352:168,1,80,4|2,0:0|0:0,0:0:0:0:
428,180,86476,2,0,P|444:215|441:255,1,80,0|2,0:0|0:0,0:0:0:0:
395,321,87298,1,0,0:0:0:0:
320,351,87709,2,0,P|281:364|178:301,1,160,0|2,0:0|0:0,0:0:0:0:
191,232,88942,6,0,L|199:148,1,80,0|2,0:0|0:0,0:0:0:0:
156,84,89764,2,0,P|122:75|72:86,1,80,0|2,0:0|0:0,0:0:0:0:
29,146,90585,2,0,L|21:226,1,80,2|2,0:0|0:0,0:0:0:0:
73,286,91407,2,0,L|153:294,1,80,0|0,0:0|0:0,0:0:0:0:
231,281,92229,5,4,0:0:0:0:
299,321,92640,2,0,P|343:333|417:252,1,160,8|4,0:3|0:3,0:0:0:0:
376,192,93873,2,0,L|284:192,1,80,0|8,0:0|0:3,0:0:0:0:
232,144,94695,2,0,L|232:96,2,40,8|8|4,0:3|0:3|0:3,0:0:0:0:
168,192,95517,5,0,0:0:0:0:
121,126,95928,2,0,P|89:175|136:266,1,160,8|4,0:0|0:3,0:0:0:0:
190,309,97161,2,0,P|226:321|274:309,1,80,0|12,0:0|0:3,0:0:0:0:
300,240,97983,2,0,L|280:204,2,40,8|8|4,0:0|0:0|0:3,0:0:0:0:
366,284,98805,6,0,L|454:284,1,80,4|4,1:2|0:3,0:0:0:0:
456,204,99627,2,0,L|368:204,1,80,4|4,1:2|0:3,0:0:0:0:
364,124,100448,2,0,L|452:124,1,80,4|4,1:2|0:3,0:0:0:0:
456,44,101270,2,0,L|368:44,1,80,4|4,1:2|1:3,0:0:0:0:
300,68,102092,6,0,B|260:56|260:76|220:64,2,80,4|4|4,1:3|1:3|1:3,0:0:0:0:
280,144,103325,1,4,1:3:0:0:
332,204,103736,6,0,B|372:192|372:212|412:200,2,80,4|4|4,1:3|1:3|1:3,0:0:0:0:
276,260,104969,1,4,1:3:0:0:
196,260,105380,1,4,1:0:0:0:
