osu file format v14

[General]
AudioFilename: audio.mp3
AudioLeadIn: 0
PreviewTime: 71902
Countdown: 0
SampleSet: Normal
StackLeniency: 0.7
Mode: 1
LetterboxInBreaks: 0
WidescreenStoryboard: 0

[Editor]
DistanceSpacing: 0.5
BeatDivisor: 4
GridSize: 32
TimelineZoom: 1

[Metadata]
Title:Usubeni Day Tripper
TitleUnicode:薄紅デイトリッパー
Artist:Remi from STAR*ANIS & Miho from AIKATSU*STARS!
ArtistUnicode:れみ from STAR☆ANIS & みほ from AIKATSU☆STARS!
Creator:HimemiyaChikane
Version:Taikatsu!
Source:アイカツ!
Tags:Aikatsu! 3rd season third Colorful Smile insert song mini album 2 挿入歌ミニアルバム Lantis
BeatmapID:950983
BeatmapSetID:442195

[Difficulty]
HPDrainRate:6
CircleSize:2
OverallDifficulty:6
ApproachRate:6
SliderMultiplier:1.4
SliderTickRate:1

[Events]
//Background and Video events
0,0,"QQ20160405023937.jpg",0,55
//Break Periods
//Storyboard Layer 0 (Background)
//Storyboard Layer 1 (Fail)
//Storyboard Layer 2 (Pass)
//Storyboard Layer 3 (Foreground)
//Storyboard Sound Samples

[TimingPoints]
81,468.75,4,1,0,100,1,0
8143,394.736842105263,4,1,0,100,1,0
8932,454.545454545455,4,1,0,100,1,0
8932,-86.9565217391304,4,1,0,100,0,0
9159,375,4,1,0,100,1,0
9159,-105.263157894737,4,1,0,100,0,0
9534,394.736842105263,4,1,0,100,1,0
9534,-100,4,1,0,100,0,0
10718,394.736842105263,4,1,0,100,1,0
72296,-100,4,1,0,100,0,1
97560,-100,4,1,0,100,0,0

[HitObjects]
256,160,81,5,0,0:0:0:0:
224,192,1721,1,0,0:0:0:0:
480,192,1838,1,8,0:0:0:0:
448,160,1956,1,0,0:0:0:0:
256,160,2659,1,0,0:0:0:0:
384,192,3362,1,8,0:0:0:0:
256,192,3831,1,0,0:0:0:0:
128,128,4768,1,8,0:0:0:0:
64,160,5471,1,0,0:0:0:0:
384,192,5588,1,8,0:0:0:0:
384,224,5706,1,0,0:0:0:0:
416,192,6409,1,8,0:0:0:0:
416,192,7112,1,8,0:0:0:0:
192,128,8340,5,0,0:0:0:0:
224,128,8439,1,0,0:0:0:0:
416,192,8537,1,8,0:0:0:0:
416,192,8636,1,8,0:0:0:0:
192,128,8735,1,0,0:0:0:0:
224,128,8833,1,0,0:0:0:0:
416,192,8932,1,8,0:0:0:0:
149,199,9045,1,0,0:0:0:0:
288,192,9159,1,8,0:0:0:0:
256,256,9346,1,0,0:0:0:0:
256,160,9534,1,8,0:0:0:0:
288,224,9731,1,0,0:0:0:0:
199,228,9829,1,0,0:0:0:0:
384,192,9927,1,8,0:0:0:0:
320,192,10126,1,0,0:0:0:0:
256,160,10323,1,8,0:0:0:0:
320,128,10520,1,8,0:0:0:0:
320,128,10618,1,0,0:0:0:0:
288,160,10717,1,8,0:0:0:0:
288,224,10914,1,0,0:0:0:0:
288,224,11112,1,8,0:0:0:0:
384,256,11309,1,0,0:0:0:0:
320,192,11506,1,8,0:0:0:0:
320,192,11704,1,8,0:0:0:0:
320,192,11802,1,8,0:0:0:0:
320,192,11901,1,8,0:0:0:0:
224,192,12098,1,0,0:0:0:0:
192,160,12197,1,8,0:0:0:0:
256,128,12296,1,0,0:0:0:0:
416,224,12493,1,0,0:0:0:0:
288,192,12690,1,8,0:0:0:0:
320,160,12889,1,0,0:0:0:0:
320,128,13085,1,8,0:0:0:0:
288,192,13283,1,0,0:0:0:0:
288,192,13381,1,0,0:0:0:0:
288,160,13480,1,8,0:0:0:0:
288,160,13677,1,0,0:0:0:0:
288,160,13776,1,0,0:0:0:0:
288,192,13875,1,8,0:0:0:0:
224,192,14072,1,0,0:0:0:0:
320,192,14270,1,8,0:0:0:0:
288,256,14467,1,0,0:0:0:0:
352,160,14664,1,8,0:0:0:0:
352,160,14862,1,8,0:0:0:0:
320,160,14960,1,0,0:0:0:0:
320,160,15059,1,8,0:0:0:0:
320,160,15256,1,8,0:0:0:0:
256,160,15355,1,8,0:0:0:0:
256,192,15454,1,0,0:0:0:0:
192,160,15651,1,0,0:0:0:0:
288,192,15848,1,8,0:0:0:0:
256,192,16046,1,0,0:0:0:0:
224,160,16243,1,8,0:0:0:0:
192,160,16441,1,0,0:0:0:0:
288,160,16638,1,8,0:0:0:0:
224,192,16835,1,0,0:0:0:0:
320,128,16934,1,0,0:0:0:0:
320,128,17033,1,8,0:0:0:0:
224,192,17230,1,0,0:0:0:0:
256,192,17427,1,8,0:0:0:0:
224,160,17625,1,0,0:0:0:0:
288,192,17822,1,8,0:0:0:0:
256,192,18020,1,8,0:0:0:0:
256,192,18118,1,8,0:0:0:0:
256,192,18217,1,0,0:0:0:0:
224,160,18414,1,8,0:0:0:0:
256,160,18612,1,4,0:0:0:0:
256,160,18908,1,4,0:0:0:0:
256,160,19204,1,4,0:0:0:0:
288,160,19401,1,12,0:0:0:0:
288,160,19697,1,12,0:0:0:0:
288,160,19993,1,12,0:0:0:0:
288,224,20191,1,4,0:0:0:0:
192,192,20388,1,0,0:0:0:0:
192,192,20487,1,0,0:0:0:0:
352,160,20585,1,8,0:0:0:0:
352,192,20783,1,0,0:0:0:0:
320,192,20881,1,8,0:0:0:0:
288,192,20980,1,0,0:0:0:0:
448,192,21079,1,0,0:0:0:0:
320,224,21177,1,8,0:0:0:0:
320,224,21276,1,8,0:0:0:0:
192,160,21375,1,0,0:0:0:0:
224,160,21770,1,12,0:0:0:0:
256,224,22165,1,0,0:0:0:0:
320,160,22559,1,8,0:0:0:0:
320,224,22954,1,0,0:0:0:0:
320,256,23152,1,0,0:0:0:0:
352,192,23348,1,8,0:0:0:0:
352,288,23744,1,0,0:0:0:0:
352,288,23941,1,0,0:0:0:0:
384,224,24138,1,8,0:0:0:0:
352,192,24336,1,8,0:0:0:0:
220,181,24533,1,0,0:0:0:0:
384,224,24927,1,0,0:0:0:0:
361,181,25323,1,0,0:0:0:0:
433,315,25520,1,0,0:0:0:0:
128,160,25717,1,8,0:0:0:0:
446,310,25915,1,0,0:0:0:0:
352,160,26112,1,8,0:0:0:0:
257,154,26309,1,8,0:0:0:0:
384,224,26506,1,0,0:0:0:0:
288,128,27098,1,8,0:0:0:0:
320,160,27296,1,0,0:0:0:0:
431,249,27494,1,0,0:0:0:0:
160,160,27691,1,8,0:0:0:0:
436,255,27888,1,0,0:0:0:0:
288,192,28085,1,0,0:0:0:0:
256,256,28677,1,0,0:0:0:0:
448,224,28777,1,0,0:0:0:0:
288,192,28874,1,8,0:0:0:0:
439,193,29270,1,0,0:0:0:0:
439,193,29467,1,0,0:0:0:0:
224,192,29664,1,8,0:0:0:0:
64,96,29862,1,8,0:0:0:0:
224,192,30059,1,8,0:0:0:0:
288,160,30256,1,8,0:0:0:0:
224,192,30454,1,0,0:0:0:0:
96,96,30652,1,8,0:0:0:0:
160,160,30849,1,0,0:0:0:0:
256,128,31046,1,8,0:0:0:0:
224,192,31243,1,4,0:0:0:0:
288,160,31441,1,0,0:0:0:0:
192,192,31539,1,0,0:0:0:0:
288,160,31737,1,8,0:0:0:0:
192,192,31835,1,0,0:0:0:0:
192,192,32033,1,8,0:0:0:0:
224,160,32427,1,0,0:0:0:0:
320,160,32822,1,0,0:0:0:0:
384,160,33020,1,0,0:0:0:0:
352,192,33217,1,8,0:0:0:0:
352,192,33414,1,0,0:0:0:0:
352,160,33513,1,8,0:0:0:0:
416,224,33612,1,0,0:0:0:0:
448,160,33710,1,8,0:0:0:0:
352,160,33908,1,8,0:0:0:0:
352,160,34006,1,8,0:0:0:0:
96,128,34106,1,0,0:0:0:0:
352,160,34204,1,8,0:0:0:0:
352,160,34302,1,8,0:0:0:0:
352,192,34401,1,0,0:0:0:0:
224,160,34697,1,0,0:0:0:0:
224,160,34796,1,0,0:0:0:0:
224,128,34993,1,8,0:0:0:0:
128,160,35191,1,0,0:0:0:0:
224,160,35487,1,0,0:0:0:0:
224,160,35586,1,8,0:0:0:0:
224,128,35783,1,8,0:0:0:0:
128,160,35981,1,0,0:0:0:0:
224,160,36276,1,0,0:0:0:0:
224,160,36375,1,0,0:0:0:0:
224,128,36572,1,8,0:0:0:0:
128,160,36770,1,0,0:0:0:0:
256,160,36868,1,8,0:0:0:0:
256,192,36967,1,0,0:0:0:0:
224,160,37066,1,0,0:0:0:0:
224,160,37165,1,8,0:0:0:0:
224,128,37362,1,8,0:0:0:0:
128,160,37560,1,0,0:0:0:0:
224,160,37855,1,0,0:0:0:0:
224,160,37954,1,0,0:0:0:0:
224,128,38151,1,8,0:0:0:0:
128,160,38349,1,0,0:0:0:0:
224,160,38645,1,0,0:0:0:0:
224,160,38744,1,8,0:0:0:0:
224,128,38941,1,8,0:0:0:0:
128,160,39139,1,0,0:0:0:0:
224,160,39434,1,0,0:0:0:0:
224,160,39533,1,0,0:0:0:0:
224,128,39730,1,8,0:0:0:0:
128,160,39928,1,0,0:0:0:0:
256,160,40026,1,8,0:0:0:0:
192,128,40223,1,0,0:0:0:0:
224,160,40323,1,8,0:0:0:0:
320,128,40421,1,8,0:0:0:0:
224,128,40520,1,8,0:0:0:0:
320,128,40618,1,8,0:0:0:0:
128,160,40718,1,0,0:0:0:0:
224,160,41013,1,0,0:0:0:0:
224,160,41112,1,0,0:0:0:0:
224,128,41309,1,8,0:0:0:0:
128,160,41507,1,0,0:0:0:0:
224,160,41803,1,0,0:0:0:0:
224,160,41902,1,8,0:0:0:0:
224,128,42099,1,8,0:0:0:0:
128,160,42297,1,0,0:0:0:0:
224,160,42592,1,0,0:0:0:0:
224,160,42691,1,0,0:0:0:0:
224,128,42888,1,8,0:0:0:0:
128,160,43086,1,0,0:0:0:0:
256,160,43184,1,8,0:0:0:0:
224,160,43382,1,8,0:0:0:0:
224,160,43481,1,0,0:0:0:0:
224,128,43678,1,8,0:0:0:0:
128,160,43876,1,4,0:0:0:0:
192,160,44171,1,0,0:0:0:0:
192,160,44270,1,8,0:0:0:0:
224,128,44467,1,4,0:0:0:0:
160,96,44862,1,0,0:0:0:0:
192,160,44960,1,0,0:0:0:0:
384,128,45059,1,0,0:0:0:0:
256,160,45256,1,8,0:0:0:0:
256,192,45454,1,0,0:0:0:0:
256,192,45651,1,0,0:0:0:0:
256,192,45750,1,0,0:0:0:0:
352,192,45848,1,8,0:0:0:0:
384,192,46046,1,0,0:0:0:0:
384,128,46145,1,8,0:0:0:0:
352,160,46243,1,0,0:0:0:0:
352,160,46342,1,0,0:0:0:0:
164,195,46441,1,0,0:0:0:0:
352,160,46539,1,0,0:0:0:0:
384,160,46638,1,8,0:0:0:0:
384,160,46836,1,8,0:0:0:0:
384,160,46934,1,8,0:0:0:0:
320,192,47033,1,0,0:0:0:0:
144,176,47428,1,0,0:0:0:0:
224,192,47625,1,0,0:0:0:0:
224,192,47723,1,0,0:0:0:0:
288,160,47822,1,8,0:0:0:0:
384,192,48217,1,0,0:0:0:0:
320,128,48414,1,8,0:0:0:0:
320,128,48612,1,8,0:0:0:0:
128,160,49007,1,0,0:0:0:0:
224,245,49204,1,0,0:0:0:0:
160,128,49302,1,8,0:0:0:0:
160,128,49401,1,8,0:0:0:0:
320,160,49598,1,8,0:0:0:0:
320,160,49796,1,8,0:0:0:0:
320,160,49993,1,8,0:0:0:0:
256,192,50191,1,0,0:0:0:0:
288,128,50585,1,8,0:0:0:0:
288,128,50980,1,8,0:0:0:0:
253,125,51178,1,0,0:0:0:0:
288,128,51375,1,8,0:0:0:0:
165,173,51573,1,0,0:0:0:0:
256,192,51770,1,8,0:0:0:0:
256,192,51967,1,0,0:0:0:0:
224,128,52362,1,0,0:0:0:0:
256,192,52559,1,8,0:0:0:0:
224,128,52756,1,0,0:0:0:0:
256,192,52954,1,8,0:0:0:0:
224,128,53151,1,8,0:0:0:0:
155,182,53348,1,0,0:0:0:0:
318,239,53743,1,0,0:0:0:0:
273,221,54138,1,0,0:0:0:0:
214,160,54335,1,8,0:0:0:0:
214,160,54533,1,8,0:0:0:0:
214,160,54730,1,8,0:0:0:0:
191,229,54927,1,0,0:0:0:0:
345,196,55125,1,0,0:0:0:0:
345,196,55520,1,0,0:0:0:0:
267,166,55717,1,8,0:0:0:0:
230,190,56112,1,0,0:0:0:0:
186,204,56309,1,0,0:0:0:0:
218,120,56506,1,8,0:0:0:0:
248,161,56901,1,0,0:0:0:0:
248,161,57098,1,0,0:0:0:0:
111,184,57296,1,8,0:0:0:0:
248,161,57493,1,0,0:0:0:0:
121,122,57691,1,8,0:0:0:0:
217,217,57888,1,0,0:0:0:0:
227,122,58085,1,4,0:0:0:0:
426,122,58480,1,8,0:0:0:0:
261,194,58677,1,4,0:0:0:0:
256,181,58875,1,0,0:0:0:0:
256,181,58973,1,0,0:0:0:0:
284,131,59072,1,8,0:0:0:0:
284,131,59171,1,8,0:0:0:0:
297,168,59270,1,0,0:0:0:0:
239,193,59664,1,0,0:0:0:0:
367,200,59763,1,0,0:0:0:0:
459,199,59960,1,0,0:0:0:0:
351,171,60059,1,8,0:0:0:0:
273,213,60256,1,0,0:0:0:0:
273,213,60355,1,0,0:0:0:0:
346,189,60454,1,8,0:0:0:0:
346,189,60552,1,8,0:0:0:0:
376,198,60750,1,0,0:0:0:0:
254,131,60848,1,8,0:0:0:0:
273,213,61046,1,0,0:0:0:0:
273,213,61145,1,0,0:0:0:0:
346,189,61244,1,8,0:0:0:0:
346,189,61342,1,0,0:0:0:0:
376,198,61540,1,0,0:0:0:0:
254,131,61638,1,8,0:0:0:0:
273,213,61835,1,0,0:0:0:0:
346,189,62033,1,8,0:0:0:0:
346,189,62131,1,8,0:0:0:0:
376,198,62329,1,0,0:0:0:0:
254,131,62427,1,8,0:0:0:0:
112,146,62526,1,0,0:0:0:0:
281,168,62625,1,8,0:0:0:0:
147,155,62724,1,0,0:0:0:0:
239,193,62822,1,0,0:0:0:0:
367,200,62921,1,0,0:0:0:0:
459,199,63118,1,0,0:0:0:0:
351,171,63217,1,8,0:0:0:0:
273,213,63414,1,0,0:0:0:0:
273,213,63513,1,0,0:0:0:0:
346,189,63612,1,8,0:0:0:0:
346,189,63710,1,0,0:0:0:0:
376,198,63908,1,0,0:0:0:0:
254,131,64006,1,8,0:0:0:0:
273,213,64204,1,0,0:0:0:0:
346,189,64401,1,4,0:0:0:0:
376,198,64796,1,12,0:0:0:0:
273,213,65191,1,4,0:0:0:0:
213,153,65487,1,0,0:0:0:0:
364,118,65585,1,8,0:0:0:0:
319,154,65783,1,8,0:0:0:0:
319,154,65881,1,8,0:0:0:0:
321,234,65980,1,0,0:0:0:0:
218,169,66276,1,0,0:0:0:0:
218,169,66374,1,0,0:0:0:0:
390,181,66572,1,8,0:0:0:0:
390,181,66671,1,8,0:0:0:0:
390,181,66769,1,8,0:0:0:0:
197,197,66967,1,8,0:0:0:0:
197,197,67066,1,8,0:0:0:0:
358,296,67164,1,0,0:0:0:0:
207,207,67362,1,8,0:0:0:0:
200,148,67559,1,4,0:0:0:0:
200,148,67855,1,4,0:0:0:0:
334,198,68151,1,12,0:0:0:0:
296,191,68348,1,4,0:0:0:0:
296,191,68645,1,4,0:0:0:0:
250,158,68941,1,12,0:0:0:0:
332,158,69138,1,0,0:0:0:0:
187,202,69335,1,0,0:0:0:0:
386,175,69533,1,8,0:0:0:0:
386,175,69730,1,8,0:0:0:0:
328,191,69927,1,0,0:0:0:0:
252,178,70125,1,0,0:0:0:0:
252,178,70322,1,8,0:0:0:0:
252,178,70520,1,8,0:0:0:0:
321,153,70717,1,8,0:0:0:0:
288,193,70816,1,0,0:0:0:0:
288,193,70914,1,0,0:0:0:0:
272,124,71013,1,8,0:0:0:0:
204,119,71112,1,0,0:0:0:0:
196,120,71177,1,0,0:0:0:0:
196,120,71243,1,0,0:0:0:0:
319,133,71309,1,8,0:0:0:0:
186,155,71408,1,8,0:0:0:0:
159,214,71506,1,0,0:0:0:0:
159,214,71572,1,0,0:0:0:0:
159,214,71638,1,0,0:0:0:0:
422,187,71704,1,8,0:0:0:0:
122,169,71770,1,8,0:0:0:0:
122,169,71835,1,8,0:0:0:0:
198,142,72296,1,4,0:0:0:0:
301,183,72493,1,8,0:0:0:0:
281,214,72691,1,0,0:0:0:0:
264,184,72888,1,8,0:0:0:0:
297,175,73085,1,0,0:0:0:0:
297,175,73283,1,0,0:0:0:0:
297,175,73381,1,0,0:0:0:0:
402,168,73480,1,8,0:0:0:0:
353,183,73677,1,8,0:0:0:0:
308,149,73875,1,0,0:0:0:0:
133,174,74072,1,8,0:0:0:0:
308,149,74270,1,0,0:0:0:0:
326,182,74467,1,8,0:0:0:0:
379,230,74664,1,0,0:0:0:0:
203,111,74862,1,8,0:0:0:0:
203,111,74960,1,8,0:0:0:0:
203,111,75059,1,8,0:0:0:0:
203,111,75256,1,8,0:0:0:0:
271,177,75454,1,0,0:0:0:0:
278,165,75651,1,8,0:0:0:0:
304,199,75848,1,0,0:0:0:0:
218,173,76046,1,8,0:0:0:0:
211,190,76243,1,0,0:0:0:0:
211,190,76441,1,0,0:0:0:0:
211,190,76539,1,0,0:0:0:0:
211,176,76638,1,8,0:0:0:0:
313,126,76835,1,4,0:0:0:0:
250,181,77230,1,0,0:0:0:0:
183,127,77427,1,8,0:0:0:0:
183,127,77625,1,8,0:0:0:0:
287,178,77822,1,0,0:0:0:0:
148,211,77921,1,0,0:0:0:0:
287,178,78020,1,8,0:0:0:0:
351,148,78217,1,8,0:0:0:0:
351,148,78316,1,8,0:0:0:0:
311,173,78414,1,8,0:0:0:0:
311,173,78513,1,8,0:0:0:0:
309,168,78612,1,0,0:0:0:0:
301,183,78809,1,8,0:0:0:0:
281,214,79007,1,0,0:0:0:0:
264,184,79204,1,8,0:0:0:0:
297,175,79401,1,0,0:0:0:0:
297,175,79599,1,0,0:0:0:0:
297,175,79697,1,0,0:0:0:0:
402,168,79796,1,8,0:0:0:0:
353,183,79993,1,8,0:0:0:0:
133,174,80191,1,0,0:0:0:0:
308,149,80388,1,8,0:0:0:0:
308,149,80586,1,0,0:0:0:0:
326,182,80783,1,8,0:0:0:0:
379,230,80980,1,0,0:0:0:0:
203,111,81178,1,8,0:0:0:0:
203,111,81276,1,8,0:0:0:0:
203,111,81375,1,8,0:0:0:0:
203,111,81572,1,8,0:0:0:0:
271,177,81770,1,4,0:0:0:0:
304,199,82066,1,4,0:0:0:0:
211,190,82362,1,4,0:0:0:0:
211,176,82559,1,12,0:0:0:0:
202,150,82855,1,0,0:0:0:0:
202,150,82954,1,0,0:0:0:0:
313,126,83151,1,0,0:0:0:0:
221,157,83348,1,8,0:0:0:0:
250,181,83546,1,0,0:0:0:0:
248,168,83645,1,0,0:0:0:0:
183,127,83743,1,8,0:0:0:0:
183,127,83941,1,8,0:0:0:0:
148,211,84039,1,8,0:0:0:0:
287,178,84138,1,0,0:0:0:0:
287,178,84237,1,8,0:0:0:0:
196,133,84434,1,0,0:0:0:0:
351,148,84533,1,8,0:0:0:0:
351,148,84632,1,8,0:0:0:0:
311,173,84730,1,8,0:0:0:0:
311,173,84829,1,8,0:0:0:0:
309,168,84928,1,0,0:0:0:0:
301,183,85125,1,8,0:0:0:0:
281,214,85323,1,0,0:0:0:0:
264,184,85520,1,8,0:0:0:0:
297,175,85717,1,0,0:0:0:0:
297,175,85915,1,0,0:0:0:0:
297,175,86013,1,0,0:0:0:0:
402,168,86112,1,8,0:0:0:0:
308,149,86309,1,8,0:0:0:0:
133,174,86506,1,0,0:0:0:0:
353,183,86704,1,8,0:0:0:0:
308,149,86902,1,0,0:0:0:0:
326,182,87099,1,8,0:0:0:0:
379,230,87296,1,0,0:0:0:0:
203,111,87494,1,8,0:0:0:0:
203,111,87592,1,8,0:0:0:0:
203,111,87691,1,8,0:0:0:0:
203,111,87888,1,8,0:0:0:0:
271,177,88086,1,0,0:0:0:0:
278,165,88283,1,8,0:0:0:0:
304,199,88480,1,0,0:0:0:0:
218,173,88678,1,8,0:0:0:0:
211,190,88875,1,0,0:0:0:0:
211,190,89073,1,0,0:0:0:0:
211,190,89171,1,0,0:0:0:0:
211,176,89270,1,8,0:0:0:0:
313,126,89467,1,4,0:0:0:0:
250,181,89862,1,0,0:0:0:0:
183,127,90059,1,8,0:0:0:0:
183,127,90257,1,8,0:0:0:0:
287,178,90454,1,0,0:0:0:0:
148,211,90553,1,0,0:0:0:0:
287,178,90652,1,8,0:0:0:0:
351,148,90849,1,8,0:0:0:0:
351,148,90948,1,8,0:0:0:0:
311,173,91046,1,8,0:0:0:0:
311,173,91145,1,8,0:0:0:0:
309,168,91244,1,0,0:0:0:0:
301,183,91441,1,8,0:0:0:0:
281,214,91639,1,0,0:0:0:0:
264,184,91836,1,8,0:0:0:0:
297,175,92033,1,0,0:0:0:0:
297,175,92231,1,0,0:0:0:0:
297,175,92329,1,0,0:0:0:0:
402,168,92428,1,8,0:0:0:0:
353,183,92625,1,8,0:0:0:0:
256,160,92723,1,8,0:0:0:0:
133,174,92823,1,0,0:0:0:0:
160,160,93020,1,8,0:0:0:0:
308,149,93218,1,0,0:0:0:0:
326,182,93415,1,8,0:0:0:0:
379,230,93612,1,0,0:0:0:0:
203,111,93810,1,8,0:0:0:0:
203,111,93908,1,8,0:0:0:0:
203,111,94007,1,8,0:0:0:0:
203,111,94204,1,8,0:0:0:0:
271,177,94402,1,4,0:0:0:0:
304,199,94697,1,4,0:0:0:0:
218,173,94993,1,12,0:0:0:0:
211,190,95191,1,4,0:0:0:0:
211,190,95487,1,4,0:0:0:0:
211,176,95783,1,12,0:0:0:0:
313,126,95980,1,4,0:0:0:0:
250,181,96177,1,0,0:0:0:0:
123,135,96276,1,0,0:0:0:0:
183,127,96375,1,8,0:0:0:0:
183,127,96573,1,8,0:0:0:0:
118,180,96671,1,8,0:0:0:0:
287,178,96770,1,0,0:0:0:0:
205,110,96967,1,0,0:0:0:0:
275,163,97164,1,8,0:0:0:0:
309,168,97560,1,4,0:0:0:0:
256,256,97756,1,0,0:0:0:0:
163,184,97855,1,0,0:0:0:0:
256,160,97953,1,8,0:0:0:0:
288,224,98152,1,0,0:0:0:0:
384,192,98348,1,8,0:0:0:0:
320,192,98545,1,0,0:0:0:0:
256,160,98743,1,8,0:0:0:0:
320,128,98941,1,8,0:0:0:0:
320,128,99039,1,0,0:0:0:0:
288,160,99138,1,8,0:0:0:0:
288,224,99335,1,0,0:0:0:0:
288,224,99533,1,8,0:0:0:0:
384,256,99730,1,0,0:0:0:0:
320,192,99927,1,8,0:0:0:0:
320,192,100125,1,8,0:0:0:0:
320,192,100223,1,8,0:0:0:0:
320,192,100322,1,8,0:0:0:0:
224,192,100519,1,0,0:0:0:0:
97,168,100618,1,8,0:0:0:0:
256,128,100717,1,0,0:0:0:0:
320,128,100914,1,8,0:0:0:0:
320,160,101112,1,0,0:0:0:0:
288,192,101309,1,8,0:0:0:0:
416,224,101506,1,0,0:0:0:0:
288,192,101704,1,0,0:0:0:0:
288,192,101802,1,0,0:0:0:0:
288,160,101901,1,8,0:0:0:0:
288,160,102098,1,8,0:0:0:0:
288,160,102197,1,8,0:0:0:0:
288,192,102296,1,0,0:0:0:0:
224,192,102493,1,0,0:0:0:0:
320,192,102691,1,8,0:0:0:0:
288,256,102888,1,0,0:0:0:0:
352,160,103085,1,8,0:0:0:0:
193,163,103184,1,0,0:0:0:0:
352,160,103283,1,8,0:0:0:0:
320,160,103381,1,0,0:0:0:0:
320,160,103480,1,8,0:0:0:0:
320,160,103677,1,8,0:0:0:0:
256,160,103776,1,8,0:0:0:0:
256,192,103875,1,0,0:0:0:0:
224,160,104072,1,8,0:0:0:0:
256,192,104269,1,0,0:0:0:0:
153,194,104368,1,0,0:0:0:0:
288,192,104467,1,8,0:0:0:0:
192,160,104664,1,0,0:0:0:0:
192,160,104862,1,0,0:0:0:0:
288,160,105059,1,8,0:0:0:0:
320,128,105256,1,8,0:0:0:0:
320,128,105355,1,8,0:0:0:0:
224,192,105454,1,0,0:0:0:0:
224,192,105651,1,0,0:0:0:0:
256,192,105848,1,8,0:0:0:0:
224,160,106046,1,0,0:0:0:0:
107,193,106145,1,0,0:0:0:0:
288,192,106243,1,0,0:0:0:0:
256,192,106441,1,8,0:0:0:0:
256,192,106539,1,8,0:0:0:0:
256,192,106638,1,0,0:0:0:0:
224,160,106835,1,8,0:0:0:0:
256,160,107033,1,4,0:0:0:0:
256,160,107329,1,4,0:0:0:0:
256,160,107625,1,4,0:0:0:0:
288,160,107822,1,12,0:0:0:0:
288,160,108118,1,12,0:0:0:0:
180,136,108414,1,4,0:0:0:0:
288,160,108612,1,12,0:0:0:0:
288,224,108908,1,0,0:0:0:0:
266,136,109006,1,8,0:0:0:0:
117,165,109106,1,0,0:0:0:0:
256,139,109204,1,0,0:0:0:0:
307,235,109402,1,4,0:0:0:0:
379,161,109731,1,12,0:0:0:0:
256,192,110092,12,0,113349,0:0:0:0:
