osu file format v14

[General]
AudioFilename: audio.mp3
AudioLeadIn: 0
PreviewTime: 71905
Countdown: 0
SampleSet: Normal
StackLeniency: 0.7
Mode: 1
LetterboxInBreaks: 0
WidescreenStoryboard: 0

[Editor]
DistanceSpacing: 0.5
BeatDivisor: 4
GridSize: 32
TimelineZoom: 1

[Metadata]
Title:Usubeni Day Tripper
TitleUnicode:薄紅デイトリッパー
Artist:Remi from STAR*ANIS & Miho from AIKATSU*STARS!
ArtistUnicode:れみ from STAR☆ANIS & みほ from AIKATSU☆STARS!
Creator:HimemiyaChikane
Version:Kantan
Source:アイカツ!
Tags:Aikatsu! 3rd season third Colorful Smile insert song mini album 2 挿入歌ミニアルバム Lantis
BeatmapID:950980
BeatmapSetID:442195

[Difficulty]
HPDrainRate:7
CircleSize:2
OverallDifficulty:3
ApproachRate:4
SliderMultiplier:1.4
SliderTickRate:1

[Events]
//Background and Video events
0,0,"QQ20160405023937.jpg",0,55
//Break Periods
//Storyboard Layer 0 (Background)
//Storyboard Layer 1 (Fail)
//Storyboard Layer 2 (Pass)
//Storyboard Layer 3 (Foreground)
//Storyboard Sound Samples

[TimingPoints]
81,468.75,4,1,0,100,1,0
8143,394.736842105263,4,1,0,100,1,0
8932,454.545454545455,4,1,0,100,1,0
8932,-86.9565217391304,4,1,0,100,0,0
9159,375,4,1,0,100,1,0
9159,-105.263157894737,4,1,0,100,0,0
9534,394.736842105263,4,1,0,100,1,0
9534,-100,4,1,0,100,0,0
10718,394.736842105263,4,1,0,100,1,0
72296,-100,4,1,0,100,0,1
97560,-100,4,1,0,100,0,0

[HitObjects]
256,160,81,5,0,0:0:0:0:
448,160,1956,1,0,0:0:0:0:
162,173,2893,1,8,0:0:0:0:
256,192,3831,1,0,0:0:0:0:
129,177,4768,1,8,0:0:0:0:
384,224,5706,1,0,0:0:0:0:
416,192,6409,1,8,0:0:0:0:
416,192,7112,1,8,0:0:0:0:
288,192,9159,5,12,0:0:0:0:
320,128,10718,1,0,0:0:0:0:
177,203,11112,1,0,0:0:0:0:
298,186,11507,1,8,0:0:0:0:
224,192,12296,1,0,0:0:0:0:
288,192,13875,1,0,0:0:0:0:
15,163,14270,1,8,0:0:0:0:
352,160,14665,1,8,0:0:0:0:
320,160,15454,1,8,0:0:0:0:
224,192,17033,1,8,0:0:0:0:
128,192,17823,1,8,0:0:0:0:
223,171,18217,1,8,0:0:0:0:
256,160,18612,1,4,0:0:0:0:
288,160,19402,1,12,0:0:0:0:
288,224,20191,1,4,0:0:0:0:
384,192,21770,1,0,0:0:0:0:
217,178,23349,1,8,0:0:0:0:
190,155,24139,1,8,0:0:0:0:
384,224,24928,1,0,0:0:0:0:
384,224,26507,1,0,0:0:0:0:
288,192,28086,1,0,0:0:0:0:
224,192,29665,1,8,0:0:0:0:
224,192,31244,1,4,0:0:0:0:
224,160,32428,1,0,0:0:0:0:
320,160,32823,1,0,0:0:0:0:
352,192,33217,1,8,0:0:0:0:
192,128,33612,1,8,0:0:0:0:
352,192,34402,1,4,0:0:0:0:
128,160,35191,1,0,0:0:0:0:
128,160,35981,1,0,0:0:0:0:
224,160,36770,1,8,0:0:0:0:
128,160,37165,1,0,0:0:0:0:
224,160,37954,1,8,0:0:0:0:
224,160,38744,1,8,0:0:0:0:
224,160,39139,1,0,0:0:0:0:
128,160,39928,1,0,0:0:0:0:
128,160,40717,1,8,0:0:0:0:
224,160,41902,1,8,0:0:0:0:
128,160,43875,1,8,0:0:0:0:
224,128,44467,1,0,0:0:0:0:
384,128,45060,1,0,0:0:0:0:
160,160,45454,1,8,0:0:0:0:
384,128,46244,1,0,0:0:0:0:
320,192,47033,1,4,0:0:0:0:
320,128,47823,1,8,0:0:0:0:
384,192,48612,1,0,0:0:0:0:
160,128,49402,1,8,0:0:0:0:
256,192,50191,1,0,0:0:0:0:
256,192,51770,1,8,0:0:0:0:
224,128,52560,1,8,0:0:0:0:
318,239,53349,1,0,0:0:0:0:
273,221,54139,1,0,0:0:0:0:
214,160,54928,1,0,0:0:0:0:
345,196,55323,1,0,0:0:0:0:
267,166,55717,1,8,0:0:0:0:
218,120,56507,1,8,0:0:0:0:
227,122,58086,1,4,0:0:0:0:
239,193,59665,1,4,0:0:0:0:
346,189,60454,1,8,0:0:0:0:
346,189,61244,1,0,0:0:0:0:
273,213,62033,1,0,0:0:0:0:
346,189,62428,1,8,0:0:0:0:
239,193,62823,1,0,0:0:0:0:
346,189,63612,1,8,0:0:0:0:
346,189,64402,1,0,0:0:0:0:
273,213,65191,1,8,0:0:0:0:
321,234,65981,1,0,0:0:0:0:
192,160,67560,1,8,0:0:0:0:
296,191,68349,1,0,0:0:0:0:
332,158,69139,1,0,0:0:0:0:
386,175,69731,1,0,0:0:0:0:
252,178,70323,1,8,0:0:0:0:
256,192,70717,12,0,71902,0:0:0:0:
198,142,72296,5,4,0:0:0:0:
353,183,73086,1,8,0:0:0:0:
194,135,73875,1,0,0:0:0:0:
308,149,74270,1,0,0:0:0:0:
379,230,74665,1,8,0:0:0:0:
271,177,75454,1,0,0:0:0:0:
313,126,76244,1,8,0:0:0:0:
155,168,77033,1,0,0:0:0:0:
287,178,77428,1,0,0:0:0:0:
183,127,77823,1,8,0:0:0:0:
309,168,78612,1,0,0:0:0:0:
353,183,79402,1,0,0:0:0:0:
128,192,80191,1,8,0:0:0:0:
308,149,80586,1,8,0:0:0:0:
326,182,80981,1,0,0:0:0:0:
271,177,81770,1,4,0:0:0:0:
211,176,82560,1,12,0:0:0:0:
221,157,83349,1,8,0:0:0:0:
134,244,83744,1,8,0:0:0:0:
287,178,84139,1,0,0:0:0:0:
309,168,84928,1,4,0:0:0:0:
353,183,85717,1,0,0:0:0:0:
192,192,86507,1,8,0:0:0:0:
326,182,86902,1,8,0:0:0:0:
379,230,87296,1,0,0:0:0:0:
271,177,88086,1,0,0:0:0:0:
313,126,88875,1,0,0:0:0:0:
288,128,89665,1,0,0:0:0:0:
320,160,90060,1,0,0:0:0:0:
352,160,90454,1,8,0:0:0:0:
301,183,91244,1,0,0:0:0:0:
133,174,92823,1,8,0:0:0:0:
203,111,94007,1,8,0:0:0:0:
271,177,94402,1,4,0:0:0:0:
211,190,95191,1,12,0:0:0:0:
313,126,95981,1,4,0:0:0:0:
275,163,97165,1,8,0:0:0:0:
309,168,97560,1,4,0:0:0:0:
320,128,99139,1,0,0:0:0:0:
256,128,100717,1,0,0:0:0:0:
288,192,102296,1,0,0:0:0:0:
352,160,103086,1,8,0:0:0:0:
256,192,103875,1,8,0:0:0:0:
224,192,105454,1,8,0:0:0:0:
256,192,106244,1,0,0:0:0:0:
157,168,106639,1,8,0:0:0:0:
256,160,107033,1,4,0:0:0:0:
288,160,107823,1,12,0:0:0:0:
288,224,108612,1,4,0:0:0:0:
307,235,109402,1,4,0:0:0:0:
256,192,110092,12,0,113349,0:0:0:0:
