osu file format v14

[General]
AudioFilename: audio.mp3
AudioLeadIn: 0
PreviewTime: 71905
Countdown: 0
SampleSet: Normal
StackLeniency: 0.7
Mode: 1
LetterboxInBreaks: 0
WidescreenStoryboard: 0

[Editor]
DistanceSpacing: 0.5
BeatDivisor: 3
GridSize: 32
TimelineZoom: 1

[Metadata]
Title:Usubeni Day Tripper
TitleUnicode:薄紅デイトリッパー
Artist:Remi from STAR*ANIS & Miho from AIKATSU*STARS!
ArtistUnicode:れみ from STAR☆ANIS & みほ from AIKATSU☆STARS!
Creator:HimemiyaChikane
Version:Futsuu
Source:アイカツ!
Tags:Aikatsu! 3rd season third Colorful Smile insert song mini album 2 挿入歌ミニアルバム Lantis
BeatmapID:950979
BeatmapSetID:442195

[Difficulty]
HPDrainRate:6
CircleSize:2
OverallDifficulty:4
ApproachRate:5
SliderMultiplier:1.4
SliderTickRate:1

[Events]
//Background and Video events
0,0,"QQ20160405023937.jpg",0,55
//Break Periods
//Storyboard Layer 0 (Background)
//Storyboard Layer 1 (Fail)
//Storyboard Layer 2 (Pass)
//Storyboard Layer 3 (Foreground)
//Storyboard Sound Samples

[TimingPoints]
81,468.75,4,1,0,100,1,0
8143,394.736842105263,4,1,0,100,1,0
8932,454.545454545455,4,1,0,100,1,0
8932,-86.9565217391304,4,1,0,100,0,0
9159,375,4,1,0,100,1,0
9159,-105.263157894737,4,1,0,100,0,0
9534,394.736842105263,4,1,0,100,1,0
9534,-100,4,1,0,100,0,0
10718,394.736842105263,4,1,0,100,1,0
72296,-100,4,1,0,100,0,1
97560,-100,4,1,0,100,0,0

[HitObjects]
256,160,81,5,0,0:0:0:0:
242,182,1018,1,8,0:0:0:0:
448,160,1956,1,0,0:0:0:0:
196,155,2893,1,8,0:0:0:0:
256,192,3362,1,0,0:0:0:0:
384,192,3831,1,8,0:0:0:0:
167,143,4768,1,8,0:0:0:0:
384,224,5706,1,0,0:0:0:0:
128,128,6409,1,8,0:0:0:0:
416,192,7112,1,8,0:0:0:0:
288,192,9159,5,12,0:0:0:0:
426,186,9534,1,0,0:0:0:0:
180,143,9928,1,8,0:0:0:0:
428,200,10323,1,0,0:0:0:0:
320,128,10718,1,8,0:0:0:0:
320,192,11507,1,8,0:0:0:0:
384,256,11704,1,8,0:0:0:0:
320,192,11902,1,0,0:0:0:0:
320,160,12296,1,0,0:0:0:0:
256,160,12691,1,8,0:0:0:0:
416,224,13086,1,0,0:0:0:0:
480,256,13283,1,0,0:0:0:0:
320,128,13481,1,8,0:0:0:0:
288,192,13875,1,0,0:0:0:0:
352,160,14665,1,8,0:0:0:0:
192,160,14862,1,8,0:0:0:0:
320,160,15060,1,8,0:0:0:0:
320,160,15454,1,0,0:0:0:0:
288,192,15849,1,8,0:0:0:0:
352,160,16244,1,0,0:0:0:0:
352,160,16441,1,0,0:0:0:0:
64,160,16639,1,8,0:0:0:0:
224,192,17033,1,0,0:0:0:0:
128,192,17823,1,0,0:0:0:0:
256,192,18020,1,0,0:0:0:0:
256,192,18217,1,8,0:0:0:0:
256,160,18612,1,4,0:0:0:0:
416,256,18908,1,0,0:0:0:0:
288,160,19402,1,12,0:0:0:0:
480,192,19698,1,8,0:0:0:0:
288,224,20191,1,4,0:0:0:0:
192,160,20981,1,0,0:0:0:0:
320,224,21178,1,8,0:0:0:0:
288,192,21375,1,0,0:0:0:0:
224,160,21770,1,0,0:0:0:0:
320,192,22560,1,8,0:0:0:0:
352,192,23349,1,0,0:0:0:0:
384,224,24928,1,0,0:0:0:0:
128,160,25717,1,8,0:0:0:0:
384,224,26507,1,0,0:0:0:0:
288,192,28086,1,0,0:0:0:0:
224,192,29665,1,8,0:0:0:0:
224,192,31244,1,4,0:0:0:0:
192,192,31836,1,0,0:0:0:0:
224,160,32428,1,0,0:0:0:0:
320,160,32823,1,0,0:0:0:0:
352,192,33217,1,8,0:0:0:0:
384,160,33415,1,0,0:0:0:0:
448,160,33612,1,8,0:0:0:0:
352,160,34007,1,8,0:0:0:0:
352,192,34402,1,0,0:0:0:0:
128,160,35191,1,0,0:0:0:0:
128,160,35981,1,0,0:0:0:0:
224,160,36375,1,0,0:0:0:0:
128,160,36573,1,0,0:0:0:0:
128,160,36770,1,8,0:0:0:0:
224,160,37165,1,0,0:0:0:0:
224,160,37954,1,0,0:0:0:0:
128,160,38349,1,0,0:0:0:0:
224,160,38744,1,8,0:0:0:0:
224,128,38941,1,0,0:0:0:0:
128,160,39139,1,8,0:0:0:0:
128,160,39928,1,0,0:0:0:0:
224,128,40323,1,8,0:0:0:0:
128,160,40717,1,0,0:0:0:0:
224,160,41902,1,8,0:0:0:0:
128,160,42099,1,0,0:0:0:0:
293,168,43086,1,8,0:0:0:0:
128,160,43875,1,4,0:0:0:0:
224,128,44467,1,4,0:0:0:0:
384,128,45060,1,8,0:0:0:0:
256,192,45454,1,0,0:0:0:0:
160,160,46046,1,8,0:0:0:0:
384,128,46244,1,8,0:0:0:0:
352,160,46639,1,0,0:0:0:0:
384,160,46836,1,0,0:0:0:0:
320,192,47033,1,4,0:0:0:0:
320,128,47823,1,8,0:0:0:0:
384,192,48612,1,0,0:0:0:0:
96,160,49007,1,0,0:0:0:0:
160,128,49402,1,8,0:0:0:0:
256,192,50191,1,0,0:0:0:0:
384,320,50981,1,0,0:0:0:0:
160,224,51375,1,0,0:0:0:0:
256,192,51770,1,8,0:0:0:0:
224,128,52560,1,8,0:0:0:0:
256,192,52757,1,8,0:0:0:0:
256,192,52954,1,8,0:0:0:0:
318,239,53349,1,0,0:0:0:0:
191,229,54139,1,8,0:0:0:0:
214,160,54336,1,8,0:0:0:0:
214,160,54533,1,8,0:0:0:0:
214,160,54928,1,0,0:0:0:0:
267,166,55717,1,8,0:0:0:0:
230,165,56112,1,8,0:0:0:0:
218,120,56507,1,8,0:0:0:0:
146,210,57296,1,8,0:0:0:0:
227,122,58086,1,4,0:0:0:0:
426,122,58481,1,8,0:0:0:0:
261,194,58678,1,4,0:0:0:0:
297,168,59073,1,4,0:0:0:0:
239,193,59665,1,0,0:0:0:0:
64,96,59961,1,8,0:0:0:0:
346,189,60454,1,0,0:0:0:0:
224,96,60750,1,8,0:0:0:0:
346,189,61244,1,0,0:0:0:0:
224,96,61540,1,8,0:0:0:0:
273,213,62033,1,0,0:0:0:0:
346,189,62428,1,8,0:0:0:0:
288,128,62823,1,8,0:0:0:0:
239,193,63119,1,0,0:0:0:0:
346,189,63612,1,8,0:0:0:0:
288,128,64007,1,8,0:0:0:0:
346,189,64402,1,4,0:0:0:0:
376,198,64796,1,12,0:0:0:0:
273,213,65191,1,4,0:0:0:0:
213,153,65586,1,12,0:0:0:0:
321,234,65981,1,4,0:0:0:0:
390,181,66573,1,8,0:0:0:0:
390,181,66770,1,8,0:0:0:0:
358,296,67165,1,0,0:0:0:0:
200,148,67560,1,4,0:0:0:0:
448,224,67856,1,0,0:0:0:0:
296,191,68349,1,4,0:0:0:0:
384,256,68645,1,8,0:0:0:0:
332,158,69139,1,8,0:0:0:0:
386,175,69731,1,0,0:0:0:0:
252,178,70323,1,8,0:0:0:0:
256,192,70717,12,0,71902,0:0:0:0:
198,142,72296,5,4,0:0:0:0:
297,175,73086,1,0,0:0:0:0:
402,168,73481,1,8,0:0:0:0:
353,183,73678,1,0,0:0:0:0:
308,149,74073,1,0,0:0:0:0:
308,149,74270,1,0,0:0:0:0:
379,230,74665,1,8,0:0:0:0:
45,184,75060,1,0,0:0:0:0:
271,177,75454,1,0,0:0:0:0:
211,190,76244,1,0,0:0:0:0:
211,176,76639,1,8,0:0:0:0:
313,126,76836,1,0,0:0:0:0:
250,181,77231,1,0,0:0:0:0:
287,178,77428,1,0,0:0:0:0:
183,127,77823,1,8,0:0:0:0:
309,168,78612,1,0,0:0:0:0:
281,214,79007,1,8,0:0:0:0:
297,175,79402,1,0,0:0:0:0:
402,168,79796,1,8,0:0:0:0:
353,183,79994,1,0,0:0:0:0:
308,149,80389,1,0,0:0:0:0:
308,149,80586,1,8,0:0:0:0:
326,182,80981,1,0,0:0:0:0:
271,177,81770,1,4,0:0:0:0:
211,190,82362,1,4,0:0:0:0:
211,176,82560,1,12,0:0:0:0:
202,150,82954,1,0,0:0:0:0:
221,157,83349,1,8,0:0:0:0:
183,127,83744,1,0,0:0:0:0:
183,127,83941,1,8,0:0:0:0:
287,178,84139,1,0,0:0:0:0:
309,168,84928,1,0,0:0:0:0:
281,214,85323,1,0,0:0:0:0:
297,175,85717,1,0,0:0:0:0:
402,168,86112,1,0,0:0:0:0:
353,183,86310,1,8,0:0:0:0:
308,149,86704,1,8,0:0:0:0:
326,182,86902,1,8,0:0:0:0:
379,230,87296,1,0,0:0:0:0:
271,177,88086,1,0,0:0:0:0:
304,199,88481,1,8,0:0:0:0:
211,190,88875,1,0,0:0:0:0:
211,176,89270,1,0,0:0:0:0:
313,126,89467,1,8,0:0:0:0:
250,181,89862,1,8,0:0:0:0:
183,127,90060,1,8,0:0:0:0:
148,211,90454,1,0,0:0:0:0:
301,183,91244,1,0,0:0:0:0:
128,128,92033,1,0,0:0:0:0:
64,128,92428,1,0,0:0:0:0:
160,224,92625,1,0,0:0:0:0:
133,174,92823,1,8,0:0:0:0:
379,230,93612,1,0,0:0:0:0:
203,111,94007,1,8,0:0:0:0:
271,177,94402,1,4,0:0:0:0:
211,190,95191,1,4,0:0:0:0:
313,126,95981,1,4,0:0:0:0:
183,127,96375,1,8,0:0:0:0:
287,178,96770,1,0,0:0:0:0:
275,163,97165,1,8,0:0:0:0:
309,168,97560,1,4,0:0:0:0:
224,160,97954,1,8,0:0:0:0:
192,160,98744,1,0,0:0:0:0:
320,128,98941,1,0,0:0:0:0:
256,160,99139,1,0,0:0:0:0:
288,224,99533,1,8,0:0:0:0:
320,192,99928,1,8,0:0:0:0:
320,192,100125,1,0,0:0:0:0:
224,192,100323,1,8,0:0:0:0:
256,128,100717,1,0,0:0:0:0:
352,192,101112,1,8,0:0:0:0:
96,160,101902,1,0,0:0:0:0:
192,192,102099,1,0,0:0:0:0:
288,192,102296,1,0,0:0:0:0:
320,192,102691,1,8,0:0:0:0:
352,160,103086,1,8,0:0:0:0:
352,160,103283,1,0,0:0:0:0:
320,160,103481,1,8,0:0:0:0:
256,192,103875,1,0,0:0:0:0:
384,160,104270,1,8,0:0:0:0:
256,192,105060,1,8,0:0:0:0:
128,192,105257,1,8,0:0:0:0:
224,192,105454,1,8,0:0:0:0:
256,192,105849,1,8,0:0:0:0:
288,192,106244,1,0,0:0:0:0:
256,192,106441,1,0,0:0:0:0:
256,192,106639,1,8,0:0:0:0:
256,160,107033,1,4,0:0:0:0:
160,192,107329,1,0,0:0:0:0:
288,160,107823,1,12,0:0:0:0:
384,128,108119,1,8,0:0:0:0:
288,224,108612,1,4,0:0:0:0:
307,235,109402,1,4,0:0:0:0:
379,161,109731,1,12,0:0:0:0:
256,192,110092,12,0,113349,0:0:0:0:
