osu file format v9

[General]
AudioFilename: Remady Ft. Craig David - Do It On My Own (Remix).mp3
AudioLeadIn: 3000
PreviewTime: 45927
Countdown: 0
SampleSet: Soft
StackLeniency: 0.5
Mode: 0
LetterboxInBreaks: 0

[Editor]
Bookmarks: 12320,46057,53554,91039,98536,106034,113531,148966
DistanceSpacing: 0.8
BeatDivisor: 4
GridSize: 8

[Metadata]
Title:Do It On My Own (Remix)
Artist:Remady & Craig David
Creator:Antu Villegas
Version:Normal
Source:
Tags:zetA

[Difficulty]
HPDrainRate:3
CircleSize:4
OverallDifficulty:3
ApproachRate:1
SliderMultiplier:1.4
SliderTickRate:2

[Events]
//Background and Video events
0,0,"Background.png"
//Break Periods
2,120152,122256
//Storyboard Layer 0 (Background)
//Storyboard Layer 1 (Fail)
//Storyboard Layer 2 (Pass)
//Storyboard Layer 3 (Foreground)
//Storyboard Sound Samples
//Background Colour Transformations
3,100,0,0,0

[TimingPoints]
1124,468.75,4,2,1,30,1,0
1124,-200,4,2,1,21,0,0
4795,-100,4,2,1,40,0,0
8076,-100,4,2,1,40,0,0
16045,-100,4,1,1,42,0,1
16162,-100,4,1,1,42,0,0
23640,-100,4,1,2,19,0,0
23757,-100,4,1,1,19,0,0
24078,-100,4,1,1,42,0,0
27529,-100,4,1,1,28,0,0
27763,-100,4,1,1,42,0,0
46057,-100,4,1,1,42,0,1
56799,-100,4,1,1,42,0,1
60934,-100,4,1,1,42,0,0
61051,-100,4,1,1,57,0,1
61168,-100,4,1,1,57,0,0
68548,-100,4,1,1,42,0,0
69013,-100,4,1,1,62,0,0
69482,-100,4,1,1,41,0,0
70888,-100,4,1,2,65,0,0
71005,-100,4,1,1,42,0,0
91039,-100,4,1,1,42,0,1
103466,-100,4,1,1,49,0,0
118466,-100,4,1,1,7,0,0

[Colours]
Combo1 : 244,244,244
Combo2 : 32,155,255
Combo3 : 98,211,255
SliderBorder : 0,0,0

[HitObjects]
80,272,1124,6,4,C|80:192,1,70,4|4
144,112,2061,2,4,C|224:112,1,70,4|4
320,112,2999,2,4,C|320:192,1,70,0|4
320,288,3936,2,4,C|240:288,1,70
144,208,4874,5,0
208,112,5342,1,2
272,208,5811,1,0
336,112,6280,2,0,C|480:112,2,140,2|0|2
400,200,7686,1,0
432,304,8155,6,0,C|336:304,1,70,2|0
304,304,8624,1,0
240,208,9092,1,2
304,144,9561,1,0
224,64,10030,1,2
224,64,10264,1,2
176,64,10499,2,0,C|32:64,1,140,0|2
96,176,11436,1,0
208,176,11905,1,2
208,288,12374,5,0
320,288,12842,1,2
400,208,13311,1,0
320,128,13780,1,2
320,128,14014,1,0
256,192,14249,12,0,15655
128,288,16124,5,0
128,288,16592,1,2
128,176,17061,1,0
128,176,17530,1,2
128,64,17999,2,0,C|272:64,1,140,0|2
272,176,18936,2,0,C|272:320,1,140,0|2
384,320,19874,2,0,L|464:320|464:240,1,140,0|2
384,176,20811,2,0,L|384:112|464:112,1,140,0|2
464,48,21514,5,0
464,48,21749,1,0
352,48,22217,2,0,L|208:48,1,140,2|0
96,48,23155,2,0,L|96:336,1,280,2|2
208,336,24561,5,0
208,224,25030,1,2
288,144,25499,1,0
368,64,25967,1,2
448,144,26436,2,0,L|448:288,1,140,0|2
336,288,27374,6,0,L|336:192,1,70
336,160,27842,1,2
224,160,28311,1,0
112,160,28780,1,2
112,96,29014,1,0
112,96,29249,1,0
224,96,29717,2,0,L|368:96,1,140,2|0
368,208,30655,1,2
368,320,31124,5,0
256,320,31592,2,0,L|96:320,1,140,8|0
116,208,32530,2,0,L|256:208,1,140,8|0
256,96,33467,2,0,L|112:96,1,140,8|0
116,208,34405,1,8
116,264,34639,1,0
116,320,34874,1,0
224,320,35342,1,8
336,320,35811,6,8,L|336:176,1,140,0|8
197,180,36749,2,0,L|357:180,1,140,0|8
432,112,37686,1,2
432,160,37920,1,0
432,208,38155,1,8
432,257,38389,1,0
432,305,38624,1,2
224,288,39092,1,8
224,176,39561,6,0,L|279:129|336:176,1,140,0|8
352,64,40499,2,0,L|405:116|469:52,2,140,0|8|0
240,64,41905,1,8
128,64,42374,1,0
128,176,42842,1,8
256,192,43780,12,0,46124
176,112,46592,5,8
288,112,47061,1,0
288,224,47530,2,0,L|288:304|208:304,1,140,8|0
120,264,48467,1,8
120,264,48936,1,0
176,176,49405,2,0,L|224:112|288:96,1,140,8|0
400,96,50342,6,0,L|400:256,1,140,8|0
400,352,51280,1,8
288,352,51749,1,0
288,240,52217,2,0,L|288:80,1,140,8|0
176,96,53155,1,8
176,160,53389,1,0
176,224,53624,1,0
64,224,54092,1,8
65,83,54561,2,0,L|65:227,2,140,0|8|0
176,80,55967,2,0,L|320:80,1,140,8|0
368,80,56670,1,2
416,80,56905,1,8
256,192,57374,12,0,61124
80,48,61592,5,2
192,48,62061,1,0
304,48,62530,1,2
304,160,62999,2,0,L|192:160|224:192,1,140,0|2
240,224,63702,1,0
320,304,64170,1,0
400,304,64522,1,0
480,304,64874,1,0
480,192,65342,6,0,L|432:160|416:176|352:128,1,140,2|0
256,144,66280,6,0,L|208:176|224:192|176:224,2,140,2|0|2
320,144,67452,1,0
432,144,67920,1,0
432,224,68272,6,0,L|352:224|352:256|336:256,1,105
239,249,69092,1,2
160,176,69561,1,0
160,64,70030,1,2
48,64,70499,2,0,L|48:224|128:320,1,280
240,320,71905,1,2
240,208,72374,6,0,L|240:64,1,140,0|2
380,103,73311,1,0
380,215,73780,1,2
380,215,74014,2,0,L|289:214,1,70
226,214,74600,1,0
141,214,74952,1,0
220,134,75420,2,0,B|115:134,2,105
304,208,76592,5,8
192,208,77061,1,0
192,320,77530,1,8
304,320,77999,2,0,L|448:320,1,140,0|8
444,208,78936,2,0,L|444:127,2,70,0|0|8
336,208,79874,5,0
256,128,80342,1,8
176,208,80811,1,0
96,128,81280,2,0,L|96:288,1,140,8|0
160,320,82100,2,0,L|288:319,1,105
377,319,82920,1,0
377,235,83272,2,0,L|377:121,1,105
272,128,84092,5,8
160,128,84561,1,0
160,240,85030,1,8
272,240,85499,1,0
272,288,85733,1,0
272,336,85967,1,8
384,336,86436,1,0
384,224,86905,1,8
384,112,87374,6,0,L|227:112,1,140,0|8
256,336,88780,1,8
80,192,89717,1,8
256,48,90655,5,8
256,48,90889,1,0
256,48,91124,1,0
256,160,91592,2,0,L|256:304,1,140,8|0
143,300,92530,2,0,L|144:144,1,140,8|0
176,48,93467,1,0
224,48,93702,2,0,L|364:48,2,140
224,104,94874,5,0
224,215,95342,1,8
224,327,95811,2,0,L|394:327,1,140,0|8
364,214,96749,6,0,L|364:63,1,140,0|8
364,74,97452,2,0,L|225:73,2,140
368,128,98624,1,0
368,240,99092,1,8
256,240,99561,2,0,L|176:240,1,70
128,240,100030,1,8
128,240,100264,2,0,L|128:96|224:96,1,210,0|8
304,96,101436,5,0
416,96,101905,1,8
416,96,102139,1,0
416,96,102374,2,0,L|416:192,1,70
416,224,102842,1,8
272,320,103545,1,0
128,224,104249,1,0
272,128,104952,1,0
272,240,105420,5,0
272,240,105655,1,8
272,240,105889,1,0
272,240,106124,2,0,L|164:132,1,140,0|8
272,240,107061,2,0,L|384:128,1,140,0|8
411,101,107764,2,0,L|272:48|192:80,1,210,0|8
102,70,108936,5,0
102,181,109405,1,8
102,181,109639,2,0,L|102:267,1,70
141,290,110108,2,0,L|223:290,1,70,0|8
379,290,111045,6,0,L|456:290,1,70,0|8
488,250,111514,2,0,L|488:173,1,70
488,124,111983,1,0
488,68,112217,1,8
320,68,112920,6,0,L|209:179,1,140
176,144,113624,1,0
144,256,114092,2,0,L|241:353,1,140,8|0
355,355,115030,5,8
355,355,115264,2,0,L|352:272|448:272|448:192|336:192,1,350
245,192,116905,2,0,L|96:192,1,140,8|0
106,192,117608,1,0
106,192,117842,5,8
225,311,118545,5,0
344,192,119249,5,0
225,73,119952,5,0
256,192,123936,5,0
