osu file format v9

[General]
AudioFilename: Remady Ft. Craig David - Do It On My Own (Remix).mp3
AudioLeadIn: 3000
PreviewTime: 45927
Countdown: 0
SampleSet: Normal
StackLeniency: 0.5
Mode: 0
LetterboxInBreaks: 0

[Editor]
Bookmarks: 12320,46057,53554,91039,98536,106034,113531,148966
DistanceSpacing: 1.2
BeatDivisor: 4
GridSize: 4

[Metadata]
Title:Do It On My Own (Remix)
Artist:Remady & Craig David
Creator:Antu Villegas
Version:Insane
Source:
Tags:zetA

[Difficulty]
HPDrainRate:7
CircleSize:4
OverallDifficulty:7
ApproachRate:8
SliderMultiplier:1.4
SliderTickRate:2

[Events]
//Background and Video events
0,0,"Background.png"
//Break Periods
//Storyboard Layer 0 (Background)
//Storyboard Layer 1 (Fail)
//Storyboard Layer 2 (Pass)
//Storyboard Layer 3 (Foreground)
Sprite,Foreground,Centre,"2X.png",320,240 M,0,76100,,394,197 F,0,76100,76568,1,0 S,0,76100,77037,0.7759997,1.496 F,0,76568,77037,0
Sprite,Foreground,Centre,"2X.png",320,240 M,0,75631,,393,196 F,0,75631,76100,0,1 S,0,75631,76100,0.7760001,0.7680002 S,0,76100,76568,0.7680002,0.8960003 F,0,76100,77037,1 S,0,76568,77037,0.8960003,0.7680004 S,0,77037,77506,0.7680004,0.8960004 F,0,77037,84537,1 S,0,77506,77975,0.8960004,0.7680004 S,0,77975,78443,0.7680004,0.8960004 S,0,78443,78912,0.8960004,0.7680004 S,0,78912,79381,0.7680004,0.8960004 S,0,79381,79850,0.8960004,0.7680004 S,0,79850,80318,0.7680004,0.8960004 S,0,80318,80787,0.8960004,0.7680004 S,0,80787,81256,0.7680004,0.8960004 S,0,81256,81725,0.8960004,0.7680004 S,0,81725,82193,0.7680004,0.8880004 S,0,82193,82662,0.8880004,0.7680004 S,0,82662,83131,0.7680004,0.8960004 S,0,83131,83600,0.8960004,0.7680006 S,0,83600,84068,0.7680006,0.8960005 S,0,84068,84537,0.8960005,0.7600005 F,0,84537,85006,1,0 S,0,84537,85006,0.7600005,0.9040004
//Storyboard Sound Samples
//Background Colour Transformations
3,100,0,0,0

[TimingPoints]
1124,468.75,4,2,1,30,1,0
4795,-100,4,2,1,40,0,0
6955,-100,4,2,1,13,0,0
7047,-100,4,2,1,40,0,0
7610,-100,4,1,1,65,0,0
8076,-100,4,2,1,40,0,0
16045,-100,4,1,1,42,0,1
16162,-100,4,1,1,42,0,0
23545,-100,4,1,1,43,0,0
24013,-100,4,1,1,42,0,0
27529,-100,4,1,1,28,0,0
27763,-100,4,1,1,42,0,0
31544,-71.4285714285714,4,1,1,42,0,0
32481,-100,4,1,1,42,0,0
33304,-71.4285714285714,4,1,1,42,0,0
33655,-100,4,1,1,42,0,0
46006,-100,4,1,1,59,0,1
57295,-100,4,1,1,59,0,0
61006,-100,4,1,1,42,0,0
61124,-100,4,1,1,57,0,1
61241,-100,4,1,1,63,0,0
68545,-100,4,1,1,65,0,0
76124,-100,4,1,1,65,0,1
76208,-100,4,1,1,65,0,0
76559,-50,4,1,1,65,0,0
89717,-100,4,1,1,65,0,0
91124,-100,4,1,1,46,0,1
100264,-125,4,1,1,46,0,1
104952,-100,4,1,1,46,0,1
116357,-100,4,1,1,32,0,0
117842,-133.333333333333,4,1,1,32,0,0
121087,-100,4,1,1,60,0,0
124837,-100,4,1,1,60,0,0

[Colours]
Combo1 : 244,244,244
Combo2 : 32,133,255
Combo3 : 98,211,255
SliderBorder : 0,0,0

[HitObjects]
80,48,1124,1,4
80,120,1358,1,0
80,192,1592,1,4
80,264,1827,1,0
80,336,2061,2,0,B|160:336,1,70,4|0
224,336,2530,1,4
224,264,2764,1,0
152,264,2999,1,0
152,192,3233,5,0
152,120,3467,1,4
224,120,3702,1,0
224,48,3936,1,4
296,48,4170,1,0
296,120,4405,1,4
296,192,4639,1,0
296,280,4874,5,0
394,165,5342,1,2
392,24,5811,1,0
328,56,6045,1,0
264,88,6280,1,2
200,120,6514,2,0,B|136:152|64:192,1,140
72,72,8155,5,2
144,72,8389,1,0
168,48,8506,1,0
192,24,8624,1,0
241,73,8858,1,0
265,97,8975,1,0
289,121,9092,1,2
289,191,9327,1,0
288,264,9561,5,2
256,264,9678,1,0
224,264,9795,1,2
192,264,9913,1,0
160,264,10030,1,2
111,215,10264,1,0
160,165,10499,1,0
336,56,10733,6,0,B|336:128,1,70,0|2
336,200,11202,1,0
385,249,11436,1,2
368,280,11553,1,0
336,304,11670,1,2
304,320,11788,1,0
272,328,11905,1,2
223,279,12139,1,0
173,328,12374,5,0
74,229,12842,1,2
173,129,13311,1,0
123,178,13545,1,0
172,227,13780,1,2
312,227,14249,5,0
312,192,14366,1,0
312,157,14483,1,0
312,87,14717,2,0,B|360:88,1,35,2|0
416,88,15069,2,0,B|416:136,1,35
416,192,15420,1,0
416,264,15655,1,2
72,328,16124,6,0,B|192:208,1,140,0|2
72,130,17061,1,0
72,60,17295,1,0
142,60,17530,1,2
271,189,17999,1,0
341,189,18233,1,0
341,119,18467,1,2
341,119,18702,1,2
144,184,19170,2,0,B|144:72,2,105
144,296,20342,5,2
328,296,20811,2,0,B|416:296,1,70
432,296,21163,1,0
464,296,21280,1,2
464,208,21514,6,0,B|408:208,2,35
320,208,21983,2,0,B|272:208,4,35,0|0|2|0|0
385,143,22686,1,0
320,78,22920,1,0
256,142,23155,1,2
192,78,23389,2,0,B|152:160,1,70,0|4
161,232,23858,1,0
160,280,23975,1,0
160,320,24092,1,2
251,320,24327,5,0
296,320,24444,1,0
342,320,24561,1,0
342,228,24795,1,0
342,137,25030,1,2
272,80,25264,6,0,B|213:37,1,70
130,32,25733,2,0,B|72:88,1,70,0|2
79,80,26202,1,0
272,80,26670,1,0
272,168,26905,2,0,B|320:168,1,35,2|0
392,168,27374,1,0
272,304,27842,5,2
88,304,28311,2,0,B|88:208,1,70
88,192,28663,1,0
88,144,28780,1,2
152,80,29014,2,0,B|232:80,1,70
224,168,29483,2,0,B|304:168,1,70,0|2
256,192,29952,12,4,31124
440,64,31592,6,0,B|360:152|448:248,2,195.999995326996,8|0|8
320,32,32764,1,0
320,160,32999,1,0
392,336,33350,2,0,B|216:336,1,146.999996495247
56,128,34170,5,0
56,128,34522,1,0
56,128,34874,2,0,B|104:192|198:154,1,140,0|8
328,48,35811,1,0
408,72,36045,1,0
432,152,36280,1,8
408,232,36514,1,0
328,264,36749,1,0
432,152,37217,2,0,B|352:200|304:112|224:176,1,210,8|0
168,224,38155,1,8
120,88,38624,5,0
184,24,38858,1,0
248,88,39092,1,8
184,152,39327,1,0
248,216,39561,1,0
312,152,39795,1,0
248,88,40030,1,8
312,24,40264,1,0
384,80,40499,1,0
384,80,40733,1,0
384,80,40967,2,0,B|376:112|376:112|400:104|400:104|392:128|392:128|416:112|416:112|416:144|416:144|424:136|424:136|432:120|432:120|432:120,1,140,8|0
400,296,41905,5,8
288,296,42139,1,0
176,296,42374,1,0
288,296,42608,2,0,B|288:200,1,70,0|8
400,160,43780,5,8
288,160,44014,1,0
176,160,44249,1,0
288,160,44483,2,0,B|288:256,1,70,0|8
464,48,45420,5,0
464,136,45655,2,0,B|464:232,1,70,8|0
464,296,46124,5,0
281,296,46592,1,8
280,112,47061,1,0
248,80,47178,1,0
208,64,47295,1,0
120,64,47530,1,8
120,64,47764,2,0,B|64:128|136:208,1,140
256,320,48702,6,0,B|256:240,1,70
328,96,49405,1,8
392,32,49639,1,0
457,97,49874,1,0
392,32,50108,1,0
328,96,50342,1,8
184,192,50811,6,0,B|280:192,1,70
336,192,51280,1,8
400,256,51514,1,0
335,320,51749,1,0
401,257,51983,1,0
336,192,52217,1,8
40,56,52920,6,0,B|96:16,1,70,0|8
152,88,53389,1,0
240,88,53624,5,0
422,88,54092,1,8
424,272,54561,1,0
240,280,55030,1,8
240,280,55264,2,0,B|160:192|256:72,1,210,0|8
303,157,56202,5,0
368,92,56436,1,0
304,28,56670,1,0
368,92,56905,1,8
303,157,57139,1,0
239,93,57374,5,0
174,28,57608,1,0
109,92,57842,1,8
109,320,58545,1,0
382,320,59249,1,0
256,192,59717,12,4,61124
256,192,61592,5,2
120,192,62061,2,0,B|120:48,1,140,0|2
120,52,62764,2,0,B|214:52,1,70
295,52,63350,1,0
400,52,63702,1,0
400,191,64170,1,0
400,264,64405,2,0,B|352:264,1,35,2|0
256,264,64874,5,0
157,165,65342,1,2
256,66,65811,1,0
328,64,66045,1,0
360,64,66163,1,0
392,64,66280,1,2
464,64,66514,6,0,B|440:112|480:160,1,70
504,200,67100,2,0,B|536:264|488:312,1,105
360,288,67920,1,0
328,224,68155,1,2
328,224,68272,1,0
280,128,68624,5,0
136,128,69092,1,2
144,264,69561,2,0,B|201:321,1,70
218,338,69913,1,0
242,362,70030,1,2
312,360,70264,6,0,B|312:288,1,70
238,216,70850,1,0
312,141,71202,1,0
213,42,71670,2,0,B|256:96|208:160,2,105
176,32,72491,5,0
144,24,72608,1,0
112,32,72725,1,0
80,48,72842,1,2
80,184,73311,1,0
144,216,73545,1,0
176,224,73663,1,0
208,216,73780,1,2
280,216,74014,6,0,B|280:160,1,35
280,144,74249,1,0
352,144,74483,2,0,B|352:96,3,35,0|0|2|0
256,192,74952,12,4,76124
168,56,76592,6,0,B|80:184|176:328,1,280,8|0
432,192,77530,1,8
472,56,77764,1,0
336,56,77999,1,0
288,192,78233,1,0
152,192,78467,2,0,B|440:192,1,280,8|0
400,328,79170,5,0
400,328,79405,1,8
400,328,79639,2,0,B|480:184|368:72|240:72|160:160,1,420,0|8
48,320,80811,1,0
48,320,81045,1,0
48,320,81280,6,0,B|48:152,2,140,8|0|0
256,320,82100,1,0
464,320,82452,1,0
464,320,82920,1,0
432,158,83272,1,0
432,158,83389,6,0,B|296:88,1,140
64,328,84092,1,8
256,48,84561,1,0
448,328,85030,1,8
352,192,85264,1,0
352,192,85381,1,0
352,192,85499,1,0
104,192,85850,2,0,B|176:192,1,70,0|8
352,192,86202,1,0
352,192,86670,5,0
104,192,87022,2,0,B|104:288|104:288|152:336|152:336|200:336,1,210
416,80,87842,1,8
96,80,88780,1,8
256,312,89717,1,8
456,192,90420,5,0
456,192,90538,1,0
456,192,90655,1,8
408,248,90889,6,0,B|352:192,1,70,0|0
216,200,91592,1,8
216,56,92061,1,0
216,56,92178,2,0,B|272:56,1,35
320,56,92530,2,0,B|320:152,2,70,8|0|0
390,56,93233,5,0
414,80,93350,1,0
438,104,93467,1,8
438,138,93584,1,0
438,172,93702,2,0,B|438:276,1,70
388,291,94170,2,0,B|293:291,1,70,0|8
268,241,94639,2,0,B|296:208,1,35
312,184,94874,6,0,B|248:136,2,70,0|0|8
168,184,95811,1,0
96,184,96045,1,0
96,216,96163,1,0
96,248,96280,1,8
96,320,96514,2,0,B|168:320,1,70
235,320,96983,1,0
164,320,97217,1,8
360,256,97920,6,0,B|360:176,1,70,0|8
360,152,98272,1,0
360,120,98389,1,0
248,32,98624,5,0
8,184,99092,1,8
248,320,99561,1,0
248,32,100030,1,8
248,184,100264,2,0,B|328:128|408:184,1,168,0|8
456,208,101202,6,0,B|456:144,1,56
392,56,101905,1,8
344,32,102139,1,0
288,32,102374,1,0
240,56,102608,1,0
200,88,102842,2,0,B|200:208,1,112,8|0
248,232,103545,2,0,B|120:232,1,112
88,264,104249,2,0,B|88:136,1,112,0|8
88,95,104952,1,0
184,200,105420,5,0
232,144,105655,2,0,B|296:208,1,70,8|0
336,144,106124,1,0
424,256,106592,1,8
336,368,107061,1,0
336,296,107295,1,0
336,264,107413,1,0
336,232,107530,1,8
336,160,107764,2,0,B|392:160|392:112,2,70
264,160,108467,2,0,B|152:160,2,105,8|0|0
256,88,109405,5,8
200,48,109639,1,0
128,48,109874,1,0
72,88,110108,1,0
130,133,110342,2,0,B|210:133,1,70,8|0
200,208,110811,1,0
128,208,111045,1,0
72,248,111280,2,0,B|136:296,1,70,8|0
200,288,111749,2,0,B|256:248,1,70
320,208,112217,2,0,B|440:112,1,140,8|0
488,80,112920,5,0
440,24,113155,1,8
392,80,113389,1,0
208,120,113624,1,0
304,120,113858,1,0
140,72,114092,1,8
56,72,114327,2,0,B|56:168,1,70
56,280,115030,6,0,B|216:280,1,140,8|0
264,280,115733,1,0
296,280,115850,1,0
328,280,115967,1,8
400,280,116202,2,0,B|400:176,1,70
400,144,116670,1,0
400,72,116905,1,8
400,72,117139,1,0
328,72,117374,6,0,B|224:72,1,70
224,144,117842,2,0,B|332:144,1,104.999996870756,8|0
328,296,118545,2,0,B|220:296,1,104.999996870756
120,296,119249,2,0,B|120:192,1,104.999996870756,0|8
120,80,119952,2,0,B|224:80,1,104.999996870756
288,80,120655,1,8
448,80,121124,5,0
448,112,121241,1,0
448,144,121358,1,0
448,240,121592,1,8
400,240,121709,1,0
352,240,121827,1,0
240,240,122061,1,0
264,128,122295,1,0
360,80,122530,1,8
224,48,122999,5,0
192,48,123116,1,0
160,48,123233,1,0
80,104,123467,1,8
80,152,123584,1,0
80,200,123702,1,0
160,280,123936,1,0
208,272,124053,1,0
256,248,124170,1,0
288,208,124288,1,0
304,160,124405,1,8
392,272,124874,6,0,B|392:168,1,70
392,168,125225,1,0
392,136,125342,1,8
344,88,125577,1,0
312,88,125694,1,0
280,88,125811,2,0,B|184:88,1,70,0|0
136,88,126280,5,8
136,160,126514,1,0
136,232,126749,1,0
136,304,126983,1,0
64,304,127217,5,8
64,232,127452,1,0
64,160,127686,1,0
64,88,127920,1,0
136,88,128155,2,0,B|288:88,1,140,8|0
346,88,128858,5,0
346,120,128975,1,0
346,152,129092,1,8
346,248,129327,1,8
298,248,129444,1,0
250,248,129561,1,0
248,144,129795,1,0
248,40,130030,1,8
288,336,130499,5,0
224,336,130733,1,0
192,336,130850,1,0
160,336,130967,1,8
80,280,131202,1,8
88,232,131319,1,0
112,192,131436,1,0
144,152,131553,1,0
184,128,131670,1,0
232,112,131788,1,0
280,112,131905,1,8
432,232,132374,6,0,B|432:136,1,70
432,88,132842,1,8
360,64,133077,2,0,B|360:160,1,70
360,208,133545,2,0,B|360:296,1,70,0|8
288,280,134014,5,0
240,232,134249,1,0
229,65,134717,1,8
281,121,134952,1,0
176,120,135420,1,0
128,64,135655,1,8
80,120,135889,2,0,B|80:192,1,70,0|4
