osu file format v9

[General]
AudioFilename: Remady Ft. Craig David - Do It On My Own (Remix).mp3
AudioLeadIn: 3000
PreviewTime: 45927
Countdown: 0
SampleSet: Normal
StackLeniency: 0.5
Mode: 0
LetterboxInBreaks: 0

[Editor]
Bookmarks: 12320,46057,53554,91039,98536,106034,113531,148966
DistanceSpacing: 1
BeatDivisor: 4
GridSize: 8

[Metadata]
Title:Do It On My Own (Remix)
Artist:Remady & Craig David
Creator:Antu Villegas
Version:Hard
Source:
Tags:zetA

[Difficulty]
HPDrainRate:6
CircleSize:4
OverallDifficulty:5
ApproachRate:6
SliderMultiplier:1.4
SliderTickRate:1

[Events]
//Background and Video events
0,0,"Background.png"
//Break Periods
//Storyboard Layer 0 (Background)
//Storyboard Layer 1 (Fail)
//Storyboard Layer 2 (Pass)
//Storyboard Layer 3 (Foreground)
//Storyboard Sound Samples
//Background Colour Transformations
3,100,0,0,0

[TimingPoints]
1124,468.75,4,2,1,30,1,0
4795,-100,4,2,1,40,0,0
6904,-100,4,2,1,13,0,0
7047,-100,4,2,1,40,0,0
8076,-100,4,2,1,40,0,0
14170,-166.666666666667,4,2,1,40,0,0
16006,-100,4,1,1,42,0,1
16162,-100,4,1,1,42,0,0
23545,-100,4,1,1,43,0,0
24013,-100,4,1,1,42,0,0
27529,-100,4,1,1,28,0,0
27763,-100,4,1,1,42,0,0
46006,-100,4,1,1,59,0,1
57295,-100,4,1,1,59,0,0
60927,-100,4,1,1,42,0,0
61006,-100,4,1,1,57,0,1
61162,-100,4,1,1,57,0,0
68545,-100,4,1,1,42,0,0
69763,-100,4,1,1,26,0,0
69880,-100,4,1,1,55,0,0
69997,-100,4,1,1,42,0,0
70888,-100,4,1,1,41,0,0
71005,-100,4,1,1,42,0,0
91006,-100,4,1,1,46,0,1
103428,-100,4,1,1,59,0,1
116357,-100,4,1,1,32,0,0
118466,-100,4,1,1,7,0,0
121045,-100,4,1,1,60,0,0

[Colours]
Combo1 : 244,244,244
Combo2 : 32,133,255
Combo3 : 98,211,255
SliderBorder : 0,0,0

[HitObjects]
256,48,1124,1,4
160,144,1592,1,4
256,256,2061,1,4
352,144,2530,2,4,B|448:144,2,70,4|0|0
451,243,3467,5,4
352,352,3936,1,4
256,240,4405,1,4
256,240,4639,1,0
256,240,4874,1,0
352,144,5342,1,2
352,0,5811,1,0
224,64,6280,1,2
224,64,6514,2,0,B|128:64|128:160,1,140
384,288,8155,5,2
432,240,8389,1,0
480,192,8624,1,0
384,96,9092,1,2
288,192,9561,1,0
288,52,10030,2,0,B|224:112,1,70,2|2
192,144,10499,1,0
96,48,10967,5,2
96,192,11436,1,0
96,336,11905,1,2
96,336,12022,1,2
96,336,12139,6,0,B|176:336,1,70,2|0
304,336,12842,1,2
304,192,13311,1,0
160,192,13780,2,0,B|64:192,1,70,2|0
90,122,14249,6,0,B|256:16|416:128,1,336.000008010864,0|4
416,256,16592,5,2
272,256,17061,1,0
272,112,17530,1,2
272,112,17764,2,0,B|176:112,1,70,0|0
96,112,18350,1,0
96,224,18702,1,0
240,224,19170,2,0,B|352:224,1,105
450,224,19874,5,0
448,80,20342,1,2
304,80,20811,1,0
176,80,21280,1,2
176,224,21749,1,0
288,224,22100,1,0
400,224,22452,1,0
432,80,22920,6,0,B|320:80,1,105
192,80,23624,1,0
64,144,24092,6,0,B|64:288,1,140,2|0
208,288,25030,1,2
208,288,25147,1,2
208,288,25264,1,0
208,288,25499,1,0
320,288,25850,2,0,B|320:176,1,105
176,176,26670,6,0,B|176:64,2,105
176,320,27842,1,2
320,320,28311,1,0
320,176,28780,1,2
320,176,29014,2,0,B|320:96,1,70
208,112,29600,1,0
96,112,29952,1,0
96,256,30420,2,0,B|208:256,2,105
195,156,31592,5,8
336,160,32061,2,0,B|437:59,1,140,0|8
336,160,32999,2,0,B|445:269,1,140,0|8
384,304,33702,2,0,B|346:304,1,35
240,304,34170,1,0
240,306,34405,1,8
240,304,34639,6,0,B|240:224,1,70
96,240,35342,1,8
96,96,35811,2,0,B|96:176,2,70,0|0|8
160,96,36514,1,0
192,96,36631,1,0
224,96,36749,1,0
288,96,36983,2,0,B|368:96,1,70,0|8
432,96,37452,1,0
432,240,37920,1,0
432,240,38155,6,0,B|336:240,1,70,8|0
288,240,38624,1,0
144,240,39092,1,8
144,96,39561,1,0
208,48,39795,1,0
272,96,40030,1,8
320,160,40264,1,0
368,96,40499,1,0
320,32,40733,1,0
272,96,40967,1,8
224,160,41202,5,0
80,160,41670,1,0
154,234,42022,1,0
228,308,42374,1,0
368,304,42842,2,8,B|433:252|449:172|321:188|337:76|433:60,2,280
208,304,45420,5,0
269,337,45655,1,0
338,337,45889,1,0
398,300,46124,6,0,B|398:140,1,140,0|8
256,160,47061,1,0
112,160,47530,1,8
112,160,47764,1,0
112,96,47999,5,0
240,48,48467,1,8
312,40,48702,1,0
384,56,48936,1,0
448,88,49170,2,0,B|448:184,1,70,0|8
448,232,49639,1,0
400,288,49874,1,0
328,312,50108,1,0
256,296,50342,5,8
144,192,50811,1,0
256,96,51280,1,8
400,80,51749,2,0,B|464:80,1,35
470,114,52100,2,0,B|470:162,1,35,0|8
470,219,52452,2,0,B|374:219,2,70
464,288,53155,1,8
464,288,53389,1,0
368,288,53624,5,0
224,288,54092,1,8
224,144,54561,1,0
368,144,55030,1,8
368,144,55264,2,0,B|353:54|236:53|221:169,1,210,0|8
224,224,56202,1,0
296,336,56670,1,0
368,224,57139,1,0
368,224,57374,6,0,B|368:128,2,70,0|0|8
157,224,58545,1,0
157,13,59249,2,0,B|132:124|161:233,1,210
368,224,60655,1,8
368,80,61124,5,0
368,80,61592,1,2
192,80,62061,5,0
192,224,62530,1,2
256,224,62764,2,0,B|336:224,1,70
432,224,63350,1,0
432,112,63702,1,0
288,112,64170,1,0
288,112,64522,1,0
176,112,64874,2,0,B|142:184|186:269,1,140,0|2
316,247,65811,6,0,B|350:183|316:111,1,140,0|2
352,48,66514,1,0
416,96,66749,1,0
464,192,67100,1,0
416,288,67452,1,0
320,192,67920,6,0,B|208:192,2,105
320,48,69092,1,2
176,48,69561,1,0
176,112,69795,1,0
176,112,69913,1,0
176,112,70030,1,2
176,176,70264,6,0,B|256:176|256:176|272:192|272:256|368:256,1,210,0|2
349,255,71202,1,0
352,112,71670,2,0,B|352:0,2,105
352,256,72842,1,2
208,256,73311,1,0
208,192,73545,1,0
208,128,73780,1,2
144,128,74014,6,0,B|96:128,2,35
256,192,74483,12,0,76124
416,96,76592,5,8
416,240,77061,1,0
416,240,77295,1,0
352,240,77530,2,0,B|192:240,1,140,8|0
142,240,78233,1,0
142,240,78467,1,8
144,176,78702,1,0
144,112,78936,1,0
208,112,79170,6,0,B|249:95|288:115,1,70,0|8
256,176,79639,2,0,B|297:193|336:173,1,70,0|0
384,144,80108,1,0
416,80,80342,1,8
480,208,80811,6,0,B|448:272|416:256,1,70
409,283,81163,1,0
377,299,81280,1,8
304,304,81514,1,0
240,304,81749,1,0
170,304,81983,1,0
139,286,82100,1,0
120,254,82217,2,0,B|88:222|96:176,1,70,8|0
144,64,82920,6,0,B|39:64,2,105
288,64,84092,1,8
288,208,84561,2,0,B|384:208,2,70,0|0|8
224,208,85264,2,0,B|224:160,1,35
224,144,85499,1,0
224,80,85733,1,0
224,80,85967,1,8
160,80,86202,2,0,B|64:96|80:192,1,140
80,272,87022,2,0,B|208:272,1,105
320,272,87842,5,8
480,32,88780,1,8
192,32,89717,1,8
64,192,90420,6,0,B|64:272,1,70,0|8
64,336,90889,1,0
128,336,91124,1,0
208,224,91592,1,8
288,336,92061,1,0
368,224,92530,1,8
368,224,92764,2,0,B|432:144|336:32|240:48|208:96,1,280
224,80,93936,5,0
80,64,94405,2,0,B|80:160,1,70,8|0
80,208,94874,1,0
80,281,95108,1,0
80,353,95342,1,8
432,352,96045,6,0,B|432:282,1,70,0|8
432,208,96514,1,0
432,135,96749,1,0
432,63,96983,1,0
432,63,97217,1,8
224,64,97920,6,0,B|144:64,1,70,0|8
80,80,98389,1,0
32,144,98624,2,0,B|0:224|64:288,1,140,0|8
112,144,99561,2,0,B|160:176|144:272,1,140,0|8
143,272,100264,2,0,B|112:320|144:352|208:352|224:304,1,140
352,320,101202,6,0,B|352:240,1,70
432,128,101905,1,8
368,128,102139,1,0
304,128,102374,1,0
240,128,102608,1,0
176,128,102842,2,0,B|176:256,2,105,8|0|0
176,64,103780,1,8
32,64,104249,1,0
32,208,104717,2,0,B|32:304,1,70,8|0
176,272,105420,5,0
226,222,105655,1,8
275,173,105889,1,0
325,223,106124,1,0
176,272,106592,2,0,B|288:160,1,140,8|0
272,32,107530,1,8
272,32,107764,2,0,B|176:32|176:128,1,140
320,112,108702,6,0,B|320:192,1,70
192,224,109405,1,8
241,273,109639,1,0
311,273,109874,1,0
380,273,110108,1,0
429,223,110342,1,8
256,336,111045,1,0
326,336,111280,1,8
395,336,111514,1,0
449,289,111749,1,0
432,224,111983,2,0,B|339:225,1,70,0|8
256,32,112920,6,0,B|208:32|208:80,1,70,0|8
272,96,113389,2,0,B|272:144|224:144,1,70
96,144,114092,1,8
96,288,114561,1,0
165,288,114795,2,0,B|256:304,1,70,0|8
288,240,115264,2,0,B|176:224|160:304,1,140
304,128,116202,6,0,B|384:128,1,70
448,256,116905,1,8
448,192,117139,1,0
448,128,117374,1,0
448,64,117608,1,0
448,64,117842,5,8
240,64,118545,1,0
32,64,119249,1,0
240,64,119952,1,0
432,320,121124,5,0
432,320,121241,1,0
432,320,121358,1,0
384,240,121592,1,8
384,240,121709,1,0
384,240,121827,1,0
320,160,122061,2,0,B|224:160,2,70,0|0|8
416,64,122999,6,0,B|368:64,2,35
304,64,123467,2,0,B|256:64,2,35,8|0|0
192,64,123936,2,0,B|128:64,4,35,0|0|0|0|8
192,208,124874,5,0
128,224,125108,1,0
80,272,125342,1,8
48,336,125577,1,0
112,352,125811,2,0,B|208:352|224:256,1,140,0|8
352,272,126749,2,0,B|448:272|464:176,1,140,0|8
320,160,127686,2,0,B|224:160|208:64,1,140,0|8
128,208,128624,6,0,B|80:208,2,35
128,304,129092,2,0,B|91:341,2,35,8|0|0
224,304,129561,2,0,B|224:352,2,35
224,240,130030,1,8
352,304,130499,5,0
416,272,130733,1,0
448,208,130967,1,8
448,137,131202,1,0
414,75,131436,1,0
349,47,131670,1,0
278,47,131905,1,8
208,160,132374,5,0
208,160,132491,1,0
208,160,132608,1,0
208,224,132842,2,0,B|208:304|304:304,1,140,8|0
336,304,133428,1,0
368,304,133545,1,0
432,304,133780,5,8
432,160,134249,1,0
288,160,134717,1,8
368,48,135186,1,0
368,48,135420,2,0,B|272:48,1,70,0|8
256,192,136124,5,4
