osu file format v14

[General]
AudioFilename: Chronostasis.mp3
AudioLeadIn: 0
PreviewTime: 106824
Countdown: 0
SampleSet: None
StackLeniency: 0.2
Mode: 1
LetterboxInBreaks: 0
WidescreenStoryboard: 0

[Editor]
DistanceSpacing: 0.6
BeatDivisor: 4
GridSize: 32
TimelineZoom: 0.9

[Metadata]
Title:Chronostasis
TitleUnicode:Chronostasis
Artist:Release Hallucination
ArtistUnicode:Release Hallucination
Creator:lolcubes
Version:Onicubes
Source:
Tags:deathstreams m3-38
BeatmapID:1162768
BeatmapSetID:549074

[Difficulty]
HPDrainRate:4.2
CircleSize:5
OverallDifficulty:7
ApproachRate:5
SliderMultiplier:1.4
SliderTickRate:1

[Events]
//Background and Video events
0,0,"bg.jpg",0,76
//Break Periods
//Storyboard Layer 0 (Background)
//Storyboard Layer 1 (Fail)
//Storyboard Layer 2 (Pass)
//Storyboard Layer 3 (Foreground)
//Storyboard Sound Samples

[TimingPoints]
3178,300,4,1,0,80,1,0
20245,300,4,1,0,80,1,8
21148,300,4,1,0,80,1,0
21624,300,4,1,0,80,1,8
22374,300,4,1,0,80,1,0
107574,-100,4,1,0,80,0,1
125874,-100,4,1,0,80,0,0
192774,-100,4,1,0,80,0,1
211974,-100,4,1,0,80,0,0
214374,-133.333333333333,4,1,0,60,0,0
214474,-129.87012987013,4,1,0,62,0,0
214574,-126.582278481013,4,1,0,63,0,0
214674,-123.456790123457,4,1,0,64,0,0
214774,-120.481927710843,4,1,0,65,0,0
214874,-117.647058823529,4,1,0,66,0,0
214974,-113.636363636364,4,1,0,68,0,0
215074,-111.111111111111,4,1,0,70,0,0
215174,-108.695652173913,4,1,0,72,0,0
215274,-106.382978723404,4,1,0,74,0,0
215374,-104.166666666667,4,1,0,76,0,0
215474,-102.040816326531,4,1,0,78,0,0
215574,-100,4,1,0,80,0,0
279774,300,4,1,0,80,1,0
284274,300,4,1,0,80,1,0
290874,300,4,1,0,80,1,0
310224,-99.009900990099,4,1,0,80,0,0
310374,-98.0392156862745,4,1,0,80,0,0
310524,-97.0873786407767,4,1,0,80,0,0
310674,-96.1538461538461,4,1,0,80,0,0
310824,-95.2380952380952,4,1,0,80,0,0
310974,-94.3396226415094,4,1,0,80,0,0
311124,-93.4579439252336,4,1,0,80,0,0
311274,-92.5925925925926,4,1,0,80,0,0
311424,-91.743119266055,4,1,0,80,0,0
311574,-90.9090909090909,4,1,0,80,0,0
311724,-90.0900900900901,4,1,0,80,0,0
311874,-89.2857142857143,4,1,0,80,0,0
312024,-87.719298245614,4,1,0,80,0,0
312174,-86.2068965517241,4,1,0,80,0,0
312324,-84.7457627118644,4,1,0,80,0,0
312474,-83.3333333333333,4,1,0,80,0,0
312549,-100,4,1,0,80,0,0
341274,-100,4,1,0,80,0,1
359274,-100,4,1,0,80,0,0
360474,-100,4,1,0,80,0,1
374874,-100,4,1,0,80,0,0
378424,-100,4,3,0,5,0,0

[HitObjects]
256,192,19678,5,0,0:0:0:0:
256,192,19978,1,4,0:0:0:0:
256,192,20245,1,0,0:0:0:0:
256,192,20395,1,0,0:0:0:0:
256,192,20470,1,0,0:0:0:0:
256,192,20545,1,8,0:0:0:0:
256,192,20695,1,0,0:0:0:0:
256,192,20845,1,0,0:0:0:0:
256,192,20920,1,0,0:0:0:0:
256,192,20995,1,8,0:0:0:0:
256,192,21148,1,0,0:0:0:0:
256,192,21298,1,0,0:0:0:0:
256,192,21373,1,0,0:0:0:0:
256,192,21448,1,8,0:0:0:0:
256,192,22374,1,0,0:0:0:0:
256,192,22449,1,0,0:0:0:0:
256,192,22524,1,0,0:0:0:0:
256,192,22599,1,0,0:0:0:0:
256,192,22674,1,8,0:0:0:0:
256,192,22749,1,0,0:0:0:0:
256,192,22824,1,0,0:0:0:0:
256,192,22899,1,0,0:0:0:0:
256,192,22974,1,8,0:0:0:0:
256,192,23049,1,8,0:0:0:0:
256,192,23124,1,0,0:0:0:0:
256,192,23199,1,0,0:0:0:0:
256,192,23274,1,8,0:0:0:0:
256,192,23349,1,0,0:0:0:0:
256,192,23424,1,8,0:0:0:0:
256,192,23499,1,0,0:0:0:0:
256,192,23574,1,0,0:0:0:0:
256,192,23649,1,0,0:0:0:0:
256,192,23724,1,0,0:0:0:0:
256,192,23799,1,0,0:0:0:0:
256,192,23874,1,8,0:0:0:0:
256,192,23949,1,0,0:0:0:0:
256,192,24024,1,0,0:0:0:0:
256,192,24099,1,0,0:0:0:0:
256,192,24174,1,8,0:0:0:0:
256,192,24249,1,8,0:0:0:0:
256,192,24324,1,0,0:0:0:0:
256,192,24399,1,0,0:0:0:0:
256,192,24474,1,8,0:0:0:0:
256,192,24549,1,8,0:0:0:0:
256,192,24624,1,8,0:0:0:0:
256,192,24699,1,8,0:0:0:0:
256,192,24774,1,0,0:0:0:0:
256,192,24849,1,0,0:0:0:0:
256,192,24924,1,0,0:0:0:0:
256,192,24999,1,0,0:0:0:0:
256,192,25074,1,8,0:0:0:0:
256,192,25149,1,0,0:0:0:0:
256,192,25224,1,0,0:0:0:0:
256,192,25299,1,0,0:0:0:0:
256,192,25374,1,8,0:0:0:0:
256,192,25449,1,8,0:0:0:0:
256,192,25524,1,0,0:0:0:0:
256,192,25599,1,0,0:0:0:0:
256,192,25674,1,8,0:0:0:0:
256,192,25749,1,0,0:0:0:0:
256,192,25824,1,8,0:0:0:0:
256,192,25899,1,0,0:0:0:0:
256,192,25974,1,0,0:0:0:0:
256,192,26049,1,0,0:0:0:0:
256,192,26124,1,0,0:0:0:0:
256,192,26199,1,0,0:0:0:0:
256,192,26274,1,8,0:0:0:0:
256,192,26349,1,0,0:0:0:0:
256,192,26424,1,0,0:0:0:0:
256,192,26499,1,0,0:0:0:0:
256,192,26574,1,8,0:0:0:0:
256,192,26649,1,8,0:0:0:0:
256,192,26724,1,0,0:0:0:0:
256,192,26799,1,0,0:0:0:0:
256,192,26874,1,8,0:0:0:0:
256,192,26949,1,0,0:0:0:0:
256,192,27024,1,8,0:0:0:0:
256,192,27099,1,8,0:0:0:0:
256,192,27174,1,0,0:0:0:0:
256,192,27249,1,0,0:0:0:0:
256,192,27324,1,0,0:0:0:0:
256,192,27399,1,0,0:0:0:0:
256,192,27474,1,8,0:0:0:0:
256,192,27549,1,0,0:0:0:0:
256,192,27624,1,0,0:0:0:0:
256,192,27699,1,0,0:0:0:0:
256,192,27774,1,8,0:0:0:0:
256,192,27849,1,8,0:0:0:0:
256,192,27924,1,0,0:0:0:0:
256,192,27999,1,0,0:0:0:0:
256,192,28074,1,8,0:0:0:0:
256,192,28149,1,0,0:0:0:0:
256,192,28224,1,8,0:0:0:0:
256,192,28299,1,0,0:0:0:0:
256,192,28374,1,0,0:0:0:0:
256,192,28449,1,0,0:0:0:0:
256,192,28524,1,0,0:0:0:0:
256,192,28599,1,0,0:0:0:0:
256,192,28674,1,8,0:0:0:0:
256,192,28749,1,0,0:0:0:0:
256,192,28824,1,0,0:0:0:0:
256,192,28899,1,0,0:0:0:0:
256,192,28974,1,8,0:0:0:0:
256,192,29049,1,8,0:0:0:0:
256,192,29124,1,0,0:0:0:0:
256,192,29199,1,0,0:0:0:0:
256,192,29274,1,8,0:0:0:0:
256,192,29349,1,0,0:0:0:0:
256,192,29424,1,8,0:0:0:0:
256,192,29499,1,8,0:0:0:0:
256,192,29574,1,8,0:0:0:0:
256,192,29649,1,0,0:0:0:0:
256,192,29724,1,0,0:0:0:0:
256,192,29799,1,0,0:0:0:0:
256,192,29874,1,8,0:0:0:0:
256,192,29949,1,0,0:0:0:0:
256,192,30024,1,0,0:0:0:0:
256,192,30099,1,0,0:0:0:0:
256,192,30174,1,8,0:0:0:0:
256,192,30249,1,8,0:0:0:0:
256,192,30324,1,0,0:0:0:0:
256,192,30399,1,0,0:0:0:0:
256,192,30474,1,8,0:0:0:0:
256,192,30549,1,0,0:0:0:0:
256,192,30624,1,8,0:0:0:0:
256,192,30699,1,0,0:0:0:0:
256,192,30774,1,0,0:0:0:0:
256,192,30849,1,0,0:0:0:0:
256,192,30924,1,0,0:0:0:0:
256,192,30999,1,0,0:0:0:0:
256,192,31074,1,8,0:0:0:0:
256,192,31149,1,0,0:0:0:0:
256,192,31224,1,0,0:0:0:0:
256,192,31299,1,0,0:0:0:0:
256,192,31374,1,8,0:0:0:0:
256,192,31449,1,8,0:0:0:0:
256,192,31524,1,0,0:0:0:0:
256,192,31674,1,12,0:0:0:0:
256,192,31974,1,0,0:0:0:0:
256,192,32049,1,0,0:0:0:0:
256,192,32124,1,0,0:0:0:0:
256,192,32199,1,0,0:0:0:0:
256,192,32274,1,8,0:0:0:0:
256,192,32349,1,0,0:0:0:0:
256,192,32424,1,0,0:0:0:0:
256,192,32499,1,0,0:0:0:0:
256,192,32574,1,8,0:0:0:0:
256,192,32649,1,8,0:0:0:0:
256,192,32724,1,0,0:0:0:0:
256,192,32799,1,0,0:0:0:0:
256,192,32874,1,8,0:0:0:0:
256,192,32949,1,0,0:0:0:0:
256,192,33024,1,8,0:0:0:0:
256,192,33099,1,0,0:0:0:0:
256,192,33174,1,0,0:0:0:0:
256,192,33249,1,0,0:0:0:0:
256,192,33324,1,0,0:0:0:0:
256,192,33399,1,0,0:0:0:0:
256,192,33474,1,8,0:0:0:0:
256,192,33549,1,0,0:0:0:0:
256,192,33624,1,0,0:0:0:0:
256,192,33699,1,0,0:0:0:0:
256,192,33774,1,8,0:0:0:0:
256,192,33849,1,8,0:0:0:0:
256,192,33924,1,0,0:0:0:0:
256,192,33999,1,0,0:0:0:0:
256,192,34074,1,8,0:0:0:0:
256,192,34149,1,0,0:0:0:0:
256,192,34224,1,8,0:0:0:0:
256,192,34299,1,8,0:0:0:0:
256,192,34374,1,8,0:0:0:0:
256,192,34449,1,0,0:0:0:0:
256,192,34524,1,0,0:0:0:0:
256,192,34599,1,0,0:0:0:0:
256,192,34674,1,8,0:0:0:0:
256,192,34749,1,0,0:0:0:0:
256,192,34824,1,0,0:0:0:0:
256,192,34899,1,0,0:0:0:0:
256,192,34974,1,8,0:0:0:0:
256,192,35049,1,8,0:0:0:0:
256,192,35124,1,0,0:0:0:0:
256,192,35199,1,0,0:0:0:0:
256,192,35274,1,8,0:0:0:0:
256,192,35349,1,0,0:0:0:0:
256,192,35424,1,8,0:0:0:0:
256,192,35499,1,0,0:0:0:0:
256,192,35574,1,0,0:0:0:0:
256,192,35649,1,0,0:0:0:0:
256,192,35724,1,0,0:0:0:0:
256,192,35799,1,0,0:0:0:0:
256,192,35874,1,8,0:0:0:0:
256,192,35949,1,0,0:0:0:0:
256,192,36024,1,0,0:0:0:0:
256,192,36099,1,0,0:0:0:0:
256,192,36174,1,8,0:0:0:0:
256,192,36249,1,8,0:0:0:0:
256,192,36324,1,0,0:0:0:0:
256,192,36399,1,0,0:0:0:0:
256,192,36474,1,8,0:0:0:0:
256,192,36549,1,8,0:0:0:0:
256,192,36624,1,8,0:0:0:0:
256,192,36699,1,8,0:0:0:0:
256,192,36774,1,0,0:0:0:0:
256,192,36849,1,0,0:0:0:0:
256,192,36924,1,8,0:0:0:0:
256,192,36999,1,0,0:0:0:0:
256,192,37074,1,8,0:0:0:0:
256,192,37149,1,0,0:0:0:0:
256,192,37224,1,0,0:0:0:0:
256,192,37299,1,0,0:0:0:0:
256,192,37374,1,8,0:0:0:0:
256,192,37449,1,8,0:0:0:0:
256,192,37524,1,0,0:0:0:0:
256,192,37599,1,0,0:0:0:0:
256,192,37674,1,8,0:0:0:0:
256,192,37749,1,0,0:0:0:0:
256,192,37824,1,0,0:0:0:0:
256,192,37899,1,0,0:0:0:0:
256,192,37974,1,8,0:0:0:0:
256,192,38049,1,8,0:0:0:0:
256,192,38124,1,0,0:0:0:0:
256,192,38199,1,0,0:0:0:0:
256,192,38274,1,8,0:0:0:0:
256,192,38349,1,8,0:0:0:0:
256,192,38424,1,0,0:0:0:0:
256,192,38499,1,0,0:0:0:0:
256,192,38574,1,8,0:0:0:0:
256,192,38649,1,8,0:0:0:0:
256,192,38724,1,0,0:0:0:0:
256,192,38799,1,0,0:0:0:0:
256,192,38874,1,8,0:0:0:0:
256,192,38949,1,0,0:0:0:0:
256,192,39024,1,8,0:0:0:0:
256,192,39099,1,8,0:0:0:0:
256,192,39174,1,8,0:0:0:0:
256,192,39249,1,0,0:0:0:0:
256,192,39324,1,8,0:0:0:0:
256,192,39399,1,8,0:0:0:0:
256,192,39474,1,0,0:0:0:0:
256,192,39549,1,0,0:0:0:0:
256,192,39624,1,8,0:0:0:0:
256,192,39699,1,0,0:0:0:0:
256,192,39774,1,8,0:0:0:0:
256,192,39849,1,0,0:0:0:0:
256,192,39924,1,0,0:0:0:0:
256,192,39999,1,0,0:0:0:0:
256,192,40074,1,8,0:0:0:0:
256,192,40149,1,0,0:3:0:0:
256,192,40224,1,8,0:0:0:0:
256,192,40299,1,0,0:0:0:0:
256,192,40374,1,8,0:0:0:0:
256,192,40449,1,8,0:0:0:0:
256,192,40524,1,8,0:0:0:0:
256,192,40599,1,8,0:0:0:0:
256,192,40674,1,8,0:0:0:0:
256,192,40749,1,8,0:0:0:0:
256,192,40824,1,8,0:0:0:0:
256,192,40899,1,8,0:0:0:0:
256,192,40974,1,0,0:0:0:0:
256,192,41049,1,8,0:0:0:0:
256,192,41124,1,8,0:0:0:0:
256,192,41199,1,8,0:0:0:0:
256,192,41274,1,8,0:0:0:0:
256,192,41349,1,8,0:0:0:0:
256,192,41424,1,8,0:0:0:0:
256,192,41499,1,8,0:0:0:0:
256,192,41574,1,0,0:0:0:0:
256,192,41874,1,0,0:0:0:0:
256,192,42024,1,0,0:0:0:0:
256,192,42174,1,12,0:0:0:0:
256,192,42474,1,0,0:0:0:0:
256,192,42624,1,8,0:0:0:0:
256,192,42924,1,8,0:0:0:0:
256,192,43074,1,0,0:0:0:0:
256,192,43224,1,0,0:0:0:0:
256,192,43374,1,8,0:0:0:0:
256,192,43674,1,0,0:0:0:0:
256,192,43824,1,8,0:0:0:0:
256,192,43974,1,4,0:0:0:0:
256,192,44274,1,0,0:0:0:0:
256,192,44424,1,0,0:0:0:0:
256,192,44574,1,12,0:0:0:0:
256,192,44874,1,0,0:0:0:0:
256,192,45024,1,8,0:0:0:0:
256,192,45324,1,8,0:0:0:0:
256,192,45474,1,0,0:0:0:0:
256,192,45624,1,0,0:0:0:0:
256,192,45774,1,8,0:0:0:0:
256,192,46074,1,8,0:0:0:0:
256,192,46224,1,8,0:0:0:0:
256,192,46374,1,4,0:0:0:0:
256,192,46674,1,0,0:0:0:0:
256,192,46824,1,0,0:0:0:0:
256,192,46974,1,12,0:0:0:0:
256,192,47274,1,0,0:0:0:0:
256,192,47424,1,8,0:0:0:0:
256,192,47724,1,8,0:0:0:0:
256,192,47874,1,0,0:0:0:0:
256,192,48024,1,0,0:0:0:0:
256,192,48174,1,8,0:0:0:0:
256,192,48474,1,0,0:0:0:0:
256,192,48624,1,8,0:0:0:0:
256,192,48774,1,4,0:0:0:0:
256,192,49074,1,8,0:0:0:0:
256,192,49224,1,0,0:0:0:0:
256,192,49374,1,8,0:0:0:0:
256,192,49524,1,0,0:0:0:0:
256,192,49674,1,8,0:0:0:0:
256,192,49974,1,0,0:0:0:0:
256,192,50124,1,8,0:0:0:0:
256,192,50274,1,0,0:0:0:0:
256,192,50424,1,0,0:0:0:0:
256,192,50574,1,8,0:0:0:0:
256,192,50724,1,0,0:0:0:0:
256,192,50874,1,8,0:0:0:0:
256,192,51024,1,0,0:0:0:0:
256,192,51099,1,8,0:0:0:0:
256,192,51174,1,0,0:0:0:0:
256,192,51249,1,0,0:0:0:0:
256,192,51324,1,0,0:0:0:0:
256,192,51474,1,8,0:0:0:0:
256,192,51624,1,0,0:0:0:0:
256,192,51774,1,0,0:0:0:0:
256,192,51849,1,0,0:0:0:0:
256,192,51924,1,0,0:0:0:0:
256,192,52074,1,8,0:0:0:0:
256,192,52224,1,0,0:0:0:0:
256,192,52374,1,8,0:0:0:0:
256,192,52449,1,8,0:0:0:0:
256,192,52524,1,0,0:0:0:0:
256,192,52599,1,0,0:0:0:0:
256,192,52674,1,0,0:0:0:0:
256,192,52824,1,8,0:0:0:0:
256,192,52899,1,8,0:0:0:0:
256,192,52974,1,0,0:0:0:0:
256,192,53049,1,0,0:0:0:0:
256,192,53124,1,0,0:0:0:0:
256,192,53274,1,8,0:0:0:0:
256,192,53424,1,0,0:0:0:0:
256,192,53499,1,8,0:0:0:0:
256,192,53574,1,0,0:0:0:0:
256,192,53649,1,0,0:0:0:0:
256,192,53724,1,0,0:0:0:0:
256,192,53874,1,8,0:0:0:0:
256,192,54024,1,0,0:0:0:0:
256,192,54174,1,0,0:0:0:0:
256,192,54249,1,0,0:0:0:0:
256,192,54324,1,0,0:0:0:0:
256,192,54474,1,8,0:0:0:0:
256,192,54624,1,0,0:0:0:0:
256,192,54774,1,8,0:0:0:0:
256,192,54849,1,8,0:0:0:0:
256,192,54924,1,0,0:0:0:0:
256,192,54999,1,0,0:0:0:0:
256,192,55074,1,8,0:0:0:0:
256,192,55149,1,0,0:0:0:0:
256,192,55224,1,8,0:0:0:0:
256,192,55299,1,0,0:0:0:0:
256,192,55374,1,0,0:0:0:0:
256,192,55449,1,0,0:0:0:0:
256,192,55524,1,8,0:0:0:0:
256,192,55599,1,0,0:0:0:0:
256,192,55674,1,8,0:0:0:0:
256,192,55749,1,0,0:0:0:0:
256,192,55824,1,8,0:0:0:0:
256,192,55899,1,8,0:0:0:0:
256,192,55974,1,0,0:0:0:0:
256,192,56049,1,0,0:0:0:0:
256,192,56124,1,0,0:0:0:0:
256,192,56274,1,8,0:0:0:0:
256,192,56424,1,0,0:0:0:0:
256,192,56574,1,0,0:0:0:0:
256,192,56649,1,0,0:0:0:0:
256,192,56724,1,0,0:0:0:0:
256,192,56874,1,8,0:0:0:0:
256,192,57024,1,0,0:0:0:0:
256,192,57174,1,8,0:0:0:0:
256,192,57249,1,8,0:0:0:0:
256,192,57324,1,0,0:0:0:0:
256,192,57399,1,0,0:0:0:0:
256,192,57474,1,0,0:0:0:0:
256,192,57624,1,8,0:0:0:0:
256,192,57699,1,8,0:0:0:0:
256,192,57774,1,0,0:0:0:0:
256,192,57849,1,0,0:0:0:0:
256,192,57924,1,0,0:0:0:0:
256,192,58074,1,8,0:0:0:0:
256,192,58224,1,8,0:0:0:0:
256,192,58299,1,0,0:0:0:0:
256,192,58374,1,8,0:0:0:0:
256,192,58449,1,8,0:0:0:0:
256,192,58524,1,0,0:0:0:0:
256,192,58674,1,8,0:0:0:0:
256,192,58824,1,0,0:0:0:0:
256,192,58974,1,8,0:0:0:0:
256,192,59049,1,8,0:0:0:0:
256,192,59124,1,0,0:0:0:0:
256,192,59274,1,8,0:0:0:0:
256,192,59424,1,0,0:0:0:0:
256,192,59574,1,12,0:0:0:0:
256,192,59874,1,12,0:0:0:0:
256,192,60024,1,4,0:0:0:0:
256,192,60324,1,4,0:0:0:0:
256,192,60474,1,8,0:0:0:0:
256,192,60624,1,0,0:0:0:0:
256,192,60674,1,0,0:0:0:0:
256,192,60724,1,0,0:0:0:0:
256,192,60774,1,8,0:0:0:0:
256,192,60849,1,0,0:0:0:0:
256,192,60924,1,0,0:0:0:0:
256,192,61074,1,8,0:0:0:0:
256,192,61224,1,0,0:0:0:0:
256,192,61374,1,0,0:0:0:0:
256,192,61449,1,0,0:0:0:0:
256,192,61524,1,0,0:0:0:0:
256,192,61674,1,8,0:0:0:0:
256,192,61824,1,0,0:0:0:0:
256,192,61974,1,8,0:0:0:0:
256,192,62049,1,8,0:0:0:0:
256,192,62124,1,0,0:0:0:0:
256,192,62199,1,0,0:0:0:0:
256,192,62274,1,0,0:0:0:0:
256,192,62424,1,8,0:0:0:0:
256,192,62499,1,8,0:0:0:0:
256,192,62574,1,0,0:0:0:0:
256,192,62649,1,0,0:0:0:0:
256,192,62724,1,0,0:0:0:0:
256,192,62874,1,8,0:0:0:0:
256,192,63024,1,0,0:0:0:0:
256,192,63099,1,8,0:0:0:0:
256,192,63174,1,0,0:0:0:0:
256,192,63249,1,0,0:0:0:0:
256,192,63324,1,0,0:0:0:0:
256,192,63474,1,8,0:0:0:0:
256,192,63624,1,0,0:0:0:0:
256,192,63774,1,0,0:0:0:0:
256,192,63849,1,0,0:0:0:0:
256,192,63924,1,0,0:0:0:0:
256,192,64074,1,8,0:0:0:0:
256,192,64224,1,0,0:0:0:0:
256,192,64374,1,8,0:0:0:0:
256,192,64449,1,8,0:0:0:0:
256,192,64524,1,0,0:0:0:0:
256,192,64599,1,0,0:0:0:0:
256,192,64674,1,8,0:0:0:0:
256,192,64749,1,0,0:0:0:0:
256,192,64824,1,8,0:0:0:0:
256,192,64899,1,0,0:0:0:0:
256,192,64974,1,0,0:0:0:0:
256,192,65049,1,0,0:0:0:0:
256,192,65124,1,8,0:0:0:0:
256,192,65199,1,0,0:0:0:0:
256,192,65274,1,8,0:0:0:0:
256,192,65349,1,0,0:0:0:0:
256,192,65424,1,8,0:0:0:0:
256,192,65499,1,8,0:0:0:0:
256,192,65574,1,0,0:0:0:0:
256,192,65649,1,0,0:0:0:0:
256,192,65724,1,0,0:0:0:0:
256,192,65874,1,8,0:0:0:0:
256,192,66024,1,0,0:0:0:0:
256,192,66174,1,0,0:0:0:0:
256,192,66249,1,0,0:0:0:0:
256,192,66324,1,0,0:0:0:0:
256,192,66474,1,8,0:0:0:0:
256,192,66624,1,0,0:0:0:0:
256,192,66774,1,8,0:0:0:0:
256,192,66849,1,8,0:0:0:0:
256,192,66924,1,0,0:0:0:0:
256,192,66999,1,0,0:0:0:0:
256,192,67074,1,0,0:0:0:0:
256,192,67224,1,8,0:0:0:0:
256,192,67299,1,8,0:0:0:0:
256,192,67374,1,0,0:0:0:0:
256,192,67449,1,0,0:0:0:0:
256,192,67524,1,0,0:0:0:0:
256,192,67674,1,8,0:0:0:0:
256,192,67824,1,8,0:0:0:0:
256,192,67899,1,0,0:0:0:0:
256,192,67974,1,8,0:0:0:0:
256,192,68049,1,8,0:0:0:0:
256,192,68124,1,0,0:0:0:0:
256,192,68199,1,0,0:0:0:0:
256,192,68274,1,8,0:0:0:0:
256,192,68424,1,0,0:0:0:0:
256,192,68574,1,8,0:0:0:0:
256,192,68649,1,8,0:0:0:0:
256,192,68724,1,0,0:0:0:0:
256,192,68874,1,8,0:0:0:0:
256,192,69024,1,8,0:0:0:0:
256,192,69174,1,0,0:0:0:0:
256,192,69274,1,8,0:0:0:0:
256,192,69374,1,8,0:0:0:0:
256,192,69474,1,0,0:0:0:0:
256,192,69574,1,0,0:0:0:0:
256,192,69674,1,0,0:0:0:0:
256,192,69774,1,8,0:0:0:0:
256,192,69874,1,8,0:0:0:0:
256,192,69974,1,0,0:0:0:0:
256,192,70074,1,8,0:0:0:0:
256,192,70174,1,8,0:0:0:0:
256,192,70274,1,8,0:0:0:0:
256,192,70374,1,4,0:0:0:0:
256,192,70674,1,0,0:0:0:0:
256,192,70824,1,0,0:0:0:0:
256,192,70974,1,12,0:0:0:0:
256,192,71274,1,0,0:0:0:0:
256,192,71424,1,8,0:0:0:0:
256,192,71724,1,8,0:0:0:0:
256,192,71874,1,0,0:0:0:0:
256,192,72024,1,0,0:0:0:0:
256,192,72174,1,8,0:0:0:0:
256,192,72474,1,0,0:0:0:0:
256,192,72624,1,8,0:0:0:0:
256,192,72774,1,4,0:0:0:0:
256,192,73074,1,0,0:0:0:0:
256,192,73224,1,0,0:0:0:0:
256,192,73374,1,12,0:0:0:0:
256,192,73674,1,0,0:0:0:0:
256,192,73824,1,8,0:0:0:0:
256,192,74124,1,8,0:0:0:0:
256,192,74274,1,0,0:0:0:0:
256,192,74424,1,0,0:0:0:0:
256,192,74574,1,8,0:0:0:0:
256,192,74874,1,8,0:0:0:0:
256,192,75024,1,8,0:0:0:0:
256,192,75174,1,4,0:0:0:0:
256,192,75474,1,0,0:0:0:0:
256,192,75624,1,0,0:0:0:0:
256,192,75774,1,12,0:0:0:0:
256,192,76074,1,0,0:0:0:0:
256,192,76224,1,8,0:0:0:0:
256,192,76524,1,8,0:0:0:0:
256,192,76674,1,0,0:0:0:0:
256,192,76824,1,0,0:0:0:0:
256,192,76974,1,8,0:0:0:0:
256,192,77274,1,0,0:0:0:0:
256,192,77424,1,8,0:0:0:0:
256,192,77574,1,4,0:0:0:0:
256,192,77874,1,8,0:0:0:0:
256,192,78024,1,0,0:0:0:0:
256,192,78174,1,8,0:0:0:0:
256,192,78324,1,0,0:0:0:0:
256,192,78474,1,8,0:0:0:0:
256,192,78774,1,12,0:0:0:0:
256,192,79074,1,0,0:0:0:0:
256,192,79224,1,12,0:0:0:0:
256,192,79524,1,8,0:0:0:0:
256,192,79674,1,8,0:0:0:0:
256,192,79824,1,8,0:0:0:0:
256,192,79974,1,0,0:0:0:0:
256,192,80049,1,0,0:0:0:0:
256,192,80124,1,8,0:0:0:0:
256,192,80199,1,0,0:0:0:0:
256,192,80274,1,8,0:0:0:0:
256,192,80349,1,0,0:0:0:0:
256,192,80424,1,8,0:0:0:0:
256,192,80499,1,0,0:0:0:0:
256,192,80574,1,8,0:0:0:0:
256,192,80649,1,0,0:0:0:0:
256,192,80724,1,0,0:0:0:0:
256,192,80799,1,0,0:0:0:0:
256,192,80874,1,8,0:0:0:0:
256,192,80949,1,0,0:0:0:0:
256,192,81024,1,8,0:0:0:0:
256,192,81099,1,0,0:0:0:0:
256,192,81174,1,8,0:0:0:0:
256,192,81249,1,8,0:0:0:0:
256,192,81324,1,0,0:0:0:0:
256,192,81399,1,0,0:0:0:0:
256,192,81474,1,8,0:0:0:0:
256,192,81549,1,0,0:0:0:0:
256,192,81624,1,8,0:0:0:0:
256,192,81699,1,8,0:0:0:0:
256,192,81774,1,0,0:0:0:0:
256,192,81849,1,0,0:0:0:0:
256,192,81924,1,8,0:0:0:0:
256,192,81999,1,0,0:0:0:0:
256,192,82074,1,8,0:0:0:0:
256,192,82149,1,8,0:0:0:0:
256,192,82224,1,8,0:0:0:0:
256,192,82299,1,8,0:0:0:0:
256,192,82374,1,0,0:0:0:0:
256,192,82449,1,0,0:0:0:0:
256,192,82524,1,0,0:0:0:0:
256,192,82599,1,0,0:0:0:0:
256,192,82674,1,8,0:0:0:0:
256,192,82749,1,0,0:0:0:0:
256,192,82824,1,8,0:0:0:0:
256,192,82899,1,0,0:0:0:0:
256,192,82974,1,8,0:0:0:0:
256,192,83049,1,0,0:0:0:0:
256,192,83124,1,0,0:0:0:0:
256,192,83199,1,0,0:0:0:0:
256,192,83274,1,8,0:0:0:0:
256,192,83349,1,0,0:0:0:0:
256,192,83424,1,8,0:0:0:0:
256,192,83499,1,8,0:0:0:0:
256,192,83574,1,8,0:0:0:0:
256,192,83649,1,0,0:0:0:0:
256,192,83724,1,8,0:0:0:0:
256,192,83799,1,0,0:0:0:0:
256,192,83874,1,8,0:0:0:0:
256,192,83949,1,8,0:0:0:0:
256,192,84024,1,0,0:0:0:0:
256,192,84099,1,0,0:0:0:0:
256,192,84174,1,8,0:0:0:0:
256,192,84249,1,8,0:0:0:0:
256,192,84324,1,0,0:0:0:0:
256,192,84399,1,8,0:0:0:0:
256,192,84474,1,8,0:0:0:0:
256,192,84549,1,0,0:0:0:0:
256,192,84624,1,8,0:0:0:0:
256,192,84774,1,4,0:0:0:0:
256,192,85074,1,8,0:0:0:0:
256,185,85224,1,8,0:0:0:0:
256,185,85299,1,8,0:0:0:0:
256,185,85374,1,0,0:0:0:0:
256,185,85449,1,0,0:0:0:0:
256,192,85524,1,8,0:0:0:0:
256,185,85674,1,8,0:0:0:0:
256,185,85749,1,8,0:0:0:0:
256,192,85824,1,0,0:0:0:0:
256,192,85974,1,8,0:0:0:0:
256,192,86049,1,8,0:0:0:0:
256,192,86124,1,0,0:0:0:0:
256,192,86199,1,0,0:0:0:0:
256,192,86274,1,0,0:0:0:0:
256,192,86424,1,8,0:0:0:0:
256,192,86499,1,0,0:0:0:0:
256,192,86574,1,8,0:0:0:0:
256,192,86649,1,8,0:0:0:0:
256,192,86724,1,0,0:0:0:0:
256,192,86799,1,8,0:0:0:0:
256,192,86874,1,8,0:0:0:0:
256,192,86949,1,0,0:0:0:0:
256,192,87024,1,8,0:0:0:0:
256,192,87174,1,8,0:0:0:0:
256,192,87324,1,0,0:0:0:0:
256,192,87399,1,0,0:0:0:0:
256,192,87474,1,8,0:0:0:0:
256,192,87624,1,0,0:0:0:0:
256,192,87774,1,8,0:0:0:0:
256,192,87849,1,8,0:0:0:0:
256,192,87924,1,0,0:0:0:0:
256,192,87999,1,0,0:0:0:0:
256,192,88074,1,8,0:0:0:0:
256,192,88224,1,0,0:0:0:0:
256,192,88374,1,8,0:0:0:0:
256,192,88449,1,8,0:0:0:0:
256,192,88524,1,0,0:0:0:0:
256,192,88599,1,0,0:0:0:0:
256,192,88674,1,8,0:0:0:0:
256,192,88749,1,0,0:0:0:0:
256,192,88824,1,8,0:0:0:0:
256,192,89124,1,0,0:0:0:0:
256,192,89199,1,0,0:0:0:0:
256,192,89274,1,8,0:0:0:0:
256,192,89424,1,0,0:0:0:0:
256,192,89574,1,0,0:0:0:0:
256,192,89649,1,0,0:0:0:0:
256,192,89724,1,8,0:0:0:0:
256,192,89799,1,0,0:0:0:0:
256,192,89874,1,8,0:0:0:0:
256,192,89949,1,0,0:0:0:0:
256,192,90024,1,8,0:0:0:0:
256,192,90099,1,0,0:0:0:0:
256,192,90174,1,8,0:0:0:0:
256,192,90249,1,0,0:0:0:0:
256,192,90324,1,0,0:0:0:0:
256,192,90399,1,0,0:0:0:0:
256,192,90474,1,8,0:0:0:0:
256,192,90549,1,0,0:0:0:0:
256,192,90624,1,8,0:0:0:0:
256,192,90699,1,0,0:0:0:0:
256,192,90774,1,8,0:0:0:0:
256,192,90849,1,8,0:0:0:0:
256,192,90924,1,0,0:0:0:0:
256,192,90999,1,0,0:0:0:0:
256,192,91074,1,8,0:0:0:0:
256,192,91149,1,0,0:0:0:0:
256,192,91224,1,8,0:0:0:0:
256,192,91299,1,8,0:0:0:0:
256,192,91374,1,0,0:0:0:0:
256,192,91449,1,0,0:0:0:0:
256,192,91524,1,0,0:0:0:0:
256,192,91599,1,0,0:0:0:0:
256,192,91674,1,8,0:0:0:0:
256,192,91749,1,8,0:0:0:0:
256,192,91824,1,8,0:0:0:0:
256,192,91899,1,8,0:0:0:0:
256,192,91974,1,0,0:0:0:0:
256,192,92049,1,0,0:0:0:0:
256,192,92124,1,8,0:0:0:0:
256,192,92199,1,0,0:0:0:0:
256,192,92274,1,8,0:0:0:0:
256,192,92349,1,0,0:0:0:0:
256,192,92424,1,8,0:0:0:0:
256,192,92499,1,0,0:0:0:0:
256,192,92574,1,8,0:0:0:0:
256,192,92649,1,0,0:0:0:0:
256,192,92724,1,0,0:0:0:0:
256,192,92799,1,0,0:0:0:0:
256,192,92874,1,8,0:0:0:0:
256,192,92949,1,0,0:0:0:0:
256,192,93024,1,8,0:0:0:0:
256,192,93099,1,8,0:0:0:0:
256,192,93174,1,8,0:0:0:0:
256,192,93249,1,0,0:0:0:0:
256,192,93324,1,8,0:0:0:0:
256,192,93399,1,0,0:0:0:0:
256,192,93474,1,8,0:0:0:0:
256,192,93549,1,8,0:0:0:0:
256,192,93624,1,0,0:0:0:0:
256,192,93699,1,0,0:0:0:0:
256,192,93774,1,8,0:0:0:0:
256,192,93849,1,8,0:0:0:0:
256,192,93924,1,0,0:0:0:0:
256,192,93999,1,8,0:0:0:0:
256,192,94074,1,8,0:0:0:0:
256,192,94149,1,0,0:0:0:0:
256,192,94224,1,8,0:0:0:0:
256,192,94374,1,4,0:0:0:0:
256,192,94674,1,8,0:0:0:0:
256,185,94824,1,8,0:0:0:0:
256,185,94899,1,8,0:0:0:0:
256,185,94974,1,0,0:0:0:0:
256,185,95049,1,0,0:0:0:0:
256,192,95124,1,8,0:0:0:0:
256,185,95274,1,8,0:0:0:0:
256,185,95349,1,8,0:0:0:0:
256,192,95424,1,0,0:0:0:0:
256,192,95574,1,8,0:0:0:0:
256,192,95649,1,8,0:0:0:0:
256,192,95724,1,8,0:0:0:0:
256,192,95799,1,8,0:0:0:0:
256,192,95874,1,0,0:0:0:0:
256,192,96024,1,8,0:0:0:0:
256,192,96099,1,8,0:0:0:0:
256,192,96174,1,8,0:0:0:0:
256,192,96249,1,8,0:0:0:0:
256,192,96324,1,0,0:0:0:0:
256,192,96474,1,8,0:0:0:0:
256,192,96549,1,8,0:0:0:0:
256,192,96624,1,0,0:0:0:0:
256,192,96774,1,12,0:0:0:0:
256,192,96924,1,0,0:0:0:0:
256,192,96999,1,0,0:0:0:0:
256,192,97074,1,8,0:0:0:0:
256,192,97224,1,0,0:0:0:0:
256,192,97374,1,8,0:0:0:0:
256,192,97449,1,8,0:0:0:0:
256,192,97524,1,0,0:0:0:0:
256,192,97674,1,8,0:0:0:0:
256,192,97724,1,8,0:0:0:0:
256,192,97774,1,8,0:0:0:0:
256,192,97824,1,0,0:0:0:0:
256,192,97874,1,0,0:0:0:0:
256,192,97924,1,0,0:0:0:0:
256,192,97974,1,8,0:0:0:0:
256,192,98124,1,8,0:0:0:0:
256,192,98424,1,8,0:0:0:0:
256,192,98724,1,8,0:0:0:0:
256,192,98874,1,0,0:0:0:0:
256,192,99024,1,8,0:0:0:0:
256,192,99174,1,4,0:0:0:0:
256,192,100374,1,4,0:0:0:0:
256,192,100674,1,0,0:0:0:0:
256,192,100824,1,0,0:0:0:0:
256,192,100974,1,12,0:0:0:0:
256,192,101274,1,0,0:0:0:0:
256,192,101424,1,8,0:0:0:0:
256,192,101574,1,4,0:0:0:0:
256,192,102774,1,4,0:0:0:0:
256,192,102924,1,8,0:0:0:0:
256,192,102999,1,8,0:0:0:0:
256,192,103074,1,0,0:0:0:0:
256,192,103224,1,0,0:0:0:0:
256,192,103374,1,12,0:0:0:0:
256,192,103524,1,0,0:0:0:0:
256,192,103674,1,8,0:0:0:0:
256,192,103749,1,8,0:0:0:0:
256,192,103824,1,8,0:0:0:0:
256,192,103899,1,8,0:0:0:0:
256,192,103974,1,0,0:0:0:0:
256,192,104049,1,0,0:0:0:0:
256,192,104124,1,8,0:0:0:0:
256,192,104199,1,0,0:0:0:0:
256,192,104274,1,0,0:0:0:0:
256,192,104349,1,0,0:0:0:0:
256,192,104424,1,8,0:0:0:0:
256,192,104499,1,0,0:0:0:0:
256,192,104574,1,0,0:0:0:0:
256,192,104649,1,0,0:0:0:0:
256,192,104724,1,8,0:0:0:0:
256,192,104799,1,0,0:0:0:0:
256,192,104874,1,8,0:0:0:0:
256,192,104949,1,0,0:0:0:0:
256,192,105024,1,0,0:0:0:0:
256,192,105099,1,0,0:0:0:0:
256,192,105174,1,8,0:0:0:0:
256,192,105249,1,0,0:0:0:0:
256,192,105324,1,0,0:0:0:0:
256,192,105399,1,0,0:0:0:0:
256,192,105474,1,8,0:0:0:0:
256,192,105549,1,0,0:0:0:0:
256,192,105624,1,8,0:0:0:0:
256,192,105699,1,0,0:0:0:0:
256,192,105774,1,0,0:0:0:0:
256,192,105849,1,0,0:0:0:0:
256,192,105924,1,8,0:0:0:0:
256,192,105999,1,0,0:0:0:0:
256,192,106074,1,0,0:0:0:0:
256,192,106149,1,0,0:0:0:0:
256,192,106224,1,8,0:0:0:0:
256,192,106299,1,0,0:0:0:0:
256,192,106374,1,8,0:0:0:0:
256,192,106524,1,8,0:0:0:0:
256,192,106674,1,8,0:0:0:0:
256,192,107574,1,4,0:0:0:0:
256,192,107724,1,0,0:0:0:0:
256,192,107799,1,0,0:0:0:0:
256,192,107874,1,8,0:0:0:0:
256,192,108024,1,0,0:0:0:0:
256,192,108174,1,0,0:0:0:0:
256,192,108324,1,0,0:0:0:0:
256,192,108474,1,8,0:0:0:0:
256,192,108624,1,0,0:0:0:0:
256,192,108924,1,0,0:0:0:0:
256,192,108999,1,0,0:0:0:0:
256,192,109074,1,8,0:0:0:0:
256,192,109224,1,0,0:0:0:0:
256,192,109374,1,8,0:0:0:0:
256,192,109449,1,8,0:0:0:0:
256,192,109524,1,0,0:0:0:0:
256,192,109674,1,8,0:0:0:0:
256,192,109824,1,8,0:0:0:0:
256,192,109974,1,0,0:0:0:0:
256,192,110049,1,0,0:0:0:0:
256,192,110124,1,0,0:0:0:0:
256,192,110199,1,0,0:0:0:0:
256,192,110274,1,8,0:0:0:0:
256,192,110424,1,0,0:0:0:0:
256,192,110574,1,8,0:0:0:0:
256,192,110649,1,8,0:0:0:0:
256,192,110724,1,0,0:0:0:0:
256,192,110874,1,8,0:0:0:0:
256,192,111024,1,0,0:0:0:0:
256,192,111324,1,0,0:0:0:0:
256,192,111399,1,0,0:0:0:0:
256,192,111474,1,8,0:0:0:0:
256,192,111624,1,0,0:0:0:0:
256,192,111774,1,8,0:0:0:0:
256,192,111849,1,8,0:0:0:0:
256,192,111924,1,0,0:0:0:0:
256,192,111999,1,0,0:0:0:0:
256,192,112074,1,0,0:0:0:0:
256,192,112224,1,8,0:0:0:0:
256,192,112374,1,0,0:0:0:0:
256,192,112524,1,0,0:0:0:0:
256,192,112599,1,0,0:0:0:0:
256,192,112674,1,8,0:0:0:0:
256,192,112824,1,0,0:0:0:0:
256,192,112974,1,8,0:0:0:0:
256,192,113124,1,8,0:0:0:0:
256,192,113274,1,0,0:0:0:0:
256,192,113424,1,8,0:0:0:0:
256,192,113724,1,8,0:0:0:0:
256,192,113799,1,8,0:0:0:0:
256,192,113874,1,0,0:0:0:0:
256,192,114024,1,0,0:0:0:0:
256,192,114174,1,8,0:0:0:0:
256,192,114249,1,8,0:0:0:0:
256,192,114324,1,0,0:0:0:0:
256,192,114474,1,8,0:0:0:0:
256,192,114624,1,8,0:0:0:0:
256,192,114774,1,0,0:0:0:0:
256,192,115074,1,8,0:0:0:0:
256,192,115374,1,0,0:0:0:0:
256,192,115524,1,0,0:0:0:0:
256,192,115674,1,8,0:0:0:0:
256,192,115824,1,0,0:0:0:0:
256,192,116124,1,0,0:0:0:0:
256,192,116199,1,0,0:0:0:0:
256,192,116274,1,8,0:0:0:0:
256,192,116424,1,0,0:0:0:0:
256,192,116574,1,8,0:0:0:0:
256,192,116649,1,8,0:0:0:0:
256,192,116724,1,0,0:0:0:0:
256,192,116799,1,0,0:0:0:0:
256,192,116874,1,8,0:0:0:0:
256,192,117024,1,0,0:0:0:0:
256,192,117324,1,0,0:0:0:0:
256,192,117399,1,0,0:0:0:0:
256,192,117474,1,8,0:0:0:0:
256,192,117624,1,0,0:0:0:0:
256,192,117774,1,8,0:0:0:0:
256,192,117849,1,8,0:0:0:0:
256,192,117924,1,0,0:0:0:0:
256,192,117999,1,0,0:0:0:0:
256,192,118074,1,0,0:0:0:0:
256,192,118224,1,8,0:0:0:0:
256,192,118524,1,8,0:0:0:0:
256,192,118599,1,8,0:0:0:0:
256,192,118674,1,0,0:0:0:0:
256,192,118824,1,8,0:0:0:0:
256,192,118974,1,8,0:0:0:0:
256,192,119049,1,8,0:0:0:0:
256,192,119124,1,0,0:0:0:0:
256,192,119199,1,0,0:0:0:0:
256,192,119274,1,0,0:0:0:0:
256,192,119424,1,8,0:0:0:0:
256,192,119724,1,0,0:0:0:0:
256,192,119799,1,0,0:0:0:0:
256,192,119874,1,8,0:0:0:0:
256,192,120024,1,0,0:0:0:0:
256,192,120174,1,8,0:0:0:0:
256,192,120249,1,8,0:0:0:0:
256,192,120324,1,0,0:0:0:0:
256,192,120399,1,0,0:0:0:0:
256,192,120474,1,8,0:0:0:0:
256,192,120624,1,8,0:0:0:0:
256,192,120774,1,0,0:0:0:0:
256,192,120924,1,0,0:0:0:0:
256,192,121074,1,8,0:0:0:0:
256,192,121374,1,0,0:0:0:0:
256,192,121449,1,0,0:0:0:0:
256,192,121524,1,0,0:0:0:0:
256,192,121599,1,0,0:0:0:0:
256,192,121674,1,8,0:0:0:0:
256,192,121824,1,0,0:0:0:0:
256,192,122124,1,0,0:0:0:0:
256,192,122199,1,0,0:0:0:0:
256,192,122274,1,8,0:0:0:0:
256,192,122424,1,0,0:0:0:0:
256,192,122574,1,8,0:0:0:0:
256,192,122649,1,8,0:0:0:0:
256,192,122724,1,0,0:0:0:0:
256,192,122799,1,0,0:0:0:0:
256,192,122874,1,0,0:0:0:0:
256,192,123024,1,8,0:0:0:0:
256,192,123324,1,0,0:0:0:0:
256,192,123399,1,0,0:0:0:0:
256,192,123474,1,8,0:0:0:0:
256,192,123624,1,0,0:0:0:0:
256,192,123774,1,8,0:0:0:0:
256,192,123849,1,8,0:0:0:0:
256,192,123924,1,0,0:0:0:0:
256,192,123999,1,0,0:0:0:0:
256,192,124074,1,8,0:0:0:0:
256,192,124374,1,4,0:0:0:0:
256,192,124674,1,8,0:0:0:0:
256,192,124824,1,0,0:0:0:0:
256,192,125124,1,0,0:0:0:0:
256,192,125274,1,8,0:0:0:0:
256,192,125574,1,8,0:0:0:0:
256,192,125624,1,0,0:0:0:0:
256,192,125674,1,0,0:0:0:0:
256,192,125724,1,0,0:0:0:0:
256,192,125774,1,0,0:0:0:0:
256,192,125824,1,0,0:0:0:0:
256,192,125874,1,8,0:0:0:0:
256,192,126774,1,0,0:0:0:0:
256,192,126849,1,0,0:0:0:0:
256,192,126924,1,0,0:0:0:0:
256,192,126999,1,0,0:0:0:0:
256,192,127074,1,8,0:0:0:0:
256,192,127149,1,0,0:0:0:0:
256,192,127224,1,0,0:0:0:0:
256,192,127299,1,0,0:0:0:0:
256,192,127374,1,8,0:0:0:0:
256,192,127449,1,8,0:0:0:0:
256,192,127524,1,0,0:0:0:0:
256,192,127599,1,0,0:0:0:0:
256,192,127674,1,8,0:0:0:0:
256,192,127749,1,0,0:0:0:0:
256,192,127824,1,8,0:0:0:0:
256,192,127899,1,8,0:0:0:0:
256,192,127974,1,0,0:0:0:0:
256,192,128049,1,0,0:0:0:0:
256,192,128124,1,0,0:0:0:0:
256,192,128199,1,0,0:0:0:0:
256,192,128274,1,8,0:0:0:0:
256,192,128349,1,8,0:0:0:0:
256,192,128424,1,0,0:0:0:0:
256,192,128499,1,0,0:0:0:0:
256,192,128574,1,8,0:0:0:0:
256,192,128649,1,8,0:0:0:0:
256,192,128724,1,0,0:0:0:0:
256,192,128799,1,0,0:0:0:0:
256,192,128874,1,8,0:0:0:0:
256,192,128949,1,8,0:0:0:0:
256,192,129024,1,8,0:0:0:0:
256,192,129099,1,8,0:0:0:0:
256,192,129174,1,0,0:0:0:0:
256,192,129249,1,0,0:0:0:0:
256,192,129324,1,0,0:0:0:0:
256,192,129399,1,0,0:0:0:0:
256,192,129474,1,8,0:0:0:0:
256,192,129549,1,0,0:0:0:0:
256,192,129624,1,0,0:0:0:0:
256,192,129699,1,0,0:0:0:0:
256,192,129774,1,8,0:0:0:0:
256,192,129849,1,8,0:0:0:0:
256,192,129924,1,0,0:0:0:0:
256,192,129999,1,0,0:0:0:0:
256,192,130074,1,8,0:0:0:0:
256,192,130149,1,0,0:0:0:0:
256,192,130224,1,8,0:0:0:0:
256,192,130299,1,8,0:0:0:0:
256,192,130374,1,0,0:0:0:0:
256,192,130449,1,0,0:0:0:0:
256,192,130524,1,0,0:0:0:0:
256,192,130599,1,0,0:0:0:0:
256,192,130674,1,8,0:0:0:0:
256,192,130749,1,8,0:0:0:0:
256,192,130824,1,0,0:0:0:0:
256,192,130899,1,0,0:0:0:0:
256,192,130974,1,8,0:0:0:0:
256,192,131049,1,8,0:0:0:0:
256,192,131124,1,0,0:0:0:0:
256,192,131199,1,0,0:0:0:0:
256,192,131274,1,8,0:0:0:0:
256,192,131349,1,0,0:0:0:0:
256,192,131424,1,8,0:0:0:0:
256,192,131499,1,8,0:0:0:0:
256,192,131574,1,0,0:0:0:0:
256,192,131649,1,0,0:0:0:0:
256,192,131724,1,0,0:0:0:0:
256,192,131799,1,0,0:0:0:0:
256,192,131874,1,8,0:0:0:0:
256,192,131949,1,0,0:0:0:0:
256,192,132024,1,0,0:0:0:0:
256,192,132099,1,0,0:0:0:0:
256,192,132174,1,8,0:0:0:0:
256,192,132249,1,8,0:0:0:0:
256,192,132324,1,0,0:0:0:0:
256,192,132399,1,0,0:0:0:0:
256,192,132474,1,8,0:0:0:0:
256,192,132549,1,0,0:0:0:0:
256,192,132624,1,8,0:0:0:0:
256,192,132699,1,8,0:0:0:0:
256,192,132774,1,0,0:0:0:0:
256,192,132849,1,0,0:0:0:0:
256,192,132924,1,0,0:0:0:0:
256,192,132999,1,0,0:0:0:0:
256,192,133074,1,8,0:0:0:0:
256,192,133149,1,0,0:0:0:0:
256,192,133224,1,0,0:0:0:0:
256,192,133299,1,0,0:0:0:0:
256,192,133374,1,8,0:0:0:0:
256,192,133449,1,8,0:0:0:0:
256,192,133524,1,0,0:0:0:0:
256,192,133599,1,0,0:0:0:0:
256,192,133674,1,8,0:0:0:0:
256,192,133749,1,8,0:0:0:0:
256,192,133824,1,8,0:0:0:0:
256,192,133899,1,8,0:0:0:0:
256,192,133974,1,0,0:0:0:0:
256,192,134049,1,0,0:0:0:0:
256,192,134124,1,0,0:0:0:0:
256,192,134199,1,0,0:0:0:0:
256,192,134274,1,8,0:0:0:0:
256,192,134349,1,0,0:0:0:0:
256,192,134424,1,0,0:0:0:0:
256,192,134499,1,0,0:0:0:0:
256,192,134574,1,8,0:0:0:0:
256,192,134649,1,8,0:0:0:0:
256,192,134724,1,0,0:0:0:0:
256,192,134799,1,0,0:0:0:0:
256,192,134874,1,8,0:0:0:0:
256,192,134949,1,8,0:0:0:0:
256,192,135024,1,0,0:0:0:0:
256,192,135099,1,0,0:0:0:0:
256,192,135174,1,8,0:0:0:0:
256,192,135249,1,8,0:0:0:0:
256,192,135324,1,0,0:0:0:0:
256,192,135399,1,0,0:0:0:0:
256,192,135474,1,0,0:0:0:0:
256,192,135549,1,0,0:0:0:0:
256,192,135624,1,0,0:0:0:0:
256,192,135699,1,0,0:0:0:0:
256,192,135774,1,8,0:0:0:0:
256,192,135849,1,8,0:0:0:0:
256,192,135924,1,0,0:0:0:0:
256,192,135999,1,0,0:0:0:0:
256,192,136074,1,8,0:0:0:0:
256,192,136374,1,4,0:0:0:0:
256,192,136674,1,8,0:0:0:0:
256,192,136974,1,0,0:0:0:0:
256,192,137124,1,0,0:0:0:0:
256,192,137274,1,8,0:0:0:0:
256,192,137574,1,8,0:0:0:0:
256,192,137724,1,0,0:0:0:0:
256,192,137874,1,0,0:0:0:0:
256,192,138024,1,8,0:0:0:0:
256,192,138174,1,0,0:0:0:0:
256,192,138324,1,0,0:0:0:0:
256,192,138474,1,8,0:0:0:0:
256,192,138774,1,4,0:0:0:0:
256,192,139074,1,8,0:0:0:0:
256,192,139374,1,0,0:0:0:0:
256,192,139524,1,0,0:0:0:0:
256,192,139674,1,8,0:0:0:0:
256,192,139974,1,8,0:0:0:0:
256,192,140124,1,0,0:0:0:0:
256,192,140274,1,12,0:0:0:0:
256,192,140574,1,0,0:0:0:0:
256,192,140724,1,0,0:0:0:0:
256,192,140874,1,12,0:0:0:0:
256,192,141174,1,4,0:0:0:0:
256,192,141474,1,8,0:0:0:0:
256,192,141774,1,0,0:0:0:0:
256,192,141924,1,0,0:0:0:0:
256,192,142074,1,8,0:0:0:0:
256,192,142374,1,8,0:0:0:0:
256,192,142524,1,0,0:0:0:0:
256,192,142674,1,0,0:0:0:0:
256,192,142824,1,8,0:0:0:0:
256,192,142974,1,0,0:0:0:0:
256,192,143124,1,0,0:0:0:0:
256,192,143274,1,8,0:0:0:0:
256,192,143424,1,0,0:0:0:0:
256,192,143499,1,0,0:0:0:0:
256,192,143574,1,8,0:0:0:0:
256,192,143724,1,0,0:0:0:0:
256,192,143874,1,8,0:0:0:0:
256,192,144024,1,8,0:0:0:0:
256,192,144174,1,0,0:0:0:0:
256,192,144324,1,0,0:0:0:0:
256,192,144474,1,8,0:0:0:0:
256,192,144624,1,0,0:0:0:0:
256,192,144699,1,0,0:0:0:0:
256,192,144774,1,8,0:0:0:0:
256,192,145074,1,12,0:0:0:0:
256,192,145224,1,12,0:0:0:0:
256,192,145524,1,12,0:0:0:0:
256,192,145824,1,12,0:0:0:0:
256,192,145974,1,0,0:0:0:0:
256,192,146049,1,0,0:0:0:0:
256,192,146124,1,0,0:0:0:0:
256,192,146199,1,0,0:0:0:0:
256,192,146274,1,8,0:0:0:0:
256,192,146424,1,0,0:0:0:0:
256,192,146574,1,0,0:0:0:0:
256,192,146649,1,0,0:0:0:0:
256,192,146724,1,0,0:0:0:0:
256,192,146874,1,8,0:0:0:0:
256,192,147024,1,0,0:0:0:0:
256,192,147174,1,8,0:0:0:0:
256,192,147249,1,8,0:0:0:0:
256,192,147324,1,0,0:0:0:0:
256,192,147399,1,0,0:0:0:0:
256,192,147474,1,0,0:0:0:0:
256,192,147624,1,8,0:0:0:0:
256,192,147699,1,8,0:0:0:0:
256,192,147774,1,0,0:0:0:0:
256,192,147849,1,0,0:0:0:0:
256,192,147924,1,0,0:0:0:0:
256,192,148074,1,8,0:0:0:0:
256,192,148224,1,0,0:0:0:0:
256,192,148299,1,8,0:0:0:0:
256,192,148374,1,0,0:0:0:0:
256,192,148449,1,0,0:0:0:0:
256,192,148524,1,0,0:0:0:0:
256,192,148599,1,0,0:0:0:0:
256,192,148674,1,8,0:0:0:0:
256,192,148824,1,0,0:0:0:0:
256,192,148974,1,0,0:0:0:0:
256,192,149049,1,0,0:0:0:0:
256,192,149124,1,0,0:0:0:0:
256,192,149274,1,8,0:0:0:0:
256,192,149424,1,0,0:0:0:0:
256,192,149574,1,8,0:0:0:0:
256,192,149649,1,8,0:0:0:0:
256,192,149724,1,0,0:0:0:0:
256,192,149799,1,0,0:0:0:0:
256,192,149874,1,8,0:0:0:0:
256,192,149949,1,0,0:0:0:0:
256,192,150024,1,8,0:0:0:0:
256,192,150099,1,0,0:0:0:0:
256,192,150174,1,8,0:0:0:0:
256,192,150249,1,8,0:0:0:0:
256,192,150324,1,0,0:0:0:0:
256,192,150399,1,0,0:0:0:0:
256,192,150474,1,8,0:0:0:0:
256,192,150549,1,8,0:0:0:0:
256,192,150624,1,8,0:0:0:0:
256,192,150699,1,8,0:0:0:0:
256,192,150774,1,0,0:0:0:0:
256,192,150849,1,0,0:0:0:0:
256,192,150924,1,0,0:0:0:0:
256,192,150999,1,0,0:0:0:0:
256,192,151074,1,8,0:0:0:0:
256,192,151224,1,0,0:0:0:0:
256,192,151374,1,0,0:0:0:0:
256,192,151449,1,0,0:0:0:0:
256,192,151524,1,0,0:0:0:0:
256,192,151674,1,8,0:0:0:0:
256,192,151824,1,0,0:0:0:0:
256,192,151974,1,8,0:0:0:0:
256,192,152049,1,8,0:0:0:0:
256,192,152124,1,0,0:0:0:0:
256,192,152199,1,0,0:0:0:0:
256,192,152274,1,0,0:0:0:0:
256,192,152424,1,8,0:0:0:0:
256,192,152499,1,8,0:0:0:0:
256,192,152574,1,0,0:0:0:0:
256,192,152649,1,0,0:0:0:0:
256,192,152724,1,0,0:0:0:0:
256,192,152874,1,8,0:0:0:0:
256,192,153024,1,8,0:0:0:0:
256,192,153099,1,0,0:0:0:0:
256,192,153174,1,8,0:0:0:0:
256,192,153249,1,8,0:0:0:0:
256,192,153324,1,0,0:0:0:0:
256,192,153399,1,0,0:0:0:0:
256,192,153474,1,8,0:0:0:0:
256,192,153624,1,0,0:0:0:0:
256,192,153774,1,8,0:0:0:0:
256,192,153849,1,8,0:0:0:0:
256,192,153924,1,0,0:0:0:0:
256,192,154074,1,12,0:0:0:0:
256,192,154374,1,8,0:0:0:0:
256,192,154474,1,8,0:0:0:0:
256,192,154574,1,8,0:0:0:0:
256,192,154674,1,8,0:0:0:0:
256,192,154774,1,0,0:0:0:0:
256,192,154874,1,0,0:0:0:0:
256,192,154974,1,8,0:0:0:0:
256,192,155074,1,0,0:0:0:0:
256,192,155174,1,0,0:0:0:0:
256,192,155274,1,8,0:0:0:0:
256,192,155374,1,8,0:0:0:0:
256,192,155474,1,8,0:0:0:0:
256,192,155574,1,4,0:0:0:0:
256,192,155874,1,0,0:0:0:0:
256,192,156024,1,0,0:0:0:0:
256,192,156174,1,12,0:0:0:0:
256,192,156324,1,0,0:0:0:0:
256,192,156474,1,0,0:0:0:0:
256,192,156624,1,8,0:0:0:0:
256,192,156924,1,8,0:0:0:0:
256,192,157074,1,0,0:0:0:0:
256,192,157224,1,0,0:0:0:0:
256,192,157374,1,12,0:0:0:0:
256,192,157674,1,0,0:0:0:0:
256,192,157824,1,8,0:0:0:0:
256,192,157974,1,4,0:0:0:0:
256,192,158274,1,0,0:0:0:0:
256,192,158424,1,0,0:0:0:0:
256,192,158574,1,12,0:0:0:0:
256,192,158724,1,0,0:0:0:0:
256,192,158874,1,0,0:0:0:0:
256,192,159024,1,8,0:0:0:0:
256,192,159324,1,8,0:0:0:0:
256,192,159474,1,0,0:0:0:0:
256,192,159624,1,0,0:0:0:0:
256,192,159774,1,12,0:0:0:0:
256,192,160074,1,8,0:0:0:0:
256,192,160224,1,8,0:0:0:0:
256,192,160374,1,4,0:0:0:0:
256,192,160674,1,0,0:0:0:0:
256,192,160824,1,0,0:0:0:0:
256,192,160974,1,12,0:0:0:0:
256,192,161124,1,0,0:0:0:0:
256,192,161274,1,0,0:0:0:0:
256,192,161424,1,8,0:0:0:0:
256,192,161724,1,8,0:0:0:0:
256,192,161874,1,0,0:0:0:0:
256,192,162024,1,0,0:0:0:0:
256,192,162174,1,12,0:0:0:0:
256,192,162474,1,0,0:0:0:0:
256,192,162624,1,8,0:0:0:0:
256,192,162774,1,4,0:0:0:0:
256,192,163074,1,8,0:0:0:0:
256,192,163374,1,0,0:0:0:0:
256,192,163524,1,0,0:0:0:0:
256,192,163674,1,8,0:0:0:0:
256,192,163974,1,12,0:0:0:0:
256,192,164274,1,0,0:0:0:0:
256,192,164349,1,0,0:0:0:0:
256,192,164424,1,8,0:0:0:0:
256,192,164724,1,12,0:0:0:0:
256,192,165024,1,12,0:0:0:0:
256,192,165174,1,0,0:0:0:0:
256,192,165249,1,0,0:0:0:0:
256,192,165324,1,8,0:0:0:0:
256,192,165399,1,0,0:0:0:0:
256,192,165474,1,8,0:0:0:0:
256,192,165549,1,0,0:0:0:0:
256,192,165624,1,8,0:0:0:0:
256,192,165699,1,0,0:0:0:0:
256,192,165774,1,8,0:0:0:0:
256,192,165849,1,0,0:0:0:0:
256,192,165924,1,0,0:0:0:0:
256,192,165999,1,0,0:0:0:0:
256,192,166074,1,8,0:0:0:0:
256,192,166149,1,0,0:0:0:0:
256,192,166224,1,8,0:0:0:0:
256,192,166299,1,0,0:0:0:0:
256,192,166374,1,8,0:0:0:0:
256,192,166449,1,8,0:0:0:0:
256,192,166524,1,0,0:0:0:0:
256,192,166599,1,0,0:0:0:0:
256,192,166674,1,8,0:0:0:0:
256,192,166749,1,0,0:0:0:0:
256,192,166824,1,8,0:0:0:0:
256,192,166899,1,8,0:0:0:0:
256,192,166974,1,0,0:0:0:0:
256,192,167049,1,0,0:0:0:0:
256,192,167124,1,8,0:0:0:0:
256,192,167199,1,0,0:0:0:0:
256,192,167274,1,8,0:0:0:0:
256,192,167349,1,8,0:0:0:0:
256,192,167424,1,8,0:0:0:0:
256,192,167499,1,8,0:0:0:0:
256,192,167574,1,0,0:0:0:0:
256,192,167649,1,0,0:0:0:0:
256,192,167724,1,8,0:0:0:0:
256,192,167799,1,0,0:0:0:0:
256,192,167874,1,8,0:0:0:0:
256,192,167949,1,0,0:0:0:0:
256,192,168024,1,8,0:0:0:0:
256,192,168099,1,0,0:0:0:0:
256,192,168174,1,8,0:0:0:0:
256,192,168249,1,0,0:0:0:0:
256,192,168324,1,0,0:0:0:0:
256,192,168399,1,0,0:0:0:0:
256,192,168474,1,8,0:0:0:0:
256,192,168549,1,0,0:0:0:0:
256,192,168624,1,8,0:0:0:0:
256,192,168699,1,8,0:0:0:0:
256,192,168774,1,0,0:0:0:0:
256,192,168849,1,0,0:0:0:0:
256,192,168924,1,8,0:0:0:0:
256,192,168999,1,0,0:0:0:0:
256,192,169074,1,8,0:0:0:0:
256,192,169149,1,8,0:0:0:0:
256,192,169224,1,0,0:0:0:0:
256,192,169299,1,0,0:0:0:0:
256,192,169374,1,8,0:0:0:0:
256,192,169449,1,8,0:0:0:0:
256,192,169524,1,0,0:0:0:0:
256,192,169599,1,8,0:0:0:0:
256,192,169674,1,8,0:0:0:0:
256,192,169749,1,0,0:0:0:0:
256,192,169824,1,8,0:0:0:0:
256,192,169974,1,4,0:0:0:0:
256,192,170124,1,0,0:0:0:0:
256,192,170199,1,0,0:0:0:0:
256,192,170274,1,8,0:0:0:0:
256,192,170349,1,0,0:0:0:0:
256,185,170424,1,8,0:0:0:0:
256,185,170499,1,8,0:0:0:0:
256,185,170574,1,0,0:0:0:0:
256,185,170649,1,0,0:0:0:0:
256,192,170724,1,8,0:0:0:0:
256,192,170799,1,0,0:0:0:0:
256,185,170874,1,8,0:0:0:0:
256,185,170949,1,8,0:0:0:0:
256,192,171024,1,0,0:0:0:0:
256,192,171174,1,8,0:0:0:0:
256,192,171249,1,8,0:0:0:0:
256,192,171324,1,0,0:0:0:0:
256,192,171399,1,0,0:0:0:0:
256,192,171474,1,0,0:0:0:0:
256,192,171624,1,8,0:0:0:0:
256,192,171699,1,0,0:0:0:0:
256,192,171774,1,8,0:0:0:0:
256,192,171849,1,0,0:0:0:0:
256,192,171924,1,0,0:0:0:0:
256,192,171999,1,8,0:0:0:0:
256,192,172074,1,8,0:0:0:0:
256,192,172149,1,0,0:0:0:0:
256,192,172224,1,8,0:0:0:0:
256,192,172374,1,8,0:0:0:0:
256,192,172449,1,0,0:0:0:0:
256,192,172524,1,0,0:0:0:0:
256,192,172599,1,0,0:0:0:0:
256,192,172674,1,8,0:0:0:0:
256,192,172824,1,0,0:0:0:0:
256,192,172974,1,8,0:0:0:0:
256,192,173049,1,8,0:0:0:0:
256,192,173124,1,0,0:0:0:0:
256,192,173199,1,0,0:0:0:0:
256,192,173274,1,8,0:0:0:0:
256,192,173424,1,0,0:0:0:0:
256,192,173574,1,8,0:0:0:0:
256,192,173649,1,8,0:0:0:0:
256,192,173724,1,0,0:0:0:0:
256,192,173799,1,0,0:0:0:0:
256,192,173874,1,8,0:0:0:0:
256,192,173949,1,0,0:0:0:0:
256,192,174024,1,8,0:0:0:0:
256,192,174324,1,0,0:0:0:0:
256,192,174399,1,0,0:0:0:0:
256,192,174474,1,8,0:0:0:0:
256,192,174549,1,8,0:0:0:0:
256,192,174624,1,0,0:0:0:0:
256,192,174774,1,8,0:0:0:0:
256,192,174849,1,0,0:0:0:0:
256,192,174924,1,8,0:0:0:0:
256,192,174999,1,8,0:0:0:0:
256,192,175074,1,8,0:0:0:0:
256,192,175149,1,0,0:0:0:0:
256,192,175224,1,8,0:0:0:0:
256,192,175299,1,0,0:0:0:0:
256,192,175374,1,8,0:0:0:0:
256,192,175449,1,0,0:0:0:0:
256,192,175524,1,0,0:0:0:0:
256,192,175599,1,0,0:0:0:0:
256,192,175674,1,8,0:0:0:0:
256,192,175749,1,0,0:0:0:0:
256,192,175824,1,8,0:0:0:0:
256,192,175899,1,0,0:0:0:0:
256,192,175974,1,8,0:0:0:0:
256,192,176049,1,8,0:0:0:0:
256,192,176124,1,0,0:0:0:0:
256,192,176199,1,0,0:0:0:0:
256,192,176274,1,8,0:0:0:0:
256,192,176349,1,0,0:0:0:0:
256,192,176424,1,8,0:0:0:0:
256,192,176499,1,8,0:0:0:0:
256,192,176574,1,0,0:0:0:0:
256,192,176649,1,0,0:0:0:0:
256,192,176724,1,0,0:0:0:0:
256,192,176799,1,0,0:0:0:0:
256,192,176874,1,8,0:0:0:0:
256,192,176949,1,8,0:0:0:0:
256,192,177024,1,8,0:0:0:0:
256,192,177099,1,8,0:0:0:0:
256,192,177174,1,0,0:0:0:0:
256,192,177249,1,0,0:0:0:0:
256,192,177324,1,8,0:0:0:0:
256,192,177399,1,0,0:0:0:0:
256,192,177474,1,8,0:0:0:0:
256,192,177549,1,0,0:0:0:0:
256,192,177624,1,8,0:0:0:0:
256,192,177699,1,0,0:0:0:0:
256,192,177774,1,8,0:0:0:0:
256,192,177849,1,0,0:0:0:0:
256,192,177924,1,0,0:0:0:0:
256,192,177999,1,0,0:0:0:0:
256,192,178074,1,8,0:0:0:0:
256,192,178149,1,0,0:0:0:0:
256,192,178224,1,8,0:0:0:0:
256,192,178299,1,8,0:0:0:0:
256,192,178374,1,8,0:0:0:0:
256,192,178449,1,0,0:0:0:0:
256,192,178524,1,8,0:0:0:0:
256,192,178599,1,0,0:0:0:0:
256,192,178674,1,8,0:0:0:0:
256,192,178749,1,0,0:0:0:0:
256,192,178824,1,0,0:0:0:0:
256,192,178899,1,0,0:0:0:0:
256,192,178974,1,8,0:0:0:0:
256,192,179049,1,8,0:0:0:0:
256,192,179124,1,0,0:0:0:0:
256,192,179199,1,8,0:0:0:0:
256,192,179274,1,8,0:0:0:0:
256,192,179349,1,0,0:0:0:0:
256,192,179424,1,8,0:0:0:0:
256,192,179574,1,4,0:0:0:0:
256,192,179724,1,0,0:0:0:0:
256,192,179799,1,0,0:0:0:0:
256,192,179874,1,8,0:0:0:0:
256,192,179949,1,0,0:0:0:0:
256,185,180024,1,8,0:0:0:0:
256,185,180099,1,8,0:0:0:0:
256,185,180174,1,0,0:0:0:0:
256,185,180249,1,0,0:0:0:0:
256,192,180324,1,8,0:0:0:0:
256,192,180399,1,0,0:0:0:0:
256,185,180474,1,8,0:0:0:0:
256,185,180549,1,8,0:0:0:0:
256,192,180624,1,0,0:0:0:0:
256,192,180774,1,8,0:0:0:0:
256,192,180849,1,8,0:0:0:0:
256,192,180924,1,8,0:0:0:0:
256,192,180999,1,8,0:0:0:0:
256,192,181074,1,0,0:0:0:0:
256,192,181224,1,8,0:0:0:0:
256,192,181299,1,8,0:0:0:0:
256,192,181374,1,8,0:0:0:0:
256,192,181449,1,8,0:0:0:0:
256,192,181524,1,0,0:0:0:0:
256,192,181674,1,8,0:0:0:0:
256,192,181749,1,8,0:0:0:0:
256,192,181824,1,0,0:0:0:0:
256,192,181974,1,12,0:0:0:0:
256,192,182124,1,0,0:0:0:0:
256,192,182199,1,0,0:0:0:0:
256,192,182274,1,8,0:0:0:0:
256,192,182424,1,0,0:0:0:0:
256,192,182574,1,8,0:0:0:0:
256,192,182649,1,8,0:0:0:0:
256,192,182724,1,0,0:0:0:0:
256,192,182874,1,8,0:0:0:0:
256,192,182924,1,8,0:0:0:0:
256,192,182974,1,8,0:0:0:0:
256,192,183024,1,0,0:0:0:0:
256,192,183074,1,0,0:0:0:0:
256,192,183124,1,0,0:0:0:0:
256,192,183174,1,8,0:0:0:0:
256,192,183324,1,8,0:0:0:0:
256,192,183624,1,8,0:0:0:0:
256,192,183924,1,8,0:0:0:0:
256,192,184074,1,0,0:0:0:0:
256,192,184224,1,8,0:0:0:0:
256,192,184374,1,4,0:0:0:0:
256,192,184674,1,8,0:0:0:0:
256,192,184974,1,8,0:0:0:0:
256,192,185274,1,8,0:0:0:0:
256,192,185574,1,4,0:0:0:0:
256,192,185874,1,0,0:0:0:0:
256,192,186024,1,0,0:0:0:0:
256,192,186174,1,12,0:0:0:0:
256,192,186474,1,0,0:0:0:0:
256,192,186624,1,8,0:0:0:0:
256,192,186774,1,4,0:0:0:0:
256,192,187074,1,8,0:0:0:0:
256,192,187374,1,8,0:0:0:0:
256,192,187674,1,8,0:0:0:0:
256,192,187974,1,4,0:0:0:0:
256,192,188174,1,0,0:0:0:0:
256,192,188374,1,0,0:0:0:0:
256,192,188574,1,12,0:0:0:0:
256,192,188774,1,0,0:0:0:0:
256,192,188974,1,0,0:0:0:0:
256,192,189174,1,8,0:0:0:0:
256,192,189324,1,8,0:0:0:0:
256,192,189474,1,0,0:0:0:0:
256,192,189624,1,8,0:0:0:0:
256,192,189774,1,0,0:0:0:0:
256,192,189924,1,8,0:0:0:0:
256,192,190074,1,8,0:0:0:0:
256,192,190224,1,8,0:0:0:0:
256,192,190374,1,8,0:0:0:0:
256,192,190524,1,8,0:0:0:0:
256,192,190674,1,8,0:0:0:0:
256,192,190749,1,8,0:0:0:0:
256,192,190824,1,0,0:0:0:0:
256,192,190899,1,0,0:0:0:0:
256,192,190974,1,8,0:0:0:0:
256,192,191049,1,0,0:0:0:0:
256,192,191124,1,8,0:0:0:0:
256,192,191199,1,0,0:0:0:0:
256,192,191274,1,0,0:0:0:0:
256,192,191349,1,0,0:0:0:0:
256,192,191424,1,8,0:0:0:0:
256,192,191499,1,0,0:0:0:0:
256,192,191574,1,8,0:0:0:0:
256,192,191649,1,8,0:0:0:0:
256,192,191724,1,8,0:0:0:0:
256,192,191799,1,8,0:0:0:0:
256,192,191874,1,8,0:0:0:0:
256,192,192024,1,8,0:0:0:0:
256,192,192174,1,8,0:0:0:0:
256,192,192324,1,8,0:0:0:0:
256,192,192474,1,8,0:0:0:0:
256,192,192624,1,8,0:0:0:0:
256,192,192774,1,4,0:0:0:0:
256,192,192924,1,0,0:0:0:0:
256,192,192999,1,0,0:0:0:0:
256,192,193074,1,8,0:0:0:0:
256,192,193224,1,0,0:0:0:0:
256,192,193374,1,0,0:0:0:0:
256,192,193524,1,0,0:0:0:0:
256,192,193674,1,8,0:0:0:0:
256,192,193824,1,0,0:0:0:0:
256,192,194124,1,0,0:0:0:0:
256,192,194199,1,0,0:0:0:0:
256,192,194274,1,8,0:0:0:0:
256,192,194424,1,0,0:0:0:0:
256,192,194574,1,8,0:0:0:0:
256,192,194649,1,8,0:0:0:0:
256,192,194724,1,0,0:0:0:0:
256,192,194799,1,0,0:0:0:0:
256,192,194874,1,8,0:0:0:0:
256,192,195024,1,8,0:0:0:0:
256,192,195174,1,0,0:0:0:0:
256,192,195249,1,0,0:0:0:0:
256,192,195324,1,0,0:0:0:0:
256,192,195399,1,0,0:0:0:0:
256,192,195474,1,8,0:0:0:0:
256,192,195624,1,0,0:0:0:0:
256,192,195774,1,8,0:0:0:0:
256,192,195849,1,8,0:0:0:0:
256,192,195924,1,0,0:0:0:0:
256,192,196074,1,8,0:0:0:0:
256,192,196224,1,0,0:0:0:0:
256,192,196524,1,0,0:0:0:0:
256,192,196599,1,0,0:0:0:0:
256,192,196674,1,8,0:0:0:0:
256,192,196824,1,0,0:0:0:0:
256,192,196974,1,8,0:0:0:0:
256,192,197049,1,8,0:0:0:0:
256,192,197124,1,0,0:0:0:0:
256,192,197199,1,0,0:0:0:0:
256,192,197274,1,0,0:0:0:0:
256,192,197424,1,8,0:0:0:0:
256,192,197574,1,0,0:0:0:0:
256,192,197724,1,0,0:0:0:0:
256,192,197799,1,0,0:0:0:0:
256,192,197874,1,8,0:0:0:0:
256,192,198024,1,0,0:0:0:0:
256,192,198174,1,8,0:0:0:0:
256,192,198324,1,8,0:0:0:0:
256,192,198474,1,0,0:0:0:0:
256,192,198624,1,8,0:0:0:0:
256,192,198924,1,8,0:0:0:0:
256,192,198999,1,8,0:0:0:0:
256,192,199074,1,0,0:0:0:0:
256,192,199224,1,0,0:0:0:0:
256,192,199374,1,8,0:0:0:0:
256,192,199449,1,8,0:0:0:0:
256,192,199524,1,0,0:0:0:0:
256,192,199599,1,0,0:0:0:0:
256,192,199674,1,8,0:0:0:0:
256,192,199824,1,8,0:0:0:0:
256,192,199974,1,0,0:0:0:0:
256,192,200274,1,8,0:0:0:0:
256,192,200574,1,0,0:0:0:0:
256,192,200724,1,0,0:0:0:0:
256,192,200874,1,8,0:0:0:0:
256,192,201024,1,0,0:0:0:0:
256,192,201324,1,0,0:0:0:0:
256,192,201399,1,0,0:0:0:0:
256,192,201474,1,8,0:0:0:0:
256,192,201624,1,0,0:0:0:0:
256,192,201774,1,8,0:0:0:0:
256,192,201849,1,8,0:0:0:0:
256,192,201924,1,0,0:0:0:0:
256,192,201999,1,0,0:0:0:0:
256,192,202074,1,8,0:0:0:0:
256,192,202224,1,0,0:0:0:0:
256,192,202524,1,0,0:0:0:0:
256,192,202599,1,0,0:0:0:0:
256,192,202674,1,8,0:0:0:0:
256,192,202824,1,0,0:0:0:0:
256,192,202974,1,8,0:0:0:0:
256,192,203049,1,8,0:0:0:0:
256,192,203124,1,0,0:0:0:0:
256,192,203199,1,0,0:0:0:0:
256,192,203274,1,0,0:0:0:0:
256,192,203424,1,8,0:0:0:0:
256,192,203724,1,8,0:0:0:0:
256,192,203799,1,8,0:0:0:0:
256,192,203874,1,0,0:0:0:0:
256,192,204024,1,8,0:0:0:0:
256,192,204174,1,8,0:0:0:0:
256,192,204249,1,8,0:0:0:0:
256,192,204324,1,0,0:0:0:0:
256,192,204399,1,0,0:0:0:0:
256,192,204474,1,0,0:0:0:0:
256,192,204624,1,8,0:0:0:0:
256,192,204924,1,0,0:0:0:0:
256,192,204999,1,0,0:0:0:0:
256,192,205074,1,8,0:0:0:0:
256,192,205224,1,0,0:0:0:0:
256,192,205374,1,8,0:0:0:0:
256,192,205449,1,8,0:0:0:0:
256,192,205524,1,0,0:0:0:0:
256,192,205599,1,0,0:0:0:0:
256,192,205674,1,8,0:0:0:0:
256,192,205824,1,8,0:0:0:0:
256,192,205974,1,0,0:0:0:0:
256,192,206124,1,0,0:0:0:0:
256,192,206274,1,8,0:0:0:0:
256,192,206574,1,0,0:0:0:0:
256,192,206649,1,0,0:0:0:0:
256,192,206724,1,0,0:0:0:0:
256,192,206799,1,0,0:0:0:0:
256,192,206874,1,8,0:0:0:0:
256,192,207024,1,0,0:0:0:0:
256,192,207324,1,0,0:0:0:0:
256,192,207399,1,0,0:0:0:0:
256,192,207474,1,8,0:0:0:0:
256,192,207624,1,0,0:0:0:0:
256,192,207774,1,8,0:0:0:0:
256,192,207849,1,8,0:0:0:0:
256,192,207924,1,0,0:0:0:0:
256,192,207999,1,0,0:0:0:0:
256,192,208074,1,0,0:0:0:0:
256,192,208224,1,8,0:0:0:0:
256,192,208524,1,0,0:0:0:0:
256,192,208599,1,0,0:0:0:0:
256,192,208674,1,8,0:0:0:0:
256,192,208824,1,0,0:0:0:0:
256,192,208974,1,8,0:0:0:0:
256,192,209049,1,8,0:0:0:0:
256,192,209124,1,0,0:0:0:0:
256,192,209199,1,0,0:0:0:0:
256,192,209274,1,8,0:0:0:0:
256,192,209574,1,4,0:0:0:0:
256,192,209874,1,8,0:0:0:0:
256,192,210024,1,0,0:0:0:0:
256,192,210324,1,0,0:0:0:0:
256,192,210374,1,0,0:0:0:0:
256,192,210424,1,0,0:0:0:0:
256,192,210474,1,8,0:0:0:0:
256,192,210624,1,0,0:0:0:0:
256,192,210774,1,8,0:0:0:0:
256,192,210849,1,8,0:0:0:0:
256,192,210924,1,8,0:0:0:0:
256,192,210999,1,8,0:0:0:0:
256,192,211074,1,0,0:0:0:0:
256,192,211149,1,0,0:0:0:0:
256,192,211224,1,8,0:0:0:0:
256,192,211299,1,8,0:0:0:0:
256,192,211374,1,0,0:0:0:0:
256,192,211449,1,0,0:0:0:0:
256,192,211524,1,0,0:0:0:0:
256,192,211599,1,0,0:0:0:0:
256,192,211674,1,8,0:0:0:0:
256,192,211749,1,8,0:0:0:0:
256,192,211824,1,8,0:0:0:0:
256,192,211899,1,8,0:0:0:0:
256,192,211974,1,0,0:0:0:0:
256,192,214374,1,8,0:0:0:0:
256,192,214474,1,0,0:0:0:0:
256,192,214574,1,0,0:0:0:0:
256,192,214674,1,8,0:0:0:0:
256,192,214774,1,0,0:0:0:0:
256,192,214874,1,0,0:0:0:0:
256,192,214974,1,8,0:0:0:0:
256,192,215074,1,0,0:0:0:0:
256,192,215174,1,0,0:0:0:0:
256,192,215274,1,8,0:0:0:0:
256,192,215374,1,0,0:0:0:0:
256,192,215474,1,0,0:0:0:0:
256,192,215574,1,8,0:0:0:0:
256,192,215674,1,8,0:0:0:0:
256,192,215774,1,8,0:0:0:0:
256,192,215874,1,8,0:0:0:0:
256,192,215974,1,8,0:0:0:0:
256,192,216074,1,8,0:0:0:0:
256,192,216174,1,8,0:0:0:0:
256,192,216274,1,8,0:0:0:0:
256,192,216374,1,8,0:0:0:0:
256,192,216474,1,8,0:0:0:0:
256,192,216574,1,8,0:0:0:0:
256,192,216674,1,8,0:0:0:0:
256,192,216774,1,0,0:0:0:0:
256,192,216874,1,0,0:0:0:0:
256,192,216974,1,0,0:0:0:0:
256,192,217074,1,8,0:0:0:0:
256,192,217174,1,0,0:0:0:0:
256,192,217274,1,0,0:0:0:0:
256,192,217374,1,8,0:0:0:0:
256,192,217474,1,8,0:0:0:0:
256,192,217574,1,0,0:0:0:0:
256,192,217674,1,8,0:0:0:0:
256,192,217774,1,0,0:0:0:0:
256,192,217874,1,8,0:0:0:0:
256,192,217974,1,0,0:0:0:0:
256,192,218074,1,0,0:0:0:0:
256,192,218174,1,0,0:0:0:0:
256,192,218274,1,8,0:0:0:0:
256,192,218374,1,0,0:0:0:0:
256,192,218474,1,0,0:0:0:0:
256,192,218574,1,8,0:0:0:0:
256,192,218674,1,8,0:0:0:0:
256,192,218774,1,0,0:0:0:0:
256,192,218874,1,8,0:0:0:0:
256,192,218974,1,8,0:0:0:0:
256,192,219074,1,8,0:0:0:0:
256,192,219174,1,0,0:0:0:0:
256,192,219274,1,0,0:0:0:0:
256,192,219374,1,0,0:0:0:0:
256,192,219474,1,8,0:0:0:0:
256,192,219574,1,0,0:0:0:0:
256,192,219674,1,0,0:0:0:0:
256,192,219774,1,8,0:0:0:0:
256,192,219874,1,8,0:0:0:0:
256,192,219974,1,0,0:0:0:0:
256,192,220074,1,8,0:0:0:0:
256,192,220174,1,0,0:0:0:0:
256,192,220274,1,8,0:0:0:0:
256,192,220374,1,0,0:0:0:0:
256,192,220474,1,0,0:0:0:0:
256,192,220574,1,0,0:0:0:0:
256,192,220674,1,8,0:0:0:0:
256,192,220774,1,8,0:0:0:0:
256,192,220874,1,0,0:0:0:0:
256,192,220974,1,8,0:0:0:0:
256,192,221074,1,8,0:0:0:0:
256,192,221174,1,0,0:0:0:0:
256,192,221274,1,8,0:0:0:0:
256,192,221374,1,8,0:0:0:0:
256,192,221474,1,8,0:0:0:0:
256,192,221574,1,0,0:0:0:0:
256,192,221674,1,0,0:0:0:0:
256,192,221774,1,0,0:0:0:0:
256,192,221874,1,8,0:0:0:0:
256,192,221974,1,0,0:0:0:0:
256,192,222074,1,0,0:0:0:0:
256,192,222174,1,0,0:0:0:0:
256,192,222274,1,0,0:0:0:0:
256,192,222374,1,0,0:0:0:0:
256,192,222474,1,8,0:0:0:0:
256,192,222574,1,0,0:0:0:0:
256,192,222674,1,8,0:0:0:0:
256,192,222774,1,0,0:0:0:0:
256,192,222874,1,0,0:0:0:0:
256,192,222974,1,0,0:0:0:0:
256,192,223074,1,8,0:0:0:0:
256,192,223174,1,0,0:0:0:0:
256,192,223274,1,0,0:0:0:0:
256,192,223374,1,8,0:0:0:0:
256,192,223474,1,0,0:0:0:0:
256,192,223574,1,0,0:0:0:0:
256,192,223674,1,8,0:0:0:0:
256,192,223774,1,0,0:0:0:0:
256,192,223874,1,8,0:0:0:0:
256,192,223974,1,0,0:0:0:0:
256,192,224074,1,0,0:0:0:0:
256,192,224174,1,0,0:0:0:0:
256,192,224274,1,8,0:0:0:0:
256,192,224374,1,0,0:0:0:0:
256,192,224474,1,0,0:0:0:0:
256,192,224574,1,0,0:0:0:0:
256,192,224674,1,0,0:0:0:0:
256,192,224774,1,0,0:0:0:0:
256,192,224874,1,8,0:0:0:0:
256,192,224974,1,8,0:0:0:0:
256,192,225074,1,8,0:0:0:0:
256,192,225174,1,0,0:0:0:0:
256,192,225274,1,0,0:0:0:0:
256,192,225374,1,0,0:0:0:0:
256,192,225474,1,8,0:0:0:0:
256,192,225574,1,8,0:0:0:0:
256,192,225674,1,0,0:0:0:0:
256,192,225774,1,8,0:0:0:0:
256,192,225874,1,8,0:0:0:0:
256,192,225974,1,0,0:0:0:0:
256,192,226074,1,8,0:0:0:0:
256,192,226174,1,8,0:0:0:0:
256,192,226274,1,8,0:0:0:0:
256,192,226374,1,0,0:0:0:0:
256,192,226474,1,0,0:0:0:0:
256,192,226574,1,0,0:0:0:0:
256,192,226674,1,0,0:0:0:0:
256,192,226774,1,0,0:0:0:0:
256,192,226874,1,0,0:0:0:0:
256,192,226974,1,8,0:0:0:0:
256,192,227074,1,0,0:0:0:0:
256,192,227174,1,0,0:0:0:0:
256,192,227274,1,8,0:0:0:0:
256,192,227374,1,0,0:0:0:0:
256,192,227474,1,8,0:0:0:0:
256,192,227574,1,0,0:0:0:0:
256,192,227674,1,0,0:0:0:0:
256,192,227774,1,0,0:0:0:0:
256,192,227874,1,0,0:0:0:0:
256,192,227974,1,0,0:0:0:0:
256,192,228074,1,0,0:0:0:0:
256,192,228174,1,8,0:0:0:0:
256,192,228274,1,0,0:0:0:0:
256,192,228374,1,0,0:0:0:0:
256,192,228474,1,8,0:0:0:0:
256,192,228574,1,8,0:0:0:0:
256,192,228674,1,0,0:0:0:0:
256,192,228774,1,0,0:0:0:0:
256,192,228874,1,0,0:0:0:0:
256,192,228974,1,0,0:0:0:0:
256,192,229074,1,0,0:0:0:0:
256,192,229174,1,0,0:0:0:0:
256,192,229274,1,0,0:0:0:0:
256,192,229374,1,8,0:0:0:0:
256,192,229474,1,0,0:0:0:0:
256,192,229574,1,0,0:0:0:0:
256,192,229674,1,8,0:0:0:0:
256,192,229774,1,8,0:0:0:0:
256,192,229874,1,8,0:0:0:0:
256,192,229974,1,0,0:0:0:0:
256,192,230074,1,0,0:0:0:0:
256,192,230174,1,0,0:0:0:0:
256,192,230274,1,8,0:0:0:0:
256,192,230374,1,8,0:0:0:0:
256,192,230474,1,0,0:0:0:0:
256,192,230574,1,8,0:0:0:0:
256,192,230674,1,8,0:0:0:0:
256,192,230774,1,0,0:0:0:0:
256,192,230874,1,8,0:0:0:0:
256,192,230974,1,8,0:0:0:0:
256,192,231074,1,8,0:0:0:0:
256,192,231174,1,0,0:0:0:0:
256,192,231274,1,0,0:0:0:0:
256,192,231374,1,0,0:0:0:0:
256,192,231474,1,8,0:0:0:0:
256,192,231574,1,8,0:0:0:0:
256,192,231674,1,0,0:0:0:0:
256,192,231774,1,8,0:0:0:0:
256,192,231874,1,0,0:0:0:0:
256,192,231974,1,0,0:0:0:0:
256,192,232074,1,8,0:0:0:0:
256,192,232174,1,0,0:0:0:0:
256,192,232274,1,8,0:0:0:0:
256,192,232374,1,0,0:0:0:0:
256,192,232474,1,0,0:0:0:0:
256,192,232574,1,0,0:0:0:0:
256,192,232674,1,8,0:0:0:0:
256,192,232774,1,8,0:0:0:0:
256,192,232874,1,0,0:0:0:0:
256,192,232974,1,8,0:0:0:0:
256,192,233074,1,0,0:0:0:0:
256,192,233174,1,0,0:0:0:0:
256,192,233274,1,8,0:0:0:0:
256,192,233374,1,8,0:0:0:0:
256,192,233474,1,0,0:0:0:0:
256,192,233574,1,0,0:0:0:0:
256,192,233674,1,0,0:0:0:0:
256,192,233774,1,0,0:0:0:0:
256,192,233874,1,8,0:0:0:0:
256,192,233974,1,8,0:0:0:0:
256,192,234074,1,0,0:0:0:0:
256,192,234174,1,8,0:0:0:0:
256,192,234274,1,0,0:0:0:0:
256,192,234374,1,0,0:0:0:0:
256,192,234474,1,8,0:0:0:0:
256,192,234574,1,8,0:0:0:0:
256,192,234674,1,0,0:0:0:0:
256,192,234774,1,8,0:0:0:0:
256,192,234824,1,8,0:0:0:0:
256,192,234874,1,8,0:0:0:0:
256,192,234974,1,8,0:0:0:0:
256,192,235074,1,8,0:0:0:0:
256,192,235124,1,8,0:0:0:0:
256,192,235174,1,8,0:0:0:0:
256,192,235274,1,8,0:0:0:0:
256,192,235374,1,0,0:0:0:0:
256,192,235424,1,0,0:0:0:0:
256,192,235474,1,0,0:0:0:0:
256,192,235574,1,0,0:0:0:0:
256,192,235674,1,0,0:0:0:0:
256,192,235724,1,0,0:0:0:0:
256,192,235774,1,0,0:0:0:0:
256,192,235874,1,0,0:0:0:0:
256,192,235974,1,12,0:0:0:0:
256,192,236574,1,8,0:0:0:0:
256,192,236724,1,0,0:0:0:0:
256,192,236874,1,0,0:0:0:0:
256,192,237024,1,8,0:0:0:0:
256,192,237174,1,0,0:0:0:0:
256,192,237474,1,0,0:0:0:0:
256,192,237774,1,8,0:0:0:0:
256,192,238074,1,0,0:0:0:0:
256,192,238224,1,8,0:0:0:0:
256,192,238374,1,4,0:0:0:0:
256,192,238974,1,0,0:0:0:0:
256,192,239274,1,8,0:0:0:0:
256,192,239324,1,8,0:0:0:0:
256,192,239374,1,8,0:0:0:0:
256,192,239424,1,8,0:0:0:0:
256,192,239474,1,8,0:0:0:0:
256,192,239574,1,8,0:0:0:0:
256,192,239874,1,0,0:0:0:0:
256,192,240024,1,8,0:0:0:0:
256,192,240174,1,8,0:0:0:0:
256,192,240324,1,0,0:0:0:0:
256,192,240474,1,0,0:0:0:0:
256,192,240624,1,8,0:0:0:0:
256,192,240774,1,4,0:0:0:0:
256,192,241374,1,0,0:0:0:0:
256,192,241524,1,0,0:0:0:0:
256,192,241674,1,8,0:0:0:0:
256,192,241824,1,8,0:0:0:0:
256,192,241974,1,0,0:0:0:0:
256,192,242274,1,0,0:0:0:0:
256,192,242574,1,8,0:0:0:0:
256,192,242874,1,0,0:0:0:0:
256,192,243024,1,8,0:0:0:0:
256,192,243174,1,4,0:0:0:0:
256,192,243774,1,0,0:0:0:0:
256,192,243924,1,0,0:0:0:0:
256,192,243999,1,0,0:0:0:0:
256,192,244074,1,8,0:0:0:0:
256,192,244224,1,8,0:0:0:0:
256,192,244374,1,4,0:0:0:0:
256,192,244824,1,4,0:0:0:0:
256,192,245274,1,12,0:0:0:0:
256,192,245574,1,4,0:0:0:0:
256,192,245874,1,0,0:0:0:0:
256,192,246174,1,8,0:0:0:0:
256,192,246324,1,0,0:0:0:0:
256,192,246474,1,0,0:0:0:0:
256,192,246624,1,8,0:0:0:0:
256,192,246774,1,0,0:0:0:0:
256,192,247074,1,0,0:0:0:0:
256,192,247374,1,8,0:0:0:0:
256,192,247674,1,0,0:0:0:0:
256,192,247824,1,8,0:0:0:0:
256,192,247974,1,4,0:0:0:0:
256,192,248574,1,8,0:0:0:0:
256,192,248874,1,8,0:0:0:0:
256,192,248924,1,8,0:0:0:0:
256,192,248974,1,8,0:0:0:0:
256,192,249024,1,8,0:0:0:0:
256,192,249074,1,8,0:0:0:0:
256,192,249174,1,8,0:0:0:0:
256,192,249474,1,0,0:0:0:0:
256,192,249624,1,8,0:0:0:0:
256,192,249774,1,8,0:0:0:0:
256,192,249924,1,0,0:0:0:0:
256,192,250074,1,0,0:0:0:0:
256,192,250224,1,8,0:0:0:0:
256,192,250374,1,4,0:0:0:0:
256,192,250674,1,0,0:0:0:0:
256,192,250974,1,0,0:0:0:0:
256,192,251124,1,0,0:0:0:0:
256,192,251274,1,8,0:0:0:0:
256,192,251424,1,8,0:0:0:0:
256,192,251574,1,0,0:0:0:0:
256,192,251874,1,0,0:0:0:0:
256,192,252174,1,8,0:0:0:0:
256,192,252474,1,0,0:0:0:0:
256,192,252624,1,8,0:0:0:0:
256,192,252774,1,4,0:0:0:0:
256,192,253374,1,0,0:0:0:0:
256,192,253524,1,0,0:0:0:0:
256,192,253599,1,0,0:0:0:0:
256,192,253674,1,8,0:0:0:0:
256,192,253824,1,8,0:0:0:0:
256,192,253974,1,4,0:0:0:0:
256,192,254424,1,4,0:0:0:0:
256,192,254874,1,12,0:0:0:0:
256,192,255174,1,4,0:0:0:0:
256,192,255474,1,0,0:0:0:0:
256,192,255774,1,8,0:0:0:0:
256,192,255924,1,0,0:0:0:0:
256,192,256074,1,0,0:0:0:0:
256,192,256224,1,8,0:0:0:0:
256,192,256374,1,0,0:0:0:0:
256,192,256674,1,0,0:0:0:0:
256,192,256974,1,8,0:0:0:0:
256,192,257124,1,0,0:0:0:0:
256,192,257274,1,8,0:0:0:0:
256,192,257424,1,8,0:0:0:0:
256,192,257574,1,4,0:0:0:0:
256,192,257874,1,0,0:0:0:0:
256,192,258174,1,8,0:0:0:0:
256,192,258474,1,8,0:0:0:0:
256,192,258524,1,8,0:0:0:0:
256,192,258574,1,8,0:0:0:0:
256,192,258624,1,8,0:0:0:0:
256,192,258674,1,8,0:0:0:0:
256,192,258774,1,0,0:0:0:0:
256,192,258874,1,8,0:0:0:0:
256,192,258974,1,8,0:0:0:0:
256,192,259074,1,0,0:0:0:0:
256,192,259224,1,8,0:0:0:0:
256,192,259374,1,8,0:0:0:0:
256,192,259524,1,0,0:0:0:0:
256,192,259674,1,0,0:0:0:0:
256,192,259824,1,8,0:0:0:0:
256,192,259974,1,4,0:0:0:0:
256,192,260274,1,0,0:0:0:0:
256,192,260574,1,0,0:0:0:0:
256,192,260724,1,0,0:0:0:0:
256,192,260874,1,8,0:0:0:0:
256,192,261024,1,8,0:0:0:0:
256,192,261174,1,0,0:0:0:0:
256,192,261474,1,0,0:0:0:0:
256,192,261774,1,8,0:0:0:0:
256,192,261924,1,0,0:0:0:0:
256,192,262074,1,8,0:0:0:0:
256,192,262224,1,8,0:0:0:0:
256,192,262374,1,4,0:0:0:0:
256,192,262674,1,0,0:0:0:0:
256,192,262974,1,8,0:0:0:0:
256,192,263124,1,0,0:0:0:0:
256,192,263199,1,8,0:0:0:0:
256,192,263274,1,8,0:0:0:0:
256,192,263424,1,8,0:0:0:0:
256,192,263574,1,4,0:0:0:0:
256,192,264024,1,4,0:0:0:0:
256,192,264474,1,12,0:0:0:0:
256,192,264774,1,4,0:0:0:0:
256,192,265074,1,0,0:0:0:0:
256,192,265374,1,8,0:0:0:0:
256,192,265524,1,0,0:0:0:0:
256,192,265674,1,0,0:0:0:0:
256,192,265824,1,8,0:0:0:0:
256,192,265974,1,0,0:0:0:0:
256,192,266274,1,0,0:0:0:0:
256,192,266574,1,8,0:0:0:0:
256,192,266724,1,0,0:0:0:0:
256,192,266874,1,8,0:0:0:0:
256,192,267024,1,8,0:0:0:0:
256,192,267174,1,4,0:0:0:0:
256,192,267474,1,0,0:0:0:0:
256,192,267774,1,8,0:0:0:0:
256,192,268074,1,8,0:0:0:0:
256,192,268124,1,8,0:0:0:0:
256,192,268174,1,8,0:0:0:0:
256,192,268224,1,8,0:0:0:0:
256,192,268274,1,8,0:0:0:0:
256,192,268374,1,8,0:0:0:0:
256,192,268474,1,8,0:0:0:0:
256,192,268574,1,0,0:0:0:0:
256,192,268674,1,8,0:0:0:0:
256,192,268824,1,8,0:0:0:0:
256,192,268974,1,8,0:0:0:0:
256,192,269124,1,0,0:0:0:0:
256,192,269274,1,0,0:0:0:0:
256,192,269424,1,8,0:0:0:0:
256,192,269574,1,4,0:0:0:0:
256,192,269874,1,0,0:0:0:0:
256,192,270174,1,0,0:0:0:0:
256,192,270324,1,0,0:0:0:0:
256,192,270474,1,8,0:0:0:0:
256,192,270624,1,8,0:0:0:0:
256,192,270774,1,0,0:0:0:0:
256,192,271074,1,0,0:0:0:0:
256,192,271374,1,8,0:0:0:0:
256,192,271524,1,0,0:0:0:0:
256,192,271674,1,8,0:0:0:0:
256,192,271824,1,8,0:0:0:0:
256,192,271974,1,4,0:0:0:0:
256,192,272274,1,0,0:0:0:0:
256,192,272574,1,8,0:0:0:0:
256,192,272724,1,0,0:0:0:0:
256,192,272799,1,8,0:0:0:0:
256,192,272874,1,8,0:0:0:0:
256,192,273024,1,8,0:0:0:0:
256,192,273174,1,12,0:0:0:0:
256,192,273774,1,4,0:0:0:0:
256,192,274374,1,12,0:0:0:0:
256,192,275574,1,0,0:0:0:0:
256,192,275874,1,0,0:0:0:0:
256,192,276774,1,4,0:0:0:0:
256,192,277074,1,0,0:0:0:0:
256,192,277374,1,0,0:0:0:0:
256,192,277974,1,8,0:0:0:0:
256,192,278124,1,0,0:0:0:0:
256,192,278274,1,0,0:0:0:0:
256,192,278574,1,0,0:0:0:0:
256,192,278874,1,0,0:0:0:0:
256,192,279174,1,0,0:0:0:0:
256,192,279249,1,8,0:0:0:0:
256,192,279324,1,8,0:0:0:0:
256,192,279399,1,0,0:0:0:0:
256,192,279474,1,8,0:0:0:0:
256,192,279549,1,0,0:0:0:0:
256,192,279624,1,8,0:0:0:0:
256,192,279699,1,8,0:0:0:0:
256,192,279774,1,0,0:0:0:0:
256,192,279924,1,0,0:0:0:0:
256,192,280074,1,8,0:0:0:0:
256,192,280149,1,8,0:0:0:0:
256,192,280224,1,0,0:0:0:0:
256,192,280299,1,0,0:0:0:0:
256,192,280374,1,8,0:0:0:0:
256,192,280524,1,0,0:0:0:0:
256,192,280674,1,8,0:0:0:0:
256,192,280824,1,0,0:0:0:0:
256,192,280974,1,12,0:0:0:0:
256,192,281124,1,0,0:0:0:0:
256,192,281274,1,8,0:0:0:0:
256,192,281424,1,0,0:0:0:0:
256,192,281574,1,8,0:0:0:0:
256,192,281649,1,8,0:0:0:0:
256,192,281724,1,0,0:0:0:0:
256,192,281874,1,8,0:0:0:0:
256,192,282024,1,0,0:0:0:0:
256,192,282174,1,12,0:0:0:0:
256,192,282324,1,0,0:0:0:0:
256,192,282474,1,0,0:0:0:0:
256,192,282624,1,0,0:0:0:0:
256,192,282774,1,8,0:0:0:0:
256,192,282924,1,0,0:0:0:0:
256,192,283074,1,8,0:0:0:0:
256,192,283224,1,0,0:0:0:0:
256,192,283374,1,8,0:0:0:0:
256,192,283449,1,8,0:0:0:0:
256,192,283524,1,0,0:0:0:0:
256,192,283674,1,8,0:0:0:0:
256,192,283824,1,0,0:0:0:0:
256,192,283974,1,0,0:0:0:0:
256,192,284124,1,8,0:0:0:0:
256,192,284199,1,8,0:0:0:0:
256,192,284274,1,8,0:0:0:0:
256,192,284424,1,8,0:0:0:0:
256,192,284574,1,0,0:0:0:0:
256,192,284724,1,8,0:0:0:0:
256,192,284874,1,0,0:0:0:0:
256,192,284949,1,8,0:0:0:0:
256,192,285024,1,0,0:0:0:0:
256,192,285099,1,0,0:0:0:0:
256,192,285174,1,8,0:0:0:0:
256,192,285249,1,0,0:0:0:0:
256,192,285324,1,8,0:0:0:0:
256,192,285399,1,8,0:0:0:0:
256,192,285474,1,0,0:0:0:0:
256,192,285549,1,0,0:0:0:0:
256,192,285624,1,0,0:0:0:0:
256,192,285699,1,0,0:0:0:0:
256,192,285774,1,8,0:0:0:0:
256,192,285849,1,0,0:0:0:0:
256,192,285924,1,8,0:0:0:0:
256,192,285999,1,8,0:0:0:0:
256,192,286074,1,8,0:0:0:0:
256,192,286149,1,0,0:0:0:0:
256,192,286224,1,8,0:0:0:0:
256,192,286299,1,0,0:0:0:0:
256,192,286374,1,8,0:0:0:0:
256,192,286449,1,8,0:0:0:0:
256,192,286524,1,8,0:0:0:0:
256,192,286599,1,8,0:0:0:0:
256,192,286674,1,0,0:0:0:0:
256,192,286749,1,0,0:0:0:0:
256,192,286824,1,8,0:0:0:0:
256,192,286899,1,0,0:0:0:0:
256,192,286974,1,8,0:0:0:0:
256,192,287049,1,8,0:0:0:0:
256,192,287124,1,0,0:0:0:0:
256,192,287199,1,0,0:0:0:0:
256,192,287274,1,8,0:0:0:0:
256,192,287349,1,0,0:0:0:0:
256,192,287424,1,8,0:0:0:0:
256,192,287499,1,8,0:0:0:0:
256,192,287574,1,8,0:0:0:0:
256,192,287649,1,8,0:0:0:0:
256,192,287724,1,0,0:0:0:0:
256,192,287799,1,0,0:0:0:0:
256,192,287874,1,8,0:0:0:0:
256,192,288024,1,0,0:0:0:0:
256,192,288174,1,8,0:0:0:0:
256,192,288324,1,0,0:0:0:0:
256,192,288474,1,0,0:0:0:0:
256,192,288624,1,8,0:0:0:0:
256,192,288774,1,0,0:0:0:0:
256,192,288924,1,0,0:0:0:0:
256,192,289074,1,8,0:0:0:0:
256,192,289224,1,0,0:0:0:0:
256,192,289374,1,0,0:0:0:0:
256,192,289524,1,8,0:0:0:0:
256,192,289674,1,0,0:0:0:0:
256,192,289824,1,0,0:0:0:0:
256,192,289974,1,8,0:0:0:0:
256,192,290124,1,0,0:0:0:0:
256,192,290274,1,0,0:0:0:0:
256,192,290424,1,8,0:0:0:0:
256,192,290574,1,8,0:0:0:0:
256,192,290724,1,8,0:0:0:0:
256,192,290874,5,8,0:0:0:0:
256,192,290949,1,8,0:0:0:0:
256,192,291024,1,0,0:0:0:0:
256,192,291099,1,0,0:0:0:0:
256,192,291174,1,8,0:0:0:0:
256,192,291249,1,8,0:0:0:0:
256,192,291324,1,8,0:0:0:0:
256,192,291399,1,8,0:0:0:0:
256,192,291474,1,8,0:0:0:0:
256,192,291549,1,8,0:0:0:0:
256,192,291624,1,0,0:0:0:0:
256,192,291699,1,0,0:0:0:0:
256,192,291774,1,8,0:0:0:0:
256,192,291849,1,8,0:0:0:0:
256,192,291924,1,0,0:0:0:0:
256,192,291999,1,0,0:0:0:0:
256,192,292074,1,8,0:0:0:0:
256,192,292149,1,0,0:0:0:0:
256,192,292224,1,8,0:0:0:0:
256,192,292299,1,8,0:0:0:0:
256,192,292374,1,8,0:0:0:0:
256,192,292449,1,0,0:0:0:0:
256,192,292524,1,8,0:0:0:0:
256,192,292599,1,0,0:0:0:0:
256,192,292674,1,8,0:0:0:0:
256,192,292749,1,8,0:0:0:0:
256,192,292824,1,0,0:0:0:0:
256,192,292899,1,0,0:0:0:0:
256,192,292974,1,8,0:0:0:0:
256,192,293049,1,8,0:0:0:0:
256,192,293124,1,8,0:0:0:0:
256,192,293199,1,8,0:0:0:0:
256,192,293274,1,0,0:0:0:0:
256,192,293349,1,0,0:0:0:0:
256,192,293424,1,0,0:0:0:0:
256,192,293499,1,0,0:0:0:0:
256,192,293574,1,8,0:0:0:0:
256,192,293649,1,0,0:0:0:0:
256,192,293724,1,0,0:0:0:0:
256,192,293799,1,0,0:0:0:0:
256,192,293874,1,0,0:0:0:0:
256,192,293949,1,0,0:0:0:0:
256,192,294024,1,0,0:0:0:0:
256,192,294099,1,0,0:0:0:0:
256,192,294174,1,8,0:0:0:0:
256,192,294249,1,0,0:0:0:0:
256,192,294324,1,0,0:0:0:0:
256,192,294399,1,0,0:0:0:0:
256,192,294474,1,0,0:0:0:0:
256,192,294549,1,0,0:0:0:0:
256,192,294624,1,0,0:0:0:0:
256,192,294699,1,0,0:0:0:0:
256,192,294774,1,8,0:0:0:0:
256,192,294849,1,0,0:0:0:0:
256,192,294924,1,0,0:0:0:0:
256,192,294999,1,0,0:0:0:0:
256,192,295074,1,8,0:0:0:0:
256,192,295149,1,8,0:0:0:0:
256,192,295224,1,0,0:0:0:0:
256,192,295299,1,0,0:0:0:0:
256,192,295374,1,8,0:0:0:0:
256,192,295449,1,8,0:0:0:0:
256,192,295524,1,8,0:0:0:0:
256,192,295599,1,8,0:0:0:0:
256,192,295674,1,0,0:0:0:0:
256,192,295749,1,0,0:0:0:0:
256,192,295824,1,0,0:0:0:0:
256,192,295899,1,0,0:0:0:0:
256,192,295974,1,8,0:0:0:0:
256,192,296049,1,0,0:0:0:0:
256,192,296124,1,8,0:0:0:0:
256,192,296199,1,0,0:0:0:0:
256,192,296274,1,0,0:0:0:0:
256,192,296349,1,0,0:0:0:0:
256,192,296424,1,8,0:0:0:0:
256,192,296499,1,0,0:0:0:0:
256,192,296574,1,8,0:0:0:0:
256,192,296649,1,8,0:0:0:0:
256,192,296724,1,8,0:0:0:0:
256,192,296799,1,8,0:0:0:0:
256,192,296874,1,0,0:0:0:0:
256,192,296949,1,0,0:0:0:0:
256,192,297024,1,0,0:0:0:0:
256,192,297099,1,0,0:0:0:0:
256,192,297174,1,8,0:0:0:0:
256,192,297249,1,8,0:0:0:0:
256,192,297324,1,0,0:0:0:0:
256,192,297399,1,0,0:0:0:0:
256,192,297474,1,8,0:0:0:0:
256,192,297549,1,0,0:0:0:0:
256,192,297624,1,8,0:0:0:0:
256,192,297699,1,0,0:0:0:0:
256,192,297774,1,8,0:0:0:0:
256,192,297849,1,8,0:0:0:0:
256,192,297924,1,8,0:0:0:0:
256,192,298074,1,4,0:0:0:0:
256,192,298374,1,8,0:0:0:0:
256,192,298449,1,8,0:0:0:0:
256,192,298524,1,0,0:0:0:0:
256,192,298599,1,0,0:0:0:0:
256,192,298674,1,8,0:0:0:0:
256,192,298749,1,0,0:0:0:0:
256,192,298824,1,0,0:0:0:0:
256,192,298899,1,0,0:0:0:0:
256,192,298974,1,8,0:0:0:0:
256,192,299049,1,8,0:0:0:0:
256,192,299124,1,0,0:0:0:0:
256,192,299199,1,0,0:0:0:0:
256,192,299274,1,8,0:0:0:0:
256,192,299349,1,0,0:0:0:0:
256,192,299424,1,0,0:0:0:0:
256,192,299499,1,0,0:0:0:0:
256,192,299574,1,8,0:0:0:0:
256,192,299649,1,8,0:0:0:0:
256,192,299724,1,0,0:0:0:0:
256,192,299799,1,0,0:0:0:0:
256,192,299874,1,8,0:0:0:0:
256,192,299949,1,0,0:0:0:0:
256,192,300024,1,0,0:0:0:0:
256,192,300099,1,0,0:0:0:0:
256,192,300174,1,8,0:0:0:0:
256,192,300249,1,8,0:0:0:0:
256,192,300324,1,8,0:0:0:0:
256,192,300399,1,8,0:0:0:0:
256,192,300474,1,0,0:0:0:0:
256,192,300624,1,0,0:0:0:0:
256,192,300774,1,8,0:0:0:0:
256,192,300924,1,0,0:0:0:0:
256,192,301074,1,0,0:0:0:0:
256,192,301224,1,0,0:0:0:0:
256,192,301374,1,12,0:0:0:0:
256,192,301524,1,0,0:0:0:0:
256,192,301599,1,0,0:0:0:0:
256,192,301674,1,8,0:0:0:0:
256,192,301749,1,8,0:0:0:0:
256,192,301824,1,0,0:0:0:0:
256,192,301899,1,0,0:0:0:0:
256,192,301974,1,0,0:0:0:0:
256,192,302049,1,0,0:0:0:0:
256,192,302124,1,8,0:0:0:0:
256,192,302199,1,8,0:0:0:0:
256,192,302274,1,0,0:0:0:0:
256,192,302349,1,0,0:0:0:0:
256,192,302424,1,0,0:0:0:0:
256,192,302499,1,0,0:0:0:0:
256,192,302574,1,8,0:0:0:0:
256,192,302649,1,8,0:0:0:0:
256,192,302724,1,8,0:0:0:0:
256,192,302799,1,8,0:0:0:0:
256,192,302874,1,0,0:0:0:0:
256,192,302949,1,0,0:0:0:0:
256,192,303024,1,0,0:0:0:0:
256,192,303099,1,0,0:0:0:0:
256,192,303174,1,8,0:0:0:0:
256,192,303249,1,0,0:0:0:0:
256,192,303324,1,0,0:0:0:0:
256,192,303399,1,0,0:0:0:0:
256,192,303474,1,0,0:0:0:0:
256,192,303549,1,0,0:0:0:0:
256,192,303624,1,0,0:0:0:0:
256,192,303699,1,0,0:0:0:0:
256,192,303774,1,8,0:0:0:0:
256,192,303849,1,0,0:0:0:0:
256,192,303924,1,8,0:0:0:0:
256,192,303999,1,8,0:0:0:0:
256,192,304074,1,8,0:0:0:0:
256,192,304149,1,0,0:0:0:0:
256,192,304224,1,0,0:0:0:0:
256,192,304299,1,0,0:0:0:0:
256,192,304374,1,8,0:0:0:0:
256,192,304449,1,0,0:0:0:0:
256,192,304524,1,8,0:0:0:0:
256,192,304599,1,8,0:0:0:0:
256,192,304674,1,0,0:0:0:0:
256,192,304749,1,0,0:0:0:0:
256,192,304824,1,0,0:0:0:0:
256,192,304899,1,0,0:0:0:0:
256,192,304974,1,8,0:0:0:0:
256,192,305049,1,0,0:0:0:0:
256,192,305124,1,0,0:0:0:0:
256,192,305199,1,0,0:0:0:0:
256,192,305274,1,8,0:0:0:0:
256,192,305349,1,8,0:0:0:0:
256,192,305424,1,0,0:0:0:0:
256,192,305499,1,0,0:0:0:0:
256,192,305574,1,8,0:0:0:0:
256,192,305649,1,0,0:0:0:0:
256,192,305724,1,0,0:0:0:0:
256,192,305799,1,0,0:0:0:0:
256,192,305874,1,8,0:0:0:0:
256,192,305949,1,8,0:0:0:0:
256,192,306024,1,0,0:0:0:0:
256,192,306099,1,0,0:0:0:0:
256,192,306174,1,8,0:0:0:0:
256,192,306249,1,0,0:0:0:0:
256,192,306324,1,8,0:0:0:0:
256,192,306399,1,0,0:0:0:0:
256,192,306474,1,8,0:0:0:0:
256,192,306549,1,8,0:0:0:0:
256,192,306624,1,0,0:0:0:0:
256,192,306774,1,12,0:0:0:0:
256,192,306924,1,0,0:0:0:0:
256,192,306999,1,8,0:0:0:0:
256,192,307074,1,0,0:0:0:0:
256,192,307149,1,8,0:0:0:0:
256,192,307224,1,0,0:0:0:0:
256,192,307374,1,12,0:0:0:0:
256,192,307674,1,8,0:0:0:0:
256,192,307749,1,0,0:0:0:0:
256,192,307824,1,0,0:0:0:0:
256,192,307899,1,0,0:0:0:0:
256,192,307974,1,8,0:0:0:0:
256,192,308049,1,0,0:0:0:0:
256,192,308124,1,0,0:0:0:0:
256,192,308199,1,0,0:0:0:0:
256,192,308274,1,8,0:0:0:0:
256,192,308349,1,0,0:0:0:0:
256,192,308424,1,0,0:0:0:0:
256,192,308499,1,0,0:0:0:0:
256,192,308574,1,8,0:0:0:0:
256,192,308649,1,0,0:0:0:0:
256,192,308724,1,8,0:0:0:0:
256,192,308799,1,8,0:0:0:0:
256,192,308874,1,8,0:0:0:0:
256,192,308949,1,0,0:0:0:0:
256,192,309024,1,0,0:0:0:0:
256,192,309099,1,0,0:0:0:0:
256,192,309174,1,8,0:0:0:0:
256,192,309249,1,0,0:0:0:0:
256,192,309324,1,0,0:0:0:0:
256,192,309399,1,0,0:0:0:0:
256,192,309474,1,8,0:0:0:0:
256,192,309549,1,8,0:0:0:0:
256,192,309624,1,0,0:0:0:0:
256,192,309699,1,0,0:0:0:0:
256,192,309774,1,8,0:0:0:0:
256,192,309849,1,8,0:0:0:0:
256,192,309924,1,8,0:0:0:0:
256,192,309999,1,8,0:0:0:0:
256,192,310074,1,0,0:0:0:0:
256,192,310224,1,8,0:0:0:0:
256,192,310374,1,8,0:0:0:0:
256,192,310524,1,8,0:0:0:0:
256,192,310674,1,8,0:0:0:0:
256,192,310824,1,8,0:0:0:0:
256,192,310974,1,8,0:0:0:0:
256,192,311124,1,8,0:0:0:0:
256,192,311274,1,8,0:0:0:0:
256,192,311424,1,8,0:0:0:0:
256,192,311574,1,8,0:0:0:0:
256,192,311724,1,8,0:0:0:0:
256,192,311874,1,8,0:0:0:0:
256,192,312024,1,8,0:0:0:0:
256,192,312174,1,8,0:0:0:0:
256,192,312324,1,8,0:0:0:0:
256,192,312474,1,4,0:0:0:0:
256,192,312774,1,8,0:0:0:0:
256,192,312849,1,8,0:0:0:0:
256,192,312924,1,8,0:0:0:0:
256,192,312999,1,8,0:0:0:0:
256,192,313074,1,8,0:0:0:0:
256,192,313149,1,8,0:0:0:0:
256,192,313224,1,8,0:0:0:0:
256,192,313299,1,8,0:0:0:0:
256,192,313374,1,0,0:0:0:0:
256,192,313449,1,8,0:0:0:0:
256,192,313524,1,0,0:0:0:0:
256,192,313599,1,8,0:0:0:0:
256,192,313674,1,0,0:0:0:0:
256,192,313749,1,8,0:0:0:0:
256,192,313824,1,8,0:0:0:0:
256,192,313899,1,8,0:0:0:0:
256,192,313974,1,8,0:0:0:0:
256,192,314049,1,8,0:0:0:0:
256,192,314124,1,8,0:0:0:0:
256,192,314274,1,4,0:0:0:0:
256,192,314424,1,8,0:0:0:0:
256,192,314499,1,8,0:0:0:0:
256,192,314574,1,8,0:0:0:0:
256,192,314649,1,8,0:0:0:0:
256,192,314724,1,8,0:0:0:0:
256,192,314874,1,4,0:0:0:0:
256,192,315024,1,8,0:0:0:0:
256,192,315099,1,8,0:0:0:0:
256,192,315174,1,8,0:0:0:0:
256,192,315249,1,8,0:0:0:0:
256,192,315324,1,8,0:0:0:0:
256,192,315474,1,12,0:0:0:0:
256,192,315774,1,8,0:0:0:0:
256,192,315849,1,8,0:0:0:0:
256,192,315924,1,8,0:0:0:0:
256,192,315999,1,8,0:0:0:0:
256,192,316074,1,8,0:0:0:0:
256,192,316149,1,8,0:0:0:0:
256,192,316224,1,8,0:0:0:0:
256,192,316299,1,8,0:0:0:0:
256,192,316374,1,8,0:0:0:0:
256,192,316449,1,8,0:0:0:0:
256,192,316524,1,8,0:0:0:0:
256,192,316599,1,8,0:0:0:0:
256,192,316674,1,8,0:0:0:0:
256,192,316749,1,8,0:0:0:0:
256,192,316824,1,8,0:0:0:0:
256,192,316899,1,8,0:0:0:0:
256,192,316974,1,0,0:0:0:0:
256,192,317124,1,0,0:0:0:0:
256,192,317274,1,4,0:0:0:0:
256,192,317574,1,8,0:0:0:0:
256,192,317649,1,8,0:0:0:0:
256,192,317724,1,8,0:0:0:0:
256,192,317799,1,8,0:0:0:0:
256,192,317874,1,8,0:0:0:0:
256,192,317949,1,8,0:0:0:0:
256,192,318024,1,8,0:0:0:0:
256,192,318099,1,8,0:0:0:0:
256,192,318174,1,0,0:0:0:0:
256,192,318249,1,8,0:0:0:0:
256,192,318324,1,0,0:0:0:0:
256,192,318399,1,8,0:0:0:0:
256,192,318474,1,0,0:0:0:0:
256,192,318549,1,8,0:0:0:0:
256,192,318624,1,8,0:0:0:0:
256,192,318699,1,8,0:0:0:0:
256,192,318774,1,8,0:0:0:0:
256,192,318849,1,8,0:0:0:0:
256,192,318924,1,8,0:0:0:0:
256,192,319074,1,4,0:0:0:0:
256,192,319374,1,8,0:0:0:0:
256,192,319449,1,8,0:0:0:0:
256,192,319524,1,0,0:0:0:0:
256,192,319599,1,0,0:0:0:0:
256,192,319674,1,8,0:0:0:0:
256,192,319974,1,0,0:0:0:0:
256,192,320049,1,0,0:0:0:0:
256,192,320124,1,0,0:0:0:0:
256,192,320199,1,0,0:0:0:0:
256,192,320274,1,8,0:0:0:0:
256,192,320574,1,0,0:0:0:0:
256,192,320724,1,8,0:0:0:0:
256,192,320799,1,8,0:0:0:0:
256,192,320874,1,8,0:0:0:0:
256,192,321024,1,8,0:0:0:0:
256,192,321099,1,8,0:0:0:0:
256,192,321174,1,8,0:0:0:0:
256,192,321249,1,8,0:0:0:0:
256,192,321324,1,8,0:0:0:0:
256,192,321474,1,8,0:0:0:0:
256,192,321624,1,0,0:0:0:0:
256,192,321774,1,0,0:0:0:0:
256,192,321924,1,0,0:0:0:0:
256,192,322074,1,12,0:0:0:0:
256,192,322374,1,0,0:0:0:0:
256,192,322524,1,0,0:0:0:0:
256,192,322674,1,8,0:0:0:0:
256,192,322824,1,0,0:0:0:0:
256,192,323124,1,8,0:0:0:0:
256,192,323274,1,0,0:0:0:0:
256,192,323574,1,0,0:0:0:0:
256,192,323874,1,8,0:0:0:0:
256,192,324174,1,0,0:0:0:0:
256,192,324474,1,0,0:0:0:0:
256,192,324774,1,0,0:0:0:0:
256,192,324924,1,0,0:0:0:0:
256,192,324999,1,0,0:0:0:0:
256,192,325074,1,8,0:0:0:0:
256,192,325224,1,0,0:0:0:0:
256,192,325524,1,8,0:0:0:0:
256,192,325674,1,0,0:0:0:0:
256,192,326124,1,0,0:0:0:0:
256,192,326274,1,8,0:0:0:0:
256,192,326424,1,0,0:0:0:0:
256,192,326574,1,0,0:0:0:0:
256,192,326724,1,8,0:0:0:0:
256,192,326874,1,4,0:0:0:0:
256,192,327174,1,8,0:0:0:0:
256,192,327249,1,8,0:0:0:0:
256,192,327324,1,8,0:0:0:0:
256,192,327474,1,8,0:0:0:0:
256,192,327624,1,0,0:0:0:0:
256,192,327924,1,8,0:0:0:0:
256,192,328074,1,0,0:0:0:0:
256,192,328374,1,0,0:0:0:0:
256,192,328674,1,8,0:0:0:0:
256,192,328974,1,0,0:0:0:0:
256,192,329274,1,0,0:0:0:0:
256,192,329724,1,8,0:0:0:0:
256,192,329874,1,8,0:0:0:0:
256,192,330324,1,8,0:0:0:0:
256,192,330774,1,0,0:0:0:0:
256,192,331074,1,8,0:0:0:0:
256,192,331374,1,0,0:0:0:0:
256,192,331524,1,8,0:0:0:0:
256,192,331674,1,4,0:0:0:0:
256,192,331974,1,8,0:0:0:0:
256,192,332124,1,8,0:0:0:0:
256,192,332274,1,8,0:0:0:0:
256,192,332574,1,0,0:0:0:0:
256,192,332724,1,8,0:0:0:0:
256,192,332874,1,0,0:0:0:0:
256,192,333474,1,8,0:0:0:0:
256,192,333774,1,0,0:0:0:0:
256,192,333924,1,0,0:0:0:0:
256,192,334074,1,0,0:0:0:0:
256,192,334374,1,0,0:0:0:0:
256,192,334524,1,8,0:0:0:0:
256,192,334674,1,8,0:0:0:0:
256,192,334974,1,0,0:0:0:0:
256,192,335124,1,8,0:0:0:0:
256,192,335274,1,0,0:0:0:0:
256,192,335574,1,0,0:0:0:0:
256,192,335874,1,8,0:0:0:0:
256,192,336324,1,0,0:0:0:0:
256,192,336474,1,12,0:0:0:0:
256,192,336624,1,8,0:0:0:0:
256,192,336774,1,8,0:0:0:0:
256,192,336924,1,8,0:0:0:0:
256,192,337074,1,8,0:0:0:0:
256,192,337224,1,8,0:0:0:0:
256,192,337374,1,8,0:0:0:0:
256,192,337524,1,8,0:0:0:0:
256,192,337674,1,8,0:0:0:0:
256,192,337824,1,8,0:0:0:0:
256,192,337974,1,8,0:0:0:0:
256,192,338124,1,8,0:0:0:0:
256,192,338274,1,8,0:0:0:0:
256,192,338424,1,8,0:0:0:0:
256,192,338574,1,8,0:0:0:0:
256,192,338724,1,8,0:0:0:0:
256,192,338874,1,4,0:0:0:0:
256,192,339174,1,0,0:0:0:0:
256,192,339324,1,12,0:0:0:0:
256,192,339624,1,0,0:0:0:0:
256,192,339699,1,0,0:0:0:0:
256,192,339774,1,8,0:0:0:0:
256,192,339924,1,0,0:0:0:0:
256,192,340074,5,8,0:0:0:0:
256,192,340149,1,8,0:0:0:0:
256,192,340224,1,8,0:0:0:0:
256,192,340299,1,8,0:0:0:0:
256,192,340374,1,8,0:0:0:0:
256,192,340449,1,8,0:0:0:0:
256,192,340524,1,8,0:0:0:0:
256,192,340599,1,8,0:0:0:0:
256,192,340674,1,8,0:0:0:0:
256,192,340749,1,8,0:0:0:0:
256,192,340824,1,0,0:0:0:0:
256,192,340899,1,0,0:0:0:0:
256,192,340974,1,8,0:0:0:0:
256,192,341049,1,8,0:0:0:0:
256,192,341124,1,8,0:0:0:0:
256,192,341199,1,8,0:0:0:0:
256,192,341274,1,0,0:0:0:0:
256,192,341349,1,0,0:0:0:0:
256,192,341424,1,0,0:0:0:0:
256,192,341499,1,0,0:0:0:0:
256,192,341574,1,8,0:0:0:0:
256,192,341649,1,0,0:0:0:0:
256,192,341724,1,8,0:0:0:0:
256,192,341799,1,0,0:0:0:0:
256,192,341874,1,0,0:0:0:0:
256,192,341949,1,0,0:0:0:0:
256,192,342024,1,8,0:0:0:0:
256,192,342099,1,0,0:0:0:0:
256,192,342174,1,8,0:0:0:0:
256,192,342249,1,8,0:0:0:0:
256,192,342324,1,0,0:0:0:0:
256,192,342399,1,0,0:0:0:0:
256,192,342474,1,8,0:0:0:0:
256,192,342549,1,0,0:0:0:0:
256,192,342624,1,0,0:0:0:0:
256,192,342699,1,8,0:0:0:0:
256,192,342774,1,8,0:0:0:0:
256,192,342849,1,0,0:0:0:0:
256,192,342924,1,8,0:0:0:0:
256,192,342999,1,0,0:0:0:0:
256,192,343074,1,0,0:0:0:0:
256,192,343149,1,0,0:0:0:0:
256,192,343224,1,8,0:0:0:0:
256,192,343299,1,0,0:0:0:0:
256,192,343374,1,8,0:0:0:0:
256,192,343449,1,8,0:0:0:0:
256,192,343524,1,8,0:0:0:0:
256,192,343599,1,8,0:0:0:0:
256,192,343674,1,0,0:0:0:0:
256,192,343749,1,0,0:0:0:0:
256,192,343824,1,8,0:0:0:0:
256,192,343899,1,0,0:0:0:0:
256,192,343974,1,8,0:0:0:0:
256,192,344049,1,0,0:0:0:0:
256,192,344124,1,0,0:0:0:0:
256,192,344199,1,0,0:0:0:0:
256,192,344274,1,8,0:0:0:0:
256,192,344349,1,8,0:0:0:0:
256,192,344424,1,0,0:0:0:0:
256,192,344499,1,0,0:0:0:0:
256,192,344574,1,8,0:0:0:0:
256,192,344649,1,0,0:0:0:0:
256,192,344724,1,8,0:0:0:0:
256,192,344799,1,0,0:0:0:0:
256,192,344874,1,0,0:0:0:0:
256,192,344949,1,0,0:0:0:0:
256,192,345024,1,8,0:0:0:0:
256,192,345099,1,8,0:0:0:0:
256,192,345174,1,8,0:0:0:0:
256,192,345249,1,0,0:0:0:0:
256,192,345324,1,8,0:0:0:0:
256,192,345399,1,0,0:0:0:0:
256,192,345474,1,8,0:0:0:0:
256,192,345549,1,0,0:0:0:0:
256,192,345624,1,8,0:0:0:0:
256,192,345699,1,8,0:0:0:0:
256,192,345774,1,8,0:0:0:0:
256,192,345849,1,8,0:0:0:0:
256,192,345924,1,0,0:0:0:0:
256,192,345999,1,0,0:0:0:0:
256,192,346074,1,8,0:0:0:0:
256,192,346149,1,0,0:0:0:0:
256,192,346224,1,0,0:0:0:0:
256,192,346299,1,0,0:0:0:0:
256,192,346374,1,8,0:0:0:0:
256,192,346449,1,0,0:0:0:0:
256,192,346524,1,8,0:0:0:0:
256,192,346599,1,0,0:0:0:0:
256,192,346674,1,0,0:0:0:0:
256,192,346749,1,0,0:0:0:0:
256,192,346824,1,8,0:0:0:0:
256,192,346899,1,0,0:0:0:0:
256,192,346974,1,8,0:0:0:0:
256,192,347049,1,8,0:0:0:0:
256,192,347124,1,0,0:0:0:0:
256,192,347199,1,0,0:0:0:0:
256,192,347274,1,8,0:0:0:0:
256,192,347349,1,0,0:0:0:0:
256,192,347424,1,0,0:0:0:0:
256,192,347499,1,8,0:0:0:0:
256,192,347574,1,8,0:0:0:0:
256,192,347649,1,0,0:0:0:0:
256,192,347724,1,8,0:0:0:0:
256,192,347799,1,0,0:0:0:0:
256,192,347874,1,0,0:0:0:0:
256,192,347949,1,0,0:0:0:0:
256,192,348024,1,8,0:0:0:0:
256,192,348099,1,0,0:0:0:0:
256,192,348174,1,8,0:0:0:0:
256,192,348249,1,8,0:0:0:0:
256,192,348324,1,8,0:0:0:0:
256,192,348399,1,8,0:0:0:0:
256,192,348474,1,0,0:0:0:0:
256,192,348549,1,0,0:0:0:0:
256,192,348624,1,8,0:0:0:0:
256,192,348699,1,0,0:0:0:0:
256,192,348774,1,8,0:0:0:0:
256,192,348849,1,0,0:0:0:0:
256,192,348924,1,0,0:0:0:0:
256,192,348999,1,0,0:0:0:0:
256,192,349074,1,8,0:0:0:0:
256,192,349149,1,8,0:0:0:0:
256,192,349224,1,0,0:0:0:0:
256,192,349299,1,0,0:0:0:0:
256,192,349374,1,8,0:0:0:0:
256,192,349449,1,0,0:0:0:0:
256,192,349524,1,8,0:0:0:0:
256,192,349599,1,0,0:0:0:0:
256,192,349674,1,0,0:0:0:0:
256,192,349749,1,0,0:0:0:0:
256,192,349824,1,8,0:0:0:0:
256,192,349899,1,8,0:0:0:0:
256,192,349974,1,8,0:0:0:0:
256,192,350049,1,0,0:0:0:0:
256,192,350124,1,8,0:0:0:0:
256,192,350199,1,0,0:0:0:0:
256,192,350274,1,8,0:0:0:0:
256,192,350349,1,8,0:0:0:0:
256,192,350424,1,0,0:0:0:0:
256,192,350499,1,0,0:0:0:0:
256,192,350574,1,8,0:0:0:0:
256,192,350649,1,8,0:0:0:0:
256,192,350724,1,8,0:0:0:0:
256,192,350799,1,8,0:0:0:0:
256,192,350874,1,0,0:0:0:0:
256,192,350949,1,0,0:0:0:0:
256,192,351024,1,0,0:0:0:0:
256,192,351099,1,0,0:0:0:0:
256,192,351174,1,8,0:0:0:0:
256,192,351249,1,0,0:0:0:0:
256,192,351324,1,0,0:0:0:0:
256,192,351399,1,0,0:0:0:0:
256,192,351474,1,8,0:0:0:0:
256,192,351549,1,0,0:0:0:0:
256,192,351624,1,0,0:0:0:0:
256,192,351699,1,8,0:0:0:0:
256,192,351774,1,8,0:0:0:0:
256,192,351849,1,0,0:0:0:0:
256,192,351924,1,8,0:0:0:0:
256,192,351999,1,0,0:0:0:0:
256,192,352074,1,0,0:0:0:0:
256,192,352149,1,0,0:0:0:0:
256,192,352224,1,8,0:0:0:0:
256,192,352299,1,0,0:0:0:0:
256,192,352374,1,8,0:0:0:0:
256,192,352449,1,8,0:0:0:0:
256,192,352524,1,0,0:0:0:0:
256,192,352599,1,0,0:0:0:0:
256,192,352674,1,8,0:0:0:0:
256,192,352749,1,0,0:0:0:0:
256,192,352824,1,0,0:0:0:0:
256,192,352899,1,8,0:0:0:0:
256,192,352974,1,8,0:0:0:0:
256,192,353049,1,0,0:0:0:0:
256,192,353124,1,8,0:0:0:0:
256,192,353199,1,8,0:0:0:0:
256,192,353274,1,8,0:0:0:0:
256,192,353349,1,0,0:0:0:0:
256,192,353424,1,0,0:0:0:0:
256,192,353499,1,0,0:0:0:0:
256,192,353574,1,8,0:0:0:0:
256,192,353649,1,0,0:0:0:0:
256,192,353724,1,8,0:0:0:0:
256,192,353799,1,0,0:0:0:0:
256,192,353874,1,8,0:0:0:0:
256,192,353949,1,8,0:0:0:0:
256,192,354024,1,0,0:0:0:0:
256,192,354099,1,8,0:0:0:0:
256,192,354174,1,8,0:0:0:0:
256,192,354249,1,0,0:0:0:0:
256,192,354324,1,8,0:0:0:0:
256,192,354399,1,8,0:0:0:0:
256,192,354474,1,8,0:0:0:0:
256,192,354549,1,0,0:0:0:0:
256,192,354624,1,0,0:0:0:0:
256,192,354699,1,0,0:0:0:0:
256,192,354774,1,8,0:0:0:0:
256,192,354849,1,0,0:0:0:0:
256,192,354924,1,8,0:0:0:0:
256,192,354999,1,8,0:0:0:0:
256,192,355074,1,0,0:0:0:0:
256,192,355149,1,0,0:0:0:0:
256,192,355224,1,8,0:0:0:0:
256,192,355299,1,0,0:0:0:0:
256,192,355374,1,8,0:0:0:0:
256,192,355449,1,8,0:0:0:0:
256,192,355524,1,8,0:0:0:0:
256,192,355599,1,8,0:0:0:0:
256,192,355674,1,0,0:0:0:0:
256,192,355749,1,0,0:0:0:0:
256,192,355824,1,0,0:0:0:0:
256,192,355899,1,0,0:0:0:0:
256,192,355974,1,8,0:0:0:0:
256,192,356049,1,0,0:0:0:0:
256,192,356124,1,0,0:0:0:0:
256,192,356199,1,0,0:0:0:0:
256,192,356274,1,8,0:0:0:0:
256,192,356349,1,0,0:0:0:0:
256,192,356424,1,8,0:0:0:0:
256,192,356499,1,8,0:0:0:0:
256,192,356574,1,8,0:0:0:0:
256,192,356649,1,0,0:0:0:0:
256,192,356724,1,8,0:0:0:0:
256,192,356799,1,0,0:0:0:0:
256,192,356874,1,0,0:0:0:0:
256,192,356949,1,0,0:0:0:0:
256,192,357024,1,8,0:0:0:0:
256,192,357099,1,0,0:0:0:0:
256,192,357174,1,8,0:0:0:0:
256,192,357249,1,0,0:0:0:0:
256,192,357324,1,0,0:0:0:0:
256,192,357399,1,0,0:0:0:0:
256,192,357474,1,8,0:0:0:0:
256,192,357549,1,8,0:0:0:0:
256,192,357624,1,0,0:0:0:0:
256,192,357774,1,12,0:0:0:0:
256,192,358074,5,8,0:0:0:0:
256,192,358124,1,0,0:0:0:0:
256,192,358174,1,0,0:0:0:0:
256,192,358224,1,0,0:0:0:0:
256,192,358274,1,0,0:0:0:0:
256,192,358324,1,0,0:0:0:0:
256,192,358374,1,8,0:0:0:0:
256,192,358424,1,0,0:0:0:0:
256,192,358474,1,0,0:0:0:0:
256,192,358524,1,8,0:0:0:0:
256,192,358574,1,0,0:0:0:0:
256,192,358624,1,0,0:0:0:0:
256,192,358674,1,0,0:0:0:0:
256,192,358724,1,0,0:0:0:0:
256,192,358774,1,0,0:0:0:0:
256,192,358824,1,8,0:0:0:0:
256,192,358874,1,0,0:0:0:0:
256,192,358924,1,0,0:0:0:0:
256,192,358974,1,8,0:0:0:0:
256,192,359024,1,8,0:0:0:0:
256,192,359074,1,8,0:0:0:0:
256,192,359124,1,0,0:0:0:0:
256,192,359174,1,0,0:0:0:0:
256,192,359224,1,0,0:0:0:0:
256,192,359274,1,8,0:0:0:0:
256,192,359424,1,8,0:0:0:0:
256,192,359574,1,8,0:0:0:0:
256,192,360474,5,0,0:0:0:0:
256,192,360549,1,0,0:0:0:0:
256,192,360624,1,0,0:0:0:0:
256,192,360699,1,0,0:0:0:0:
256,192,360774,1,8,0:0:0:0:
256,192,360849,1,0,0:0:0:0:
256,192,360924,1,0,0:0:0:0:
256,192,360999,1,0,0:0:0:0:
256,192,361074,1,8,0:0:0:0:
256,192,361149,1,8,0:0:0:0:
256,192,361224,1,0,0:0:0:0:
256,192,361299,1,0,0:0:0:0:
256,192,361374,1,8,0:0:0:0:
256,192,361449,1,0,0:0:0:0:
256,192,361524,1,8,0:0:0:0:
256,192,361599,1,8,0:0:0:0:
256,192,361674,1,0,0:0:0:0:
256,192,361749,1,0,0:0:0:0:
256,192,361824,1,0,0:0:0:0:
256,192,361899,1,0,0:0:0:0:
256,192,361974,1,8,0:0:0:0:
256,192,362049,1,0,0:0:0:0:
256,192,362124,1,0,0:0:0:0:
256,192,362199,1,0,0:0:0:0:
256,192,362274,1,8,0:0:0:0:
256,192,362349,1,8,0:0:0:0:
256,192,362424,1,0,0:0:0:0:
256,192,362499,1,0,0:0:0:0:
256,192,362574,1,8,0:0:0:0:
256,192,362649,1,8,0:0:0:0:
256,192,362724,1,8,0:0:0:0:
256,192,362799,1,8,0:0:0:0:
256,192,362874,1,0,0:0:0:0:
256,192,362949,1,0,0:0:0:0:
256,192,363024,1,0,0:0:0:0:
256,192,363099,1,0,0:0:0:0:
256,192,363174,1,8,0:0:0:0:
256,192,363249,1,0,0:0:0:0:
256,192,363324,1,0,0:0:0:0:
256,192,363399,1,0,0:0:0:0:
256,192,363474,1,8,0:0:0:0:
256,192,363549,1,8,0:0:0:0:
256,192,363624,1,0,0:0:0:0:
256,192,363699,1,0,0:0:0:0:
256,192,363774,1,8,0:0:0:0:
256,192,363849,1,0,0:0:0:0:
256,192,363924,1,8,0:0:0:0:
256,192,363999,1,8,0:0:0:0:
256,192,364074,1,8,0:0:0:0:
256,192,364149,1,0,0:0:0:0:
256,192,364224,1,0,0:0:0:0:
256,192,364299,1,0,0:0:0:0:
256,192,364374,1,8,0:0:0:0:
256,192,364449,1,0,0:0:0:0:
256,192,364524,1,0,0:0:0:0:
256,192,364599,1,0,0:0:0:0:
256,192,364674,1,8,0:0:0:0:
256,192,364749,1,8,0:0:0:0:
256,192,364824,1,0,0:0:0:0:
256,192,364899,1,0,0:0:0:0:
256,192,364974,1,8,0:0:0:0:
256,192,365049,1,8,0:0:0:0:
256,192,365124,1,8,0:0:0:0:
256,192,365199,1,8,0:0:0:0:
256,192,365274,1,0,0:0:0:0:
256,192,365349,1,0,0:0:0:0:
256,192,365424,1,0,0:0:0:0:
256,192,365499,1,0,0:0:0:0:
256,192,365574,1,8,0:0:0:0:
256,192,365649,1,0,0:0:0:0:
256,192,365724,1,0,0:0:0:0:
256,192,365799,1,0,0:0:0:0:
256,192,365874,1,8,0:0:0:0:
256,192,365949,1,8,0:0:0:0:
256,192,366024,1,0,0:0:0:0:
256,192,366099,1,0,0:0:0:0:
256,192,366174,1,8,0:0:0:0:
256,192,366249,1,0,0:0:0:0:
256,192,366324,1,8,0:0:0:0:
256,192,366399,1,8,0:0:0:0:
256,192,366474,1,0,0:0:0:0:
256,192,366549,1,0,0:0:0:0:
256,192,366624,1,0,0:0:0:0:
256,192,366699,1,0,0:0:0:0:
256,192,366774,1,8,0:0:0:0:
256,192,366849,1,0,0:0:0:0:
256,192,366924,1,0,0:0:0:0:
256,192,366999,1,0,0:0:0:0:
256,192,367074,1,8,0:0:0:0:
256,192,367149,1,8,0:0:0:0:
256,192,367224,1,0,0:0:0:0:
256,192,367299,1,0,0:0:0:0:
256,192,367374,1,8,0:0:0:0:
256,192,367449,1,0,0:0:0:0:
256,192,367524,1,8,0:0:0:0:
256,192,367599,1,8,0:0:0:0:
256,192,367674,1,8,0:0:0:0:
256,192,367749,1,0,0:0:0:0:
256,192,367824,1,0,0:0:0:0:
256,192,367899,1,0,0:0:0:0:
256,192,367974,1,8,0:0:0:0:
256,192,368049,1,0,0:0:0:0:
256,192,368124,1,0,0:0:0:0:
256,192,368199,1,0,0:0:0:0:
256,192,368274,1,8,0:0:0:0:
256,192,368349,1,8,0:0:0:0:
256,192,368424,1,0,0:0:0:0:
256,192,368499,1,0,0:0:0:0:
256,192,368574,1,8,0:0:0:0:
256,192,368649,1,0,0:0:0:0:
256,192,368724,1,8,0:0:0:0:
256,192,368799,1,0,0:0:0:0:
256,192,368874,1,0,0:0:0:0:
256,192,368949,1,0,0:0:0:0:
256,192,369024,1,0,0:0:0:0:
256,192,369099,1,0,0:0:0:0:
256,192,369174,1,8,0:0:0:0:
256,192,369249,1,0,0:0:0:0:
256,192,369324,1,0,0:0:0:0:
256,192,369399,1,0,0:0:0:0:
256,192,369474,1,8,0:0:0:0:
256,192,369549,1,8,0:0:0:0:
256,192,369624,1,0,0:0:0:0:
256,192,369699,1,0,0:0:0:0:
256,192,369774,1,8,0:0:0:0:
256,192,369849,1,8,0:0:0:0:
256,192,369924,1,8,0:0:0:0:
256,192,369999,1,8,0:0:0:0:
256,192,370074,1,0,0:0:0:0:
256,192,370149,1,0,0:0:0:0:
256,192,370224,1,0,0:0:0:0:
256,192,370299,1,0,0:0:0:0:
256,192,370374,1,8,0:0:0:0:
256,192,370449,1,0,0:0:0:0:
256,192,370524,1,0,0:0:0:0:
256,192,370599,1,0,0:0:0:0:
256,192,370674,1,8,0:0:0:0:
256,192,370749,1,8,0:0:0:0:
256,192,370824,1,0,0:0:0:0:
256,192,370899,1,0,0:0:0:0:
256,192,370974,1,8,0:0:0:0:
256,192,371049,1,0,0:0:0:0:
256,192,371124,1,8,0:0:0:0:
256,192,371199,1,8,0:0:0:0:
256,192,371274,1,8,0:0:0:0:
256,192,371349,1,0,0:0:0:0:
256,192,371424,1,0,0:0:0:0:
256,192,371499,1,0,0:0:0:0:
256,192,371574,1,8,0:0:0:0:
256,192,371649,1,8,0:0:0:0:
256,192,371724,1,0,0:0:0:0:
256,192,371799,1,0,0:0:0:0:
256,192,371874,1,8,0:0:0:0:
256,192,371949,1,8,0:0:0:0:
256,192,372024,1,0,0:0:0:0:
256,192,372099,1,0,0:0:0:0:
256,192,372174,1,8,0:0:0:0:
256,192,372249,1,0,0:0:0:0:
256,192,372324,1,8,0:0:0:0:
256,192,372399,1,8,0:0:0:0:
256,192,372474,1,8,0:0:0:0:
256,192,372549,1,0,0:0:0:0:
256,192,372624,1,0,0:0:0:0:
256,192,372699,1,0,0:0:0:0:
256,192,372774,1,8,0:0:0:0:
256,192,372849,1,8,0:0:0:0:
256,192,372924,1,0,0:0:0:0:
256,192,372999,1,0,0:0:0:0:
256,192,373074,1,8,0:0:0:0:
256,192,373149,1,8,0:0:0:0:
256,192,373224,1,0,0:0:0:0:
256,192,373299,1,0,0:0:0:0:
256,192,373374,1,8,0:0:0:0:
256,192,373449,1,0,0:0:0:0:
256,192,373524,1,8,0:0:0:0:
256,192,373599,1,8,0:0:0:0:
256,192,373674,1,8,0:0:0:0:
256,192,373749,1,0,0:0:0:0:
256,192,373824,1,0,0:0:0:0:
256,192,373899,1,0,0:0:0:0:
256,192,373974,1,8,0:0:0:0:
256,192,374049,1,8,0:0:0:0:
256,192,374124,1,0,0:0:0:0:
256,192,374199,1,0,0:0:0:0:
256,192,374274,1,8,0:0:0:0:
256,192,374349,1,8,0:0:0:0:
256,192,374424,1,0,0:0:0:0:
256,192,374499,1,0,0:0:0:0:
256,192,374574,1,8,0:0:0:0:
256,192,374649,1,0,0:0:0:0:
256,192,374724,1,8,0:0:0:0:
256,192,374799,1,8,0:0:0:0:
256,192,374874,1,8,0:0:0:0:
256,192,374974,1,8,0:0:0:0:
256,192,375074,1,0,0:0:0:0:
256,192,375174,1,0,0:0:0:0:
256,192,375274,1,0,0:0:0:0:
256,192,375374,1,0,0:0:0:0:
256,192,375474,1,8,0:0:0:0:
256,192,375574,1,8,0:0:0:0:
256,192,375674,1,0,0:0:0:0:
256,192,375774,1,8,0:0:0:0:
256,192,375874,1,8,0:0:0:0:
256,192,375974,1,0,0:0:0:0:
256,192,376074,1,12,0:0:0:0:
256,192,376224,1,0,0:0:0:0:
256,192,376374,1,0,0:0:0:0:
256,192,376524,1,12,0:0:0:0:
256,192,376674,1,0,0:0:0:0:
256,192,376824,1,0,0:0:0:0:
256,192,376974,1,12,0:0:0:0:
256,192,377124,1,0,0:0:0:0:
256,192,377274,1,0,0:0:0:0:
256,192,377424,1,12,0:0:0:0:
256,192,377574,1,0,0:0:0:0:
256,192,377724,1,0,0:0:0:0:
256,192,377874,1,8,0:0:0:0:
256,192,378024,1,8,0:0:0:0:
256,192,378174,1,8,0:0:0:0:
256,192,378324,1,4,0:0:0:0:
256,192,378474,12,0,379674,0:0:0:0:
