osu file format v14

[General]
AudioFilename: (+1)BREAKIN' electronic.mp3
AudioLeadIn: 0
PreviewTime: 11889
Countdown: 0
SampleSet: Normal
StackLeniency: 0.7
Mode: 1
LetterboxInBreaks: 0
WidescreenStoryboard: 1

[Editor]
DistanceSpacing: 1
BeatDivisor: 4
GridSize: 8
TimelineZoom: 2.8

[Metadata]
Title:BREAKIN' Electronic
TitleUnicode:BREAKIN' Electronic
Artist:Rekii
ArtistUnicode:れきい
Creator:monkeydluffy3u4
Version:Oni
Source:
Tags:
BeatmapID:516703
BeatmapSetID:203793

[Difficulty]
HPDrainRate:5
CircleSize:5
OverallDifficulty:5
ApproachRate:5
SliderMultiplier:1.6
SliderTickRate:2

[Events]
//Background and Video events
0,0,"Breakinnn''.PNG",0,0
//Break Periods
//Storyboard Layer 0 (Background)
//Storyboard Layer 1 (Fail)
//Storyboard Layer 2 (Pass)
//Storyboard Layer 3 (Foreground)
//Storyboard Sound Samples

[TimingPoints]
1,333.333333333333,4,1,0,100,1,0
1334,-100,4,1,0,63,0,0
10667,-100,4,1,0,50,0,0
12000,-100,4,1,0,63,0,0
21334,-100,4,1,0,50,0,0
22667,-100,4,1,0,63,0,0
32000,-100,4,1,0,54,0,0
33000,-100,4,1,0,63,0,0
33334,-100,4,1,0,63,0,0
44000,-100,4,1,0,63,0,0
54667,-100,4,1,0,63,0,0
65334,-100,4,1,0,63,0,0
76000,-100,4,1,0,73,0,1
89000,-100,4,1,0,73,0,0

[Colours]
Combo1 : 255,255,255
Combo2 : 255,255,255

[HitObjects]
104,88,1,5,0,0:0:0:0:
104,96,167,1,8,0:0:0:0:
104,96,334,1,0,0:0:0:0:
104,96,500,1,8,0:0:0:0:
104,96,667,1,0,0:0:0:0:
104,96,1000,1,12,0:0:0:0:
104,96,1334,1,0,0:0:0:0:
104,96,1500,1,0,0:0:0:0:
104,96,1667,1,8,0:0:0:0:
104,96,1834,1,0,0:0:0:0:
104,96,2000,1,0,0:0:0:0:
104,96,2167,1,0,0:0:0:0:
104,96,2334,1,8,0:0:0:0:
104,96,2500,1,0,0:0:0:0:
104,96,2667,1,0,0:0:0:0:
104,96,2834,1,8,0:0:0:0:
104,96,3000,1,8,0:0:0:0:
104,96,3167,1,0,0:0:0:0:
104,96,3334,1,0,0:0:0:0:
104,96,3500,1,8,0:0:0:0:
104,96,3667,1,8,0:0:0:0:
104,96,3834,1,0,0:0:0:0:
104,96,4000,1,0,0:0:0:0:
104,96,4167,1,8,0:0:0:0:
104,96,4334,1,8,0:0:0:0:
104,96,4500,1,8,0:0:0:0:
104,96,4667,1,0,0:0:0:0:
104,96,4834,1,8,0:0:0:0:
104,96,5000,1,8,0:0:0:0:
104,96,5167,1,8,0:0:0:0:
104,96,5334,1,0,0:0:0:0:
104,96,5500,1,0,0:0:0:0:
104,96,5667,1,8,0:0:0:0:
104,96,5834,1,0,0:0:0:0:
104,96,6000,1,0,0:0:0:0:
104,96,6167,1,8,0:0:0:0:
104,96,6334,1,8,0:0:0:0:
104,96,6500,1,0,0:0:0:0:
104,96,6667,1,0,0:0:0:0:
104,96,6834,1,0,0:0:0:0:
104,96,7000,1,8,0:0:0:0:
104,96,7167,1,0,0:0:0:0:
104,96,7334,1,8,0:0:0:0:
104,96,7500,1,0,0:0:0:0:
104,96,7667,1,8,0:0:0:0:
104,96,7834,1,8,0:0:0:0:
104,96,8000,1,0,0:0:0:0:
104,96,8167,1,0,0:0:0:0:
104,96,8334,1,8,0:0:0:0:
104,96,8500,1,0,0:0:0:0:
104,96,8667,1,8,0:0:0:0:
104,96,8834,1,0,0:0:0:0:
104,96,9000,1,8,0:0:0:0:
104,96,9167,1,8,0:0:0:0:
104,96,9334,1,0,0:0:0:0:
104,96,9500,1,8,0:0:0:0:
104,96,9667,1,8,0:0:0:0:
104,96,9834,1,0,0:0:0:0:
104,96,10000,1,8,0:0:0:0:
104,96,10167,1,8,0:0:0:0:
104,96,10334,1,0,0:0:0:0:
104,96,10500,1,8,0:0:0:0:
104,96,10667,2,0,B|112:88|112:96|104:88|104:88|96:96|96:88|88:96|88:96|88:88|88:88|104:104|104:112|96:112|88:120,3,80,0|0|0|0,0:0|0:0|0:0|0:0,0:0:0:0:
96,104,11334,1,0,0:0:0:0:
96,104,11667,1,12,0:0:0:0:
96,96,12000,1,0,0:0:0:0:
96,96,12167,1,0,0:0:0:0:
96,96,12334,1,8,0:0:0:0:
96,96,12500,1,0,0:0:0:0:
96,96,12667,1,0,0:0:0:0:
96,96,12834,1,0,0:0:0:0:
96,96,13000,1,8,0:0:0:0:
96,96,13167,1,0,0:0:0:0:
96,96,13250,1,0,0:0:0:0:
96,96,13334,1,0,0:0:0:0:
96,96,13500,1,8,0:0:0:0:
96,96,13667,1,8,0:0:0:0:
96,96,13834,1,0,0:0:0:0:
96,96,14000,1,0,0:0:0:0:
96,96,14167,1,0,0:0:0:0:
96,96,14334,1,8,0:0:0:0:
96,96,14500,1,8,0:0:0:0:
96,96,14584,1,8,0:0:0:0:
96,96,14667,1,0,0:0:0:0:
96,96,14834,1,8,0:0:0:0:
96,96,15000,1,8,0:0:0:0:
96,96,15167,1,0,0:0:0:0:
96,96,15334,1,0,0:0:0:0:
96,96,15500,1,8,0:0:0:0:
96,96,15667,1,8,0:0:0:0:
96,96,15834,1,0,0:0:0:0:
96,96,15917,1,0,0:0:0:0:
96,96,16000,1,0,0:0:0:0:
96,96,16167,1,0,0:0:0:0:
96,96,16334,1,8,0:0:0:0:
96,96,16500,1,0,0:0:0:0:
96,96,16584,1,0,0:0:0:0:
96,96,16667,1,0,0:0:0:0:
96,96,16834,1,8,0:0:0:0:
96,96,17000,1,8,0:0:0:0:
96,96,17167,1,8,0:0:0:0:
96,96,17250,1,8,0:0:0:0:
96,96,17334,1,0,0:0:0:0:
96,96,17500,1,0,0:0:0:0:
96,96,17667,1,8,0:0:0:0:
96,96,17834,1,0,0:0:0:0:
96,96,18000,1,8,0:0:0:0:
96,96,18167,1,8,0:0:0:0:
96,96,18250,1,8,0:0:0:0:
96,96,18334,1,0,0:0:0:0:
96,96,18500,1,8,0:0:0:0:
96,96,18667,1,0,0:0:0:0:
96,96,18834,1,0,0:0:0:0:
96,96,19000,1,8,0:0:0:0:
96,96,19167,1,0,0:0:0:0:
96,96,19334,1,8,0:0:0:0:
96,96,19500,1,8,0:0:0:0:
96,96,19584,1,8,0:0:0:0:
96,96,19667,1,0,0:0:0:0:
96,96,19834,1,8,0:0:0:0:
96,96,20000,1,0,0:0:0:0:
88,96,20167,1,0,0:0:0:0:
88,96,20334,1,8,0:0:0:0:
88,96,20500,1,0,0:0:0:0:
88,96,20584,1,0,0:0:0:0:
88,96,20667,1,8,0:0:0:0:
88,96,20834,1,0,0:0:0:0:
88,96,20917,1,0,0:0:0:0:
88,96,21000,1,8,0:0:0:0:
88,96,21167,1,8,0:0:0:0:
104,96,21334,2,0,B|112:88|112:96|104:88|104:88|96:96|96:88|88:96|88:96|88:88|88:88|104:104|104:112|96:112|88:120,3,80,0|0|0|0,0:0|0:0|0:0|0:0,0:0:0:0:
96,96,22000,1,0,0:0:0:0:
96,96,22334,1,12,0:0:0:0:
96,96,22667,1,0,0:0:0:0:
96,96,23000,1,8,0:0:0:0:
96,96,23334,1,0,0:0:0:0:
96,96,23500,1,0,0:0:0:0:
96,96,23667,1,8,0:0:0:0:
96,96,23834,1,0,0:0:0:0:
96,96,24000,1,0,0:0:0:0:
96,96,24334,1,8,0:0:0:0:
88,96,24667,1,0,0:0:0:0:
96,96,24834,1,0,0:0:0:0:
96,96,25000,1,8,0:0:0:0:
96,96,25167,1,8,0:0:0:0:
96,96,25250,1,8,0:0:0:0:
96,96,25334,1,0,0:0:0:0:
96,96,25667,1,8,0:0:0:0:
96,96,26000,1,0,0:0:0:0:
96,96,26167,1,0,0:0:0:0:
96,96,26334,1,8,0:0:0:0:
96,96,26500,1,0,0:0:0:0:
96,96,26667,1,0,0:0:0:0:
96,96,27000,1,8,0:0:0:0:
96,96,27334,1,0,0:0:0:0:
96,96,27500,1,0,0:0:0:0:
96,96,27667,1,8,0:0:0:0:
96,96,27834,1,8,0:0:0:0:
96,96,27917,1,8,0:0:0:0:
96,96,28000,1,0,0:0:0:0:
96,96,28334,1,8,0:0:0:0:
96,96,28584,1,8,0:0:0:0:
96,96,28667,1,0,0:0:0:0:
96,96,28834,1,0,0:0:0:0:
96,96,29000,1,8,0:0:0:0:
96,96,29167,1,8,0:0:0:0:
96,96,29334,1,0,0:0:0:0:
96,96,29667,1,8,0:0:0:0:
96,96,29917,1,0,0:0:0:0:
96,96,30000,1,0,0:0:0:0:
96,96,30167,1,0,0:0:0:0:
96,96,30334,1,8,0:0:0:0:
96,96,30500,1,0,0:0:0:0:
96,96,30667,1,8,0:0:0:0:
96,96,31000,1,0,0:0:0:0:
88,96,31167,1,8,0:0:0:0:
96,96,31334,1,8,0:0:0:0:
96,96,31417,1,0,0:0:0:0:
96,96,31584,1,0,0:0:0:0:
96,96,31667,1,8,0:0:0:0:
96,96,31834,1,8,0:0:0:0:
104,96,32000,2,0,B|112:88|112:96|104:88|104:88|96:96|96:88|88:96|88:96|88:88|88:88|104:104|104:112|96:112|88:120,3,80,0|0|0|0,0:0|0:0|0:0|0:0,0:0:0:0:
96,104,32667,1,0,0:0:0:0:
96,104,33000,1,12,0:0:0:0:
96,104,33334,1,0,0:0:0:0:
96,104,33500,1,8,0:0:0:0:
96,104,33667,1,4,0:0:0:0:
96,104,33834,1,8,0:0:0:0:
96,104,33917,1,8,0:0:0:0:
96,104,34000,1,0,0:0:0:0:
96,104,34167,1,8,0:0:0:0:
96,104,34334,1,4,0:0:0:0:
96,104,34500,1,8,0:0:0:0:
96,104,34667,1,0,0:0:0:0:
96,104,34834,1,0,0:0:0:0:
96,104,35000,1,12,0:0:0:0:
96,104,35167,1,0,0:0:0:0:
96,104,35250,1,0,0:0:0:0:
96,104,35334,1,0,0:0:0:0:
96,104,35500,1,8,0:0:0:0:
96,104,35667,1,12,0:0:0:0:
96,104,35834,1,8,0:0:0:0:
96,104,36000,1,0,0:0:0:0:
96,104,36167,1,8,0:0:0:0:
96,104,36334,1,12,0:0:0:0:
96,104,36500,1,0,0:0:0:0:
96,104,36667,1,8,0:0:0:0:
96,104,36834,1,0,0:0:0:0:
96,104,37000,1,12,0:0:0:0:
96,104,37167,1,0,0:0:0:0:
96,104,37250,1,0,0:0:0:0:
96,104,37334,1,0,0:0:0:0:
96,104,37500,1,8,0:0:0:0:
96,104,37667,1,12,0:0:0:0:
96,104,37834,1,8,0:0:0:0:
96,104,37917,1,8,0:0:0:0:
96,104,38000,1,0,0:0:0:0:
96,104,38167,1,8,0:0:0:0:
96,104,38334,1,4,0:0:0:0:
96,104,38500,1,8,0:0:0:0:
96,104,38667,1,0,0:0:0:0:
96,104,38750,1,0,0:0:0:0:
96,104,38834,1,8,0:0:0:0:
96,104,39000,1,4,0:0:0:0:
96,104,39167,1,8,0:0:0:0:
96,104,39334,1,0,0:0:0:0:
96,104,39417,1,0,0:0:0:0:
96,104,39500,1,8,0:0:0:0:
96,104,39667,1,4,0:0:0:0:
96,104,39834,1,8,0:0:0:0:
96,104,40000,1,0,0:0:0:0:
96,104,40084,1,8,0:0:0:0:
96,104,40167,1,8,0:0:0:0:
96,104,40334,1,4,0:0:0:0:
96,104,40500,1,8,0:0:0:0:
96,104,40667,1,0,0:0:0:0:
96,104,40750,1,8,0:0:0:0:
96,104,40834,1,8,0:0:0:0:
96,104,41000,1,4,0:0:0:0:
96,104,41167,1,8,0:0:0:0:
96,104,41250,1,8,0:0:0:0:
96,104,41334,1,0,0:0:0:0:
96,104,41500,1,8,0:0:0:0:
96,104,41584,1,0,0:0:0:0:
96,104,41667,1,8,0:0:0:0:
96,104,41834,1,0,0:0:0:0:
96,104,42000,1,8,0:0:0:0:
96,104,42167,1,0,0:0:0:0:
96,104,42250,1,0,0:0:0:0:
96,104,42334,1,8,0:0:0:0:
96,104,42500,1,8,0:0:0:0:
104,96,42667,2,0,B|112:88|112:96|104:88|104:88|96:96|96:88|88:96|88:96|88:88|88:88|104:104|104:112|96:112|88:120,3,80,0|0|0|0,0:0|0:0|0:0|0:0,0:0:0:0:
96,104,43334,1,0,0:0:0:0:
96,104,43667,1,12,0:0:0:0:
96,104,44000,1,8,0:0:0:0:
96,104,44112,1,8,0:0:0:0:
96,104,44223,1,0,0:0:0:0:
96,104,44334,1,8,0:0:0:0:
96,104,44556,1,0,0:0:0:0:
96,104,44667,1,8,0:0:0:0:
96,104,44778,1,8,0:0:0:0:
96,104,44889,1,0,0:0:0:0:
96,104,45000,1,8,0:0:0:0:
96,104,45223,1,0,0:0:0:0:
96,104,45334,1,8,0:0:0:0:
96,104,45445,1,0,0:0:0:0:
96,104,45556,1,0,0:0:0:0:
96,104,45667,1,8,0:0:0:0:
96,104,45889,1,0,0:0:0:0:
96,104,46000,1,8,0:0:0:0:
96,104,46112,1,0,0:0:0:0:
96,104,46223,1,0,0:0:0:0:
96,104,46334,1,8,0:0:0:0:
96,104,46556,1,0,0:0:0:0:
96,104,46667,1,8,0:0:0:0:
96,104,46778,1,8,0:0:0:0:
96,104,46889,1,8,0:0:0:0:
96,104,47000,1,0,0:0:0:0:
96,104,47223,1,0,0:0:0:0:
96,104,47334,1,8,0:0:0:0:
96,104,47445,1,8,0:0:0:0:
96,104,47556,1,8,0:0:0:0:
96,104,47667,1,0,0:0:0:0:
96,104,47889,1,0,0:0:0:0:
96,104,48000,1,8,0:0:0:0:
96,104,48112,1,0,0:0:0:0:
96,104,48223,1,0,0:0:0:0:
96,104,48334,1,8,0:0:0:0:
96,104,48445,1,0,0:0:0:0:
96,104,48556,1,0,0:0:0:0:
96,104,48667,1,8,0:0:0:0:
96,104,48889,1,8,0:0:0:0:
96,104,49000,1,0,0:0:0:0:
96,104,49223,1,0,0:0:0:0:
96,104,49334,1,8,0:0:0:0:
96,104,49445,1,0,0:0:0:0:
96,104,49556,1,0,0:0:0:0:
96,104,49667,1,8,0:0:0:0:
96,104,49889,1,0,0:0:0:0:
96,104,50000,1,8,0:0:0:0:
96,104,50112,1,0,0:0:0:0:
96,104,50223,1,0,0:0:0:0:
96,104,50334,1,8,0:0:0:0:
96,104,50556,1,0,0:0:0:0:
96,104,50667,1,8,0:0:0:0:
96,104,50778,1,8,0:0:0:0:
96,104,50889,1,0,0:0:0:0:
96,104,51000,1,8,0:0:0:0:
96,104,51223,1,0,0:0:0:0:
96,104,51334,1,8,0:0:0:0:
96,104,51445,1,8,0:0:0:0:
96,104,51556,1,0,0:0:0:0:
96,104,51667,1,8,0:0:0:0:
96,104,51889,1,0,0:0:0:0:
96,104,52000,1,8,0:0:0:0:
96,104,52112,1,8,0:0:0:0:
96,104,52223,1,8,0:0:0:0:
96,104,52334,1,0,0:0:0:0:
96,104,52445,1,8,0:0:0:0:
96,104,52556,1,0,0:0:0:0:
96,104,52667,1,8,0:0:0:0:
96,104,52889,1,8,0:0:0:0:
96,104,53000,1,0,0:0:0:0:
96,104,53112,1,8,0:0:0:0:
96,104,53223,1,0,0:0:0:0:
96,104,53334,1,0,0:0:0:0:
96,104,53556,1,8,0:0:0:0:
96,104,53667,1,8,0:0:0:0:
96,104,53778,1,8,0:0:0:0:
96,104,53889,1,8,0:0:0:0:
96,104,54000,1,0,0:0:0:0:
96,104,54334,1,12,0:0:0:0:
96,104,54667,1,8,0:0:0:0:
96,104,54750,1,8,0:0:0:0:
96,104,54834,1,8,0:0:0:0:
96,104,55000,1,0,0:0:0:0:
96,104,55084,1,0,0:0:0:0:
96,104,55167,1,0,0:0:0:0:
96,104,55334,1,8,0:0:0:0:
96,104,55417,1,8,0:0:0:0:
96,104,55500,1,8,0:0:0:0:
96,104,55584,1,8,0:0:0:0:
96,104,55667,1,0,0:0:0:0:
96,104,55750,1,0,0:0:0:0:
96,104,55834,1,0,0:0:0:0:
96,104,56000,1,8,0:0:0:0:
96,104,56084,1,8,0:0:0:0:
96,104,56167,1,0,0:0:0:0:
96,104,56334,1,8,0:0:0:0:
96,104,56417,1,0,0:0:0:0:
96,104,56500,1,0,0:0:0:0:
96,104,56667,1,8,0:0:0:0:
96,104,56750,1,8,0:0:0:0:
96,104,56834,1,0,0:0:0:0:
96,104,56917,1,0,0:0:0:0:
96,104,57000,1,8,0:0:0:0:
96,104,57084,1,0,0:0:0:0:
96,104,57167,1,0,0:0:0:0:
96,104,57334,1,8,0:0:0:0:
96,104,57417,1,0,0:0:0:0:
96,104,57500,1,0,0:0:0:0:
96,104,57667,1,8,0:0:0:0:
96,104,57750,1,0,0:0:0:0:
96,104,57834,1,0,0:0:0:0:
96,104,58000,1,8,0:0:0:0:
96,104,58084,1,0,0:0:0:0:
96,104,58167,1,0,0:0:0:0:
96,104,58250,1,0,0:0:0:0:
96,104,58334,1,8,0:0:0:0:
96,104,58417,1,0,0:0:0:0:
96,104,58500,1,0,0:0:0:0:
96,104,58667,1,8,0:0:0:0:
96,104,58750,1,8,0:0:0:0:
96,104,58834,1,0,0:0:0:0:
96,104,59000,1,8,0:0:0:0:
96,104,59084,1,8,0:0:0:0:
96,104,59167,1,0,0:0:0:0:
96,104,59334,1,8,0:0:0:0:
96,104,59417,1,8,0:0:0:0:
96,104,59500,1,0,0:0:0:0:
96,104,59584,1,8,0:0:0:0:
96,104,59667,1,8,0:0:0:0:
96,104,59750,1,8,0:0:0:0:
96,104,59834,1,0,0:0:0:0:
96,104,60001,1,8,0:0:0:0:
96,104,60084,1,0,0:0:0:0:
96,104,60168,1,0,0:0:0:0:
96,104,60251,1,0,0:0:0:0:
96,104,60334,1,8,0:0:0:0:
96,104,60418,1,0,0:0:0:0:
96,104,60501,1,0,0:0:0:0:
96,104,60668,1,8,0:0:0:0:
96,104,60750,1,0,0:0:0:0:
96,104,60834,1,0,0:0:0:0:
96,104,60918,1,0,0:0:0:0:
96,104,61001,1,8,0:0:0:0:
96,104,61084,1,0,0:0:0:0:
96,104,61168,1,0,0:0:0:0:
96,104,61334,1,8,0:0:0:0:
96,104,61418,1,8,0:0:0:0:
96,104,61501,1,0,0:0:0:0:
96,104,61584,1,0,0:0:0:0:
96,104,61668,1,8,0:0:0:0:
96,104,61751,1,8,0:0:0:0:
96,104,61834,1,0,0:0:0:0:
96,104,62000,1,8,0:0:0:0:
96,104,62084,1,8,0:0:0:0:
96,104,62168,1,0,0:0:0:0:
96,104,62251,1,0,0:0:0:0:
96,104,62334,1,8,0:0:0:0:
96,104,62418,1,8,0:0:0:0:
96,104,62501,1,0,0:0:0:0:
96,104,62668,1,8,0:0:0:0:
96,104,62751,1,8,0:0:0:0:
96,104,62834,1,8,0:0:0:0:
96,104,62918,1,0,0:0:0:0:
96,104,63000,1,8,0:0:0:0:
96,104,63084,1,8,0:0:0:0:
96,104,63168,1,0,0:0:0:0:
96,104,63334,1,8,0:0:0:0:
96,104,63418,1,0,0:0:0:0:
96,104,63501,1,0,0:0:0:0:
96,104,63584,1,8,0:0:0:0:
96,104,63668,1,8,0:0:0:0:
96,104,63751,1,8,0:0:0:0:
96,104,63834,1,0,0:0:0:0:
96,104,64001,1,8,0:0:0:0:
96,104,64084,1,8,0:0:0:0:
96,104,64168,1,8,0:0:0:0:
96,104,64251,1,8,0:0:0:0:
96,104,64334,1,0,0:0:0:0:
96,104,64418,1,0,0:0:0:0:
96,104,64501,1,0,0:0:0:0:
96,104,64584,1,0,0:0:0:0:
96,104,64668,1,8,0:0:0:0:
96,104,64834,1,8,0:0:0:0:
96,104,64917,1,8,0:0:0:0:
96,104,65000,1,8,0:0:0:0:
96,104,65334,1,0,0:0:0:0:
96,104,65667,1,8,0:0:0:0:
96,104,66000,1,0,0:0:0:0:
96,104,66167,1,0,0:0:0:0:
96,104,66334,1,8,0:0:0:0:
96,104,66667,1,0,0:0:0:0:
96,104,67000,1,8,0:0:0:0:
96,104,67167,1,0,0:0:0:0:
96,104,67500,1,0,0:0:0:0:
96,104,67667,1,8,0:0:0:0:
96,104,67834,1,8,0:0:0:0:
96,104,68000,1,0,0:0:0:0:
96,104,68334,1,8,0:0:0:0:
96,104,68500,1,0,0:0:0:0:
96,104,68667,1,0,0:0:0:0:
96,104,68750,1,8,0:0:0:0:
96,104,68917,1,8,0:0:0:0:
96,104,69000,1,0,0:0:0:0:
96,104,69167,1,8,0:0:0:0:
96,104,69334,1,0,0:0:0:0:
96,104,69667,1,8,0:0:0:0:
96,104,69917,1,8,0:0:0:0:
96,104,70000,1,0,0:0:0:0:
96,104,70167,1,0,0:0:0:0:
96,104,70250,1,0,0:0:0:0:
96,104,70334,1,8,0:0:0:0:
96,104,70500,1,8,0:0:0:0:
96,104,70584,1,8,0:0:0:0:
96,104,70667,1,0,0:0:0:0:
96,104,70834,1,8,0:0:0:0:
96,104,71000,1,0,0:0:0:0:
96,104,71167,1,8,0:0:0:0:
96,104,71334,1,0,0:0:0:0:
96,104,71584,1,8,0:0:0:0:
96,104,71667,1,0,0:0:0:0:
96,104,71834,1,8,0:0:0:0:
96,104,71917,1,8,0:0:0:0:
96,104,72000,1,0,0:0:0:0:
96,104,72167,1,0,0:0:0:0:
96,104,72334,1,8,0:0:0:0:
96,104,72584,1,0,0:0:0:0:
96,104,72667,1,8,0:0:0:0:
96,104,72834,1,0,0:0:0:0:
96,104,72917,1,0,0:0:0:0:
96,104,73000,1,8,0:0:0:0:
96,104,73084,1,8,0:0:0:0:
96,104,73250,1,8,0:0:0:0:
96,104,73334,1,0,0:0:0:0:
96,104,73417,1,8,0:0:0:0:
96,104,73584,1,8,0:0:0:0:
96,104,73667,1,0,0:0:0:0:
96,104,73834,1,0,0:0:0:0:
96,104,73917,1,0,0:0:0:0:
96,104,74000,1,8,0:0:0:0:
96,104,74167,1,8,0:0:0:0:
96,104,74250,1,8,0:0:0:0:
96,104,74334,1,8,0:0:0:0:
96,104,74500,1,8,0:0:0:0:
96,104,74667,2,0,B|104:104|104:104|104:96|104:96|96:96|96:96|88:96|88:96|96:112|96:112|88:112|88:112|88:104|88:104|104:112|104:112|96:120|96:120|80:104|80:104|96:88|96:88|112:104|112:104|112:96|112:96|80:96|80:96|80:112|80:112|112:112|112:112,1,260,0|0,0:0|0:0,0:0:0:0:
96,104,75334,1,0,0:0:0:0:
96,104,75667,1,12,0:0:0:0:
104,104,76000,1,8,0:0:0:0:
96,104,76112,1,8,0:0:0:0:
96,104,76223,1,8,0:0:0:0:
96,104,76334,1,0,0:0:0:0:
96,104,76445,1,0,0:0:0:0:
96,104,76556,1,0,0:0:0:0:
104,104,76667,1,8,0:0:0:0:
96,104,76779,1,8,0:0:0:0:
96,104,76890,1,8,0:0:0:0:
96,104,77001,1,0,0:0:0:0:
96,104,77223,1,0,0:0:0:0:
104,104,77334,1,8,0:0:0:0:
96,104,77446,1,8,0:0:0:0:
96,104,77557,1,0,0:0:0:0:
96,104,77668,1,8,0:0:0:0:
96,104,77779,1,8,0:0:0:0:
96,104,77890,1,0,0:0:0:0:
104,104,78000,1,8,0:0:0:0:
96,104,78112,1,8,0:0:0:0:
96,104,78223,1,0,0:0:0:0:
96,104,78334,1,8,0:0:0:0:
96,104,78556,1,0,0:0:0:0:
104,104,78667,1,0,0:0:0:0:
96,104,78779,1,0,0:0:0:0:
96,104,78890,1,0,0:0:0:0:
96,104,79001,1,8,0:0:0:0:
96,104,79112,1,8,0:0:0:0:
96,104,79223,1,8,0:0:0:0:
104,104,79334,1,0,0:0:0:0:
96,104,79446,1,0,0:0:0:0:
96,104,79557,1,0,0:0:0:0:
96,104,79668,1,8,0:0:0:0:
96,104,79889,1,8,0:0:0:0:
96,104,80000,1,0,0:0:0:0:
96,104,80112,1,0,0:0:0:0:
96,104,80223,1,0,0:0:0:0:
96,104,80334,1,0,0:0:0:0:
96,104,80445,1,0,0:0:0:0:
96,104,80556,1,0,0:0:0:0:
104,104,80667,1,8,0:0:0:0:
96,104,80779,1,8,0:0:0:0:
96,104,80890,1,8,0:0:0:0:
96,104,81001,1,8,0:0:0:0:
96,104,81334,1,0,0:0:0:0:
96,104,81445,1,0,0:0:0:0:
96,104,81556,1,0,0:0:0:0:
104,104,81667,1,8,0:0:0:0:
104,104,81778,1,8,0:0:0:0:
104,104,81889,1,8,0:0:0:0:
104,104,82000,1,0,0:0:0:0:
104,104,82112,1,0,0:0:0:0:
104,104,82223,1,0,0:0:0:0:
104,104,82334,1,8,0:0:0:0:
104,104,82445,1,8,0:0:0:0:
104,104,82556,1,8,0:0:0:0:
96,104,82667,1,0,0:0:0:0:
96,104,82778,1,0,0:0:0:0:
104,104,82889,1,8,0:0:0:0:
104,104,83000,1,0,0:0:0:0:
104,104,83112,1,0,0:0:0:0:
104,104,83223,1,8,0:0:0:0:
104,104,83334,1,0,0:0:0:0:
104,104,83445,1,0,0:0:0:0:
104,104,83556,1,8,0:0:0:0:
104,104,83667,1,0,0:0:0:0:
104,104,84000,1,0,0:0:0:0:
104,104,84112,1,0,0:0:0:0:
104,104,84223,1,0,0:0:0:0:
104,104,84334,1,8,0:0:0:0:
104,104,84445,1,8,0:0:0:0:
104,104,84556,1,8,0:0:0:0:
104,104,84667,1,0,0:0:0:0:
104,104,84778,1,0,0:0:0:0:
104,104,84889,1,0,0:0:0:0:
104,104,85000,1,8,0:0:0:0:
104,104,85112,1,8,0:0:0:0:
104,104,85223,1,8,0:0:0:0:
104,104,85334,1,8,0:0:0:0:
104,104,85417,1,8,0:0:0:0:
104,104,85500,1,8,0:0:0:0:
104,104,85584,1,8,0:0:0:0:
104,104,85667,1,0,0:0:0:0:
104,104,85750,1,0,0:0:0:0:
104,104,85834,1,0,0:0:0:0:
96,96,85917,1,0,0:0:0:0:
96,96,86000,1,8,0:0:0:0:
104,104,86334,1,8,0:0:0:0:
104,104,86667,1,8,0:0:0:0:
104,104,86750,1,8,0:0:0:0:
104,104,86834,1,0,0:0:0:0:
104,104,87000,1,8,0:0:0:0:
104,104,87084,1,8,0:0:0:0:
104,104,87167,1,0,0:0:0:0:
104,104,87334,1,8,0:0:0:0:
104,104,87417,1,8,0:0:0:0:
104,104,87500,1,0,0:0:0:0:
104,104,87667,1,8,0:0:0:0:
104,104,87750,1,8,0:0:0:0:
104,104,87834,1,0,0:0:0:0:
104,104,88000,1,4,0:0:0:0:
104,104,88334,1,12,0:0:0:0:
104,104,88667,1,4,0:0:0:0:
104,104,89000,1,12,0:0:0:0:
