osu file format v14

[General]
AudioFilename: (+1)BREAKIN' electronic.mp3
AudioLeadIn: 0
PreviewTime: 11889
Countdown: 0
SampleSet: Normal
StackLeniency: 0.7
Mode: 1
LetterboxInBreaks: 0
WidescreenStoryboard: 1

[Editor]
DistanceSpacing: 1
BeatDivisor: 4
GridSize: 8
TimelineZoom: 2.8

[Metadata]
Title:BREAKIN' Electronic
TitleUnicode:BREAKIN' Electronic
Artist:Rekii
ArtistUnicode:れきい
Creator:monkeydluffy3u4
Version:Muzukashii
Source:
Tags:
BeatmapID:516679
BeatmapSetID:203793

[Difficulty]
HPDrainRate:5
CircleSize:4
OverallDifficulty:5
ApproachRate:4
SliderMultiplier:1.4
SliderTickRate:2

[Events]
//Background and Video events
0,0,"Breakinnn''.PNG",0,0
//Break Periods
//Storyboard Layer 0 (Background)
//Storyboard Layer 1 (Fail)
//Storyboard Layer 2 (Pass)
//Storyboard Layer 3 (Foreground)
//Storyboard Sound Samples

[TimingPoints]
1,333.333333333333,4,1,0,65,1,0
1,-100,4,1,0,40,0,0
1000,-100,4,1,0,65,0,0
1334,-100,4,1,0,65,0,0
12000,-100,4,1,0,65,0,0
22667,-100,4,1,0,65,0,0
33334,-100,4,1,0,65,0,0
44000,-100,4,1,0,65,0,0
54667,-100,4,1,0,65,0,0
76000,-100,4,1,0,72,0,1
89000,-100,4,1,0,72,0,0

[Colours]
Combo1 : 255,255,255
Combo2 : 255,255,255

[HitObjects]
211,228,1,5,0,0:0:0:0:
210,221,334,1,0,0:0:0:0:
211,228,667,1,0,0:0:0:0:
80,96,1000,1,12,0:0:0:0:
80,96,1334,1,0,0:0:0:0:
80,96,1667,1,8,0:0:0:0:
80,96,2000,1,0,0:0:0:0:
80,96,2167,1,0,0:0:0:0:
80,96,2334,1,8,0:0:0:0:
72,96,2667,1,0,0:0:0:0:
72,96,3000,1,8,0:0:0:0:
72,96,3334,1,0,0:0:0:0:
72,96,3417,1,0,0:0:0:0:
72,96,3500,1,0,0:0:0:0:
72,96,3667,1,8,0:0:0:0:
72,96,4000,1,0,0:0:0:0:
72,96,4334,1,8,0:0:0:0:
72,96,4500,1,0,0:0:0:0:
64,88,4834,1,0,0:0:0:0:
64,88,5000,1,8,0:0:0:0:
64,88,5334,1,0,0:0:0:0:
64,88,5667,1,8,0:0:0:0:
64,88,5834,1,0,0:0:0:0:
64,88,6167,1,0,0:0:0:0:
64,88,6334,1,8,0:0:0:0:
64,88,6500,1,0,0:0:0:0:
64,88,6667,1,0,0:0:0:0:
64,88,6834,1,0,0:0:0:0:
64,88,7000,1,8,0:0:0:0:
64,88,7334,1,0,0:0:0:0:
64,88,7500,1,0,0:0:0:0:
64,88,7667,1,8,0:0:0:0:
64,88,7834,1,0,0:0:0:0:
64,88,8000,1,0,0:0:0:0:
56,88,8167,1,0,0:0:0:0:
56,88,8334,1,8,0:0:0:0:
56,88,8667,1,0,0:0:0:0:
56,88,8834,1,0,0:0:0:0:
56,88,9000,1,8,0:0:0:0:
48,88,9167,1,0,0:0:0:0:
48,88,9334,1,0,0:0:0:0:
48,88,9500,1,0,0:0:0:0:
56,88,9667,1,8,0:0:0:0:
56,88,10000,1,0,0:0:0:0:
56,88,10167,1,0,0:0:0:0:
56,88,10334,1,8,0:0:0:0:
56,88,10500,1,8,0:0:0:0:
48,88,10667,2,0,L|352:88,1,280
48,88,11667,1,12,0:0:0:0:
48,88,12000,1,0,0:0:0:0:
48,88,12334,1,8,0:0:0:0:
48,88,12500,1,0,0:0:0:0:
48,88,12667,1,0,0:0:0:0:
48,88,13000,1,8,0:0:0:0:
48,88,13167,1,0,0:0:0:0:
48,88,13250,1,0,0:0:0:0:
48,88,13334,1,0,0:0:0:0:
48,88,13500,1,0,0:0:0:0:
48,88,13667,1,8,0:0:0:0:
48,88,14000,1,0,0:0:0:0:
48,88,14334,1,8,0:0:0:0:
48,88,14500,1,8,0:0:0:0:
48,80,14584,1,8,0:0:0:0:
48,88,14667,1,0,0:0:0:0:
48,88,14917,1,0,0:0:0:0:
48,88,15000,1,8,0:0:0:0:
48,88,15334,1,0,0:0:0:0:
48,88,15500,1,0,0:0:0:0:
48,88,15667,1,8,0:0:0:0:
48,88,16000,1,0,0:0:0:0:
48,88,16250,1,0,0:0:0:0:
48,88,16334,1,8,0:0:0:0:
48,88,16667,1,0,0:0:0:0:
48,88,16750,1,0,0:0:0:0:
48,88,16834,1,0,0:0:0:0:
40,80,17000,1,8,0:0:0:0:
48,88,17167,1,8,0:0:0:0:
40,80,17334,1,0,0:0:0:0:
48,80,17667,1,8,0:0:0:0:
40,80,17834,1,0,0:0:0:0:
40,80,18000,1,8,0:0:0:0:
40,80,18167,1,0,0:0:0:0:
40,80,18334,1,8,0:0:0:0:
40,80,18584,1,8,0:0:0:0:
40,80,18667,1,0,0:0:0:0:
40,80,18834,1,0,0:0:0:0:
48,80,19000,1,8,0:0:0:0:
48,80,19167,1,0,0:0:0:0:
40,80,19334,1,0,0:0:0:0:
40,80,19500,1,0,0:0:0:0:
40,80,19667,1,8,0:0:0:0:
40,80,19834,1,8,0:0:0:0:
40,80,19917,1,8,0:0:0:0:
40,80,20000,1,0,0:0:0:0:
40,80,20167,1,0,0:0:0:0:
40,80,20334,1,8,0:0:0:0:
40,80,20584,1,8,0:0:0:0:
40,80,20667,1,0,0:0:0:0:
40,80,20834,1,0,0:0:0:0:
40,80,21000,1,8,0:0:0:0:
40,80,21167,1,8,0:0:0:0:
40,80,21334,2,0,L|320:80,1,280
40,80,22334,1,12,0:0:0:0:
40,80,22667,1,0,0:0:0:0:
40,80,23000,1,8,0:0:0:0:
40,80,23334,1,0,0:0:0:0:
40,80,23500,1,0,0:0:0:0:
40,80,23667,1,8,0:0:0:0:
40,80,24000,1,0,0:0:0:0:
40,80,24167,1,0,0:0:0:0:
40,80,24334,1,8,0:0:0:0:
40,80,24500,1,0,0:0:0:0:
40,80,24667,1,0,0:0:0:0:
40,80,24834,1,0,0:0:0:0:
40,80,25000,1,8,0:0:0:0:
32,80,25334,1,0,0:0:0:0:
32,80,25667,1,8,0:0:0:0:
32,80,25834,1,0,0:0:0:0:
32,80,26167,1,0,0:0:0:0:
32,80,26334,1,8,0:0:0:0:
32,80,26667,1,0,0:0:0:0:
32,80,27000,1,8,0:0:0:0:
32,80,27167,1,0,0:0:0:0:
32,80,27500,1,0,0:0:0:0:
32,80,27667,1,8,0:0:0:0:
32,80,27834,1,8,0:0:0:0:
32,88,28000,1,0,0:0:0:0:
32,88,28167,1,0,0:0:0:0:
32,88,28334,1,8,0:0:0:0:
32,88,28667,1,0,0:0:0:0:
32,88,28834,1,0,0:0:0:0:
24,88,29000,1,8,0:0:0:0:
24,88,29334,1,0,0:0:0:0:
24,88,29500,1,0,0:0:0:0:
24,88,29667,1,8,0:0:0:0:
24,88,29834,1,0,0:0:0:0:
24,88,30000,1,0,0:0:0:0:
24,88,30167,1,0,0:0:0:0:
24,88,30334,1,8,0:0:0:0:
24,88,30667,1,0,0:0:0:0:
24,88,30834,1,0,0:0:0:0:
24,88,31000,1,8,0:0:0:0:
24,88,31167,1,8,0:0:0:0:
24,88,31334,1,0,0:0:0:0:
24,88,31417,1,0,0:0:0:0:
24,88,31500,1,0,0:0:0:0:
24,88,31667,1,8,0:0:0:0:
24,88,32000,2,0,L|328:88,1,280
16,88,33000,1,12,0:0:0:0:
16,88,33334,1,0,0:0:0:0:
16,88,33667,1,12,0:0:0:0:
16,88,34000,1,0,0:0:0:0:
16,88,34334,1,12,0:0:0:0:
16,88,34667,1,0,0:0:0:0:
16,88,34834,1,0,0:0:0:0:
16,88,35000,1,12,0:0:0:0:
16,88,35334,1,0,0:0:0:0:
16,88,35500,1,0,0:0:0:0:
16,88,35667,1,12,0:0:0:0:
16,88,36000,1,0,0:0:0:0:
16,88,36167,1,0,0:0:0:0:
16,88,36334,1,12,0:0:0:0:
16,88,36500,1,0,0:0:0:0:
16,88,36667,1,0,0:0:0:0:
16,88,37000,1,12,0:0:0:0:
16,88,37167,1,0,0:0:0:0:
16,88,37334,1,0,0:0:0:0:
16,88,37500,1,0,0:0:0:0:
16,88,37667,1,12,0:0:0:0:
16,88,37834,1,0,0:0:0:0:
16,88,38000,1,0,0:0:0:0:
16,88,38334,1,12,0:0:0:0:
16,88,38500,1,0,0:0:0:0:
16,88,38667,1,0,0:0:0:0:
16,88,38834,1,0,0:0:0:0:
16,88,39000,1,12,0:0:0:0:
16,88,39334,1,0,0:0:0:0:
16,88,39500,1,0,0:0:0:0:
16,88,39667,1,12,0:0:0:0:
16,88,40000,1,0,0:0:0:0:
16,88,40084,1,0,0:0:0:0:
16,88,40167,1,0,0:0:0:0:
16,88,40334,1,12,0:0:0:0:
16,88,40584,1,0,0:0:0:0:
16,88,40667,1,0,0:0:0:0:
16,88,40834,1,0,0:0:0:0:
16,88,41000,1,12,0:0:0:0:
16,88,41250,1,0,0:0:0:0:
16,88,41334,1,0,0:0:0:0:
16,88,41500,1,0,0:0:0:0:
16,88,41667,1,12,0:0:0:0:
16,88,41834,1,0,0:0:0:0:
16,88,42000,1,0,0:0:0:0:
16,88,42167,1,0,0:0:0:0:
16,88,42334,1,12,0:0:0:0:
16,88,42500,1,0,0:0:0:0:
8,80,42667,2,0,L|344:88,1,280
16,96,43667,1,12,0:0:0:0:
16,96,44000,1,8,0:0:0:0:
16,96,44334,1,0,0:0:0:0:
8,104,44556,1,0,0:0:0:0:
16,96,44667,1,8,0:0:0:0:
16,96,45000,1,0,0:0:0:0:
8,104,45223,1,0,0:0:0:0:
16,96,45334,1,8,0:0:0:0:
16,96,45556,1,0,0:0:0:0:
16,96,45667,1,0,0:0:0:0:
16,96,45889,1,0,0:0:0:0:
16,96,46000,1,8,0:0:0:0:
16,96,46223,1,0,0:0:0:0:
16,96,46334,1,0,0:0:0:0:
16,96,46556,1,0,0:0:0:0:
16,96,46667,1,8,0:0:0:0:
16,96,47000,1,0,0:0:0:0:
16,96,47223,1,0,0:0:0:0:
16,96,47334,1,8,0:0:0:0:
16,96,47667,1,0,0:0:0:0:
16,96,47889,1,0,0:0:0:0:
16,96,48000,1,8,0:0:0:0:
16,96,48223,1,0,0:0:0:0:
16,96,48334,1,0,0:0:0:0:
16,96,48556,1,0,0:0:0:0:
16,96,48667,1,8,0:0:0:0:
16,96,48889,1,0,0:0:0:0:
16,96,49000,1,0,0:0:0:0:
16,96,49223,1,0,0:0:0:0:
16,96,49334,1,8,0:0:0:0:
16,96,49667,1,0,0:0:0:0:
16,96,50000,1,8,0:0:0:0:
16,96,50112,1,0,0:0:0:0:
16,96,50223,1,0,0:0:0:0:
16,96,50334,1,8,0:0:0:0:
16,96,50667,1,8,0:0:0:0:
16,96,51000,1,0,0:0:0:0:
16,96,51334,1,8,0:0:0:0:
16,96,51445,1,0,0:0:0:0:
16,96,51556,1,0,0:0:0:0:
16,96,51667,1,8,0:0:0:0:
16,96,51889,1,0,0:0:0:0:
16,96,52000,1,8,0:0:0:0:
16,96,52334,1,0,0:0:0:0:
16,96,52667,1,8,0:0:0:0:
16,96,52889,1,0,0:0:0:0:
16,96,53000,1,8,0:0:0:0:
16,96,53334,1,0,0:0:0:0:
16,96,53556,1,8,0:0:0:0:
16,96,53667,1,8,0:0:0:0:
16,96,53778,1,8,0:0:0:0:
24,96,53889,1,8,0:0:0:0:
24,96,54000,1,0,0:0:0:0:
16,96,54334,1,12,0:0:0:0:
16,96,54667,1,0,0:0:0:0:
16,96,54834,1,0,0:0:0:0:
16,96,55000,1,0,0:0:0:0:
16,96,55084,1,0,0:0:0:0:
16,96,55167,1,0,0:0:0:0:
16,96,55334,1,8,0:0:0:0:
16,96,55500,1,8,0:0:0:0:
16,96,55667,1,8,0:0:0:0:
16,96,56000,1,0,0:0:0:0:
16,96,56167,1,0,0:0:0:0:
16,96,56334,1,0,0:0:0:0:
16,96,56417,1,0,0:0:0:0:
16,96,56500,1,0,0:0:0:0:
16,96,56667,1,8,0:0:0:0:
16,96,56834,1,8,0:0:0:0:
16,96,57000,1,0,0:0:0:0:
16,96,57334,1,0,0:0:0:0:
16,96,57417,1,0,0:0:0:0:
16,96,57500,1,0,0:0:0:0:
16,96,57667,1,8,0:0:0:0:
16,96,57834,1,8,0:0:0:0:
16,96,58000,1,0,0:0:0:0:
16,96,58084,1,0,0:0:0:0:
16,96,58167,1,0,0:0:0:0:
16,96,58334,1,8,0:0:0:0:
8,96,58667,1,0,0:0:0:0:
16,96,58750,1,0,0:0:0:0:
16,96,58834,1,0,0:0:0:0:
16,96,59000,1,8,0:0:0:0:
16,96,59167,1,8,0:0:0:0:
16,96,59334,1,8,0:0:0:0:
16,96,59500,1,8,0:0:0:0:
16,96,59667,1,8,0:0:0:0:
16,96,60000,1,8,0:0:0:0:
16,96,60167,1,8,0:0:0:0:
8,96,60334,1,0,0:0:0:0:
8,96,60417,1,0,0:0:0:0:
8,96,60500,1,0,0:0:0:0:
8,96,60667,1,8,0:0:0:0:
0,96,60834,1,8,0:0:0:0:
8,96,61000,1,8,0:0:0:0:
8,96,61334,1,0,0:0:0:0:
8,96,61417,1,0,0:0:0:0:
8,96,61500,1,0,0:0:0:0:
8,96,61667,1,8,0:0:0:0:
8,96,61834,1,8,0:0:0:0:
8,96,62000,1,0,0:0:0:0:
8,96,62084,1,0,0:0:0:0:
8,96,62167,1,0,0:0:0:0:
8,96,62334,1,8,0:0:0:0:
8,96,62667,1,0,0:0:0:0:
8,96,62750,1,0,0:0:0:0:
8,96,62834,1,0,0:0:0:0:
8,96,63000,1,0,0:0:0:0:
8,96,63084,1,0,0:0:0:0:
8,96,63167,1,0,0:0:0:0:
8,96,63334,1,8,0:0:0:0:
8,96,63500,1,8,0:0:0:0:
0,104,63667,1,8,0:0:0:0:
8,96,63834,1,8,0:0:0:0:
0,96,64000,1,0,0:0:0:0:
0,96,64223,1,0,0:0:0:0:
0,96,64334,1,0,0:0:0:0:
0,96,64556,1,8,0:0:0:0:
0,96,64667,1,8,0:0:0:0:
0,96,65000,1,12,0:0:0:0:
0,88,65334,1,0,0:0:0:0:
0,88,65500,1,0,0:0:0:0:
0,88,65667,1,8,0:0:0:0:
0,88,66000,1,0,0:0:0:0:
0,88,66167,1,0,0:0:0:0:
0,88,66334,1,8,0:0:0:0:
0,88,66667,1,0,0:0:0:0:
0,88,66834,1,0,0:0:0:0:
0,88,67000,1,8,0:0:0:0:
0,88,67167,1,0,0:0:0:0:
0,88,67334,1,0,0:0:0:0:
0,88,67500,1,0,0:0:0:0:
0,88,67667,1,8,0:0:0:0:
0,88,68000,1,0,0:0:0:0:
0,88,68167,1,0,0:0:0:0:
0,88,68334,1,8,0:0:0:0:
16,96,68667,1,0,0:0:0:0:
16,96,68834,1,0,0:0:0:0:
16,96,69000,1,8,0:0:0:0:
16,96,69334,1,0,0:0:0:0:
16,96,69500,1,0,0:0:0:0:
16,96,69667,1,8,0:0:0:0:
16,96,69834,1,8,0:0:0:0:
16,96,70000,1,0,0:0:0:0:
16,96,70167,1,0,0:0:0:0:
16,96,70334,1,8,0:0:0:0:
16,96,70667,1,0,0:0:0:0:
16,96,71000,1,8,0:0:0:0:
16,96,71167,1,8,0:0:0:0:
16,96,71334,1,0,0:0:0:0:
16,96,71500,1,0,0:0:0:0:
16,96,71667,1,8,0:0:0:0:
16,96,72000,1,0,0:0:0:0:
16,96,72167,1,0,0:0:0:0:
16,96,72334,1,8,0:0:0:0:
16,96,72500,1,8,0:0:0:0:
16,96,72667,1,0,0:0:0:0:
16,96,72834,1,0,0:0:0:0:
16,96,73000,1,8,0:0:0:0:
16,96,73334,1,0,0:0:0:0:
16,96,73500,1,0,0:0:0:0:
16,96,73667,1,0,0:0:0:0:
16,96,73834,1,0,0:0:0:0:
16,96,74000,1,8,0:0:0:0:
16,96,74167,1,8,0:0:0:0:
16,96,74334,1,8,0:0:0:0:
16,96,74500,1,8,0:0:0:0:
16,96,74667,2,0,B|96:256|160:80|200:248|264:64,1,280
16,104,75667,1,12,0:0:0:0:
16,104,76000,1,8,0:0:0:0:
16,104,76167,1,8,0:0:0:0:
16,104,76334,1,8,0:0:0:0:
16,104,76500,1,8,0:0:0:0:
16,104,76667,1,0,0:0:0:0:
16,104,76778,1,0,0:0:0:0:
16,104,76889,1,0,0:0:0:0:
16,104,77000,1,8,0:0:0:0:
16,104,77334,1,8,0:0:0:0:
16,104,77500,1,0,0:0:0:0:
16,104,77667,1,8,0:0:0:0:
16,104,77834,1,0,0:0:0:0:
16,104,78000,1,8,0:0:0:0:
16,104,78112,1,8,0:0:0:0:
16,104,78223,1,8,0:0:0:0:
16,104,78334,1,8,0:0:0:0:
16,104,78667,1,0,0:0:0:0:
16,104,78834,1,0,0:0:0:0:
16,104,79000,1,8,0:0:0:0:
16,104,79112,1,8,0:0:0:0:
16,104,79223,1,8,0:0:0:0:
16,104,79334,1,8,0:0:0:0:
16,104,79500,1,0,0:0:0:0:
16,112,79667,1,8,0:0:0:0:
24,112,80000,1,0,0:0:0:0:
24,112,80167,1,0,0:0:0:0:
16,112,80334,1,8,0:0:0:0:
16,112,80445,1,8,0:0:0:0:
16,112,80556,1,8,0:0:0:0:
16,112,80667,1,8,0:0:0:0:
16,112,80834,1,8,0:0:0:0:
16,112,81000,1,8,0:0:0:0:
16,112,81167,1,8,0:0:0:0:
16,112,81334,1,0,0:0:0:0:
16,112,81556,1,0,0:0:0:0:
16,112,81667,1,0,0:0:0:0:
16,112,81889,1,0,0:0:0:0:
16,112,82000,1,0,0:0:0:0:
8,112,82223,1,8,0:0:0:0:
8,112,82334,1,8,0:0:0:0:
16,112,82556,1,8,0:0:0:0:
16,112,82667,1,0,0:0:0:0:
16,112,82889,1,0,0:0:0:0:
16,112,83000,1,0,0:0:0:0:
16,112,83223,1,0,0:0:0:0:
16,112,83334,1,0,0:0:0:0:
16,112,83556,1,8,0:0:0:0:
8,112,83667,1,8,0:0:0:0:
8,112,83889,1,8,0:0:0:0:
16,112,84000,1,0,0:0:0:0:
16,104,84167,1,0,0:0:0:0:
16,104,84334,1,0,0:0:0:0:
16,104,84500,1,0,0:0:0:0:
16,104,84667,1,8,0:0:0:0:
16,112,84750,1,8,0:0:0:0:
16,112,84834,1,8,0:0:0:0:
16,112,85000,1,8,0:0:0:0:
16,112,85084,1,8,0:0:0:0:
16,112,85167,1,8,0:0:0:0:
24,104,85334,1,0,0:0:0:0:
24,104,85500,1,0,0:0:0:0:
24,104,85667,1,0,0:0:0:0:
16,104,85834,1,0,0:0:0:0:
16,104,86000,1,8,0:0:0:0:
16,104,86084,1,8,0:0:0:0:
16,104,86167,1,8,0:0:0:0:
16,104,86334,1,12,0:0:0:0:
16,96,86667,1,12,0:0:0:0:
16,96,87000,1,12,0:0:0:0:
16,96,87334,1,12,0:0:0:0:
16,96,87667,1,12,0:0:0:0:
16,96,88000,1,4,0:0:0:0:
16,96,88334,1,4,0:0:0:0:
16,96,88667,1,4,0:0:0:0:
16,96,89000,1,12,0:0:0:0:
